#TITLE:The Other Side;
#SUBTITLE:;
#ARTIST:SZA & Justin Timberlake;
#TITLETRANSLIT:;
#SUBTITLETRANSLIT:;
#ARTISTTRANSLIT:;
#GENRE:;
#CREDIT:RxSteps;
#MUSIC:The Other Side.ogg;
#BANNER:The Other Side.png;
#BACKGROUND:The Other Side-bg.png;
#CDTITLE:cdtitle.png;
#SAMPLESTART:39.854;
#SAMPLELENGTH:19.245;
#SELECTABLE:YES;
#OFFSET:2.033;
#BPMS:0.000=106.000;
#STOPS:;
#BGCHANGES:;
#FGCHANGES:;

//--------------- dance-single - RxSteps ----------------
#NOTES:
     dance-single:
     RxSteps:
     Beginner:
     1:
     0,0,0,0,0:
0000
0000
0000
0000
,
0001
0000
0000
0000
,
1000
0000
0000
0000
,
0010
0000
0000
0000
,
0010
0000
0000
0000
,
0100
0000
0000
0000
,
0001
0000
0000
0000
,
1000
0000
1000
0000
,
0010
0000
0000
0000
,
0100
0000
0010
0000
,
0010
0000
0000
0000
,
1000
0000
0000
1000
,
0000
0010
0000
0000
,
1000
0000
0000
0000
,
0001
0000
0000
0000
,
0010
0000
0010
0000
,
1000
0000
0000
0000
,
0100
0000
0100
0000
,
0001
0000
0000
0000
,
1000
0000
1000
0000
,
0010
0000
0000
0000
,
0010
0000
0000
0000
,
0100
0000
0000
0000
,
0001
0000
0000
0000
,
0001
0000
0000
0000
,
1000
0000
0000
0000
,
1000
0000
0000
0000
,
0010
0000
0010
0000
,
0100
0000
0000
0000
,
0001
0000
0000
0000
,
0010
0000
0000
0000
,
1000
0000
0000
1000
,
0000
0000
0010
0000
,
0000
0010
0000
1000
,
0000
0001
0000
0001
,
0000
0000
0100
0000
,
0100
0000
0000
0000
,
0010
0000
0010
0000
,
1000
0000
0000
0000
,
0000
0001
0000
0001
,
0000
0000
1000
0000
,
1000
0000
0000
0000
,
0100
0000
0000
0000
,
0100
0000
0001
0000
,
0100
0000
0000
0000
,
0100
0000
0010
0000
,
1000
0000
0000
0000
,
0001
0000
0001
0000
,
0010
0000
0000
0000
,
1000
0000
0000
0000
,
0100
0000
0000
0000
,
0100
0000
0000
0000
,
0100
0000
0000
0000
,
1000
0000
0000
0000
,
0010
0000
0000
0000
,
0000
0010
0000
0000
,
0010
0000
0000
0000
,
0100
0000
0001
0000
,
0001
0000
0000
0000
,
1000
0000
0000
0000
,
0010
0000
0000
0000
,
0010
0000
0000
0000
,
0100
0000
0000
0000
,
0001
0000
0000
0000
,
0010
0000
0000
0000
,
0001
0000
0000
0000
,
1000
0000
0000
0000
,
0000
0100
0000
0010
,
0000
0010
0000
0000
,
0100
0000
0001
0000
,
1000
0000
0000
0000
,
0010
0000
0010
0000
,
0100
0000
0100
0000
,
1000
0000
0000
0000
,
0001
0000
0000
0000
,
0100
0000
0000
0000
,
0100
0000
0000
0000
,
0010
0000
0000
0000
,
0010
0000
0000
0000
,
1000
0000
0001
0000
,
1000
0000
0000
0000
,
0010
0000
0000
0000
,
1000
0000
0000
0000
;

//--------------- dance-single - RxSteps ----------------
#NOTES:
     dance-single:
     RxSteps:
     Easy:
     3:
     0,0,0,0,0:
0000
0000
0000
0000
,
1000
0000
0000
0000
0000
0000
0000
0010
0000
0000
0000
0000
0000
0000
0000
0000
,
0010
0000
0000
0000
0000
0000
0000
1000
0000
0000
0000
0000
1000
0000
0000
0000
,
1000
0001
0100
0100
,
0010
1000
0001
0000
,
1000
0010
0100
0100
,
0001
0000
0000
1000
,
0001
0001
0010
0100
,
1000
1000
1000
0010
,
0200
0300
0002
0003
,
0020
0000
0030
0000
,
0001
0000
1000
0000
1000
0000
0001
1000
,
0001
0100
0100
0001
,
0200
0300
0020
0030
,
2000
0000
3000
0000
,
1000
0000
0010
1000
0010
0000
1000
0000
,
0001
0000
0000
0001
0000
0000
0100
0000
,
0100
0000
0001
0100
0001
0000
0100
0000
,
0020
0000
0030
0000
,
2000
3000
0020
0030
,
0200
0000
0300
0000
,
0001
0001
0001
0000
,
1000
0000
0010
0000
1000
0000
0000
0200
,
0000
0000
0000
0000
0300
0000
0000
0002
,
0000
0000
0000
0000
0000
0003
0000
2000
,
0000
0000
0000
0000
3000
0000
0000
0020
,
0000
0000
0030
0000
,
0000
1010
0000
1000
,
0010
0010
0100
0010
,
2000
3000
0002
0003
,
0020
0000
0030
0000
,
0001
0001
0001
0100
,
0000
0100
0010
0000
,
1000
1000
1000
0100
,
1000
0100
1000
0000
,
0001
0001
0001
0000
,
0100
0100
0100
0000
,
0020
0030
0010
0000
,
2000
0000
0000
3000
,
0000
0001
0100
0010
,
0010
0100
0010
1000
,
0002
0003
0200
0300
,
0020
0000
0030
0000
,
1000
0000
0010
1000
0010
0000
1000
0000
,
0100
0000
0000
0100
0000
0000
0000
0000
,
0001
0000
0001
0100
0001
0000
0100
0000
,
0001
0000
0000
0001
0000
0000
0000
0000
,
2000
3000
0020
0030
,
0200
0300
0002
0003
,
1000
1000
0010
0100
,
0001
0000
0001
0000
0000
0000
0000
0200
,
0000
0000
0000
0000
0300
0000
0000
0020
,
0000
0000
0000
0000
0030
0000
0000
2000
,
0000
0000
0000
0000
3000
0000
0000
0002
,
0000
0000
0003
0000
,
0000
0101
0000
0001
,
0001
0010
0001
1000
,
0010
0010
1000
0010
,
0020
0000
0030
1000
,
0002
0000
0000
0003
,
0020
0000
0000
0030
,
0200
0000
0000
0300
,
2000
0000
0000
3000
,
1000
0000
0000
1000
0000
0000
0010
0000
,
0100
0000
0000
0100
0000
0000
0001
0000
,
0002
0000
0000
0003
,
0200
0000
0300
0000
,
0001
0000
0001
0010
0001
0000
0100
0000
,
0002
0000
0003
0000
,
1000
0000
1000
0100
1000
0000
0010
0000
,
0200
0000
0300
0001
,
0002
0003
0010
0001
,
1000
0100
0010
0001
,
1000
1000
0010
0010
,
1000
0000
0010
0000
0100
0000
0000
0020
,
0000
0000
0030
0000
,
1000
0000
0010
0000
1000
0000
0000
0002
,
0000
0000
0003
0000
,
0100
0010
0100
0010
,
0010
1000
1000
0100
,
1000
0100
0010
0001
,
1000
0000
0010
0000
,
0100
0000
0000
0001
0000
0000
0000
0000
;

//--------------- dance-single - RxSteps ----------------
#NOTES:
     dance-single:
     RxSteps:
     Medium:
     5:
     0,0,0,0,0:
0000
0000
0000
0000
,
1000
0000
0000
0000
0000
0000
0000
0010
0000
0000
0000
0000
0000
0000
0000
0000
,
0010
0000
0000
0000
0000
0000
0000
0100
0000
0000
0000
0000
0000
0000
0000
0000
,
0001
0010
0100
1000
,
1000
0010
1000
0001
,
0010
0010
0001
1000
,
0200
0000
0000
0000
0000
0000
0000
0000
0300
0000
0000
0000
1000
0000
0000
0100
,
0000
1000
0000
0000
0000
0000
0000
0000
0010
0000
0000
0000
0010
0000
0000
0000
,
0100
0100
0001
1000
,
0001
0100
0010
1000
,
0200
0000
0000
0300
,
1000
0000
0010
0000
0010
0000
1000
0001
,
1000
0001
0010
0100
,
1000
0100
0010
0001
,
2000
0000
0000
0000
3000
0001
1000
0001
,
0100
0000
0001
0100
0002
0000
1003
0000
,
0010
0000
0100
0010
0000
1000
0010
1000
,
0010
0000
0100
0000
0001
1000
0001
0000
,
0100
0000
0001
0100
0000
0001
0010
0001
,
0020
0030
0100
1000
,
0100
0000
0000
1000
0000
0000
0001
0000
0000
0000
1000
0000
0000
0000
0000
0000
,
0010
1000
0010
1000
0010
0000
0100
0000
,
0002
0000
0003
1000
0000
0000
0001
0200
,
0000
0300
0001
0200
0000
0300
0010
2000
,
0000
3000
0001
2000
0000
3000
0000
0020
,
0000
0030
1000
0020
0000
0030
0100
0002
,
0000
0003
1000
0002
0000
0003
0000
0000
,
1000
1000
0010
0100
,
0001
0000
0000
0100
0000
0000
0001
0000
0000
0000
0100
0000
0000
0000
0010
0000
,
0100
0100
0001
1000
,
0010
1000
0010
1000
0000
0000
0001
0000
,
0001
0000
0000
0000
0100
0000
0000
0000
0100
0000
0000
0000
0001
0000
0000
1000
,
0000
0010
1000
0010
,
0100
0000
0001
0000
1000
0000
0010
1000
,
0010
1000
0001
0100
0002
0000
0003
0000
,
1000
0000
0100
1000
0100
0000
1000
0000
,
0100
0010
0001
0100
,
0100
0001
0100
0001
1000
0001
1000
0001
,
0200
0000
0300
0000
,
0000
0110
0000
1001
,
0000
1000
1000
0001
,
1000
0010
0100
0001
,
0200
0000
0000
0300
0000
0100
0001
0100
,
0001
0000
1000
0010
2000
0000
3001
0000
,
0100
0000
0010
0100
0000
0001
0100
0001
,
0100
0000
0010
0000
1000
0001
1000
0000
,
0010
0000
1000
0010
0000
1000
0100
1000
,
0200
0300
0010
0001
,
0010
0000
0000
0001
0000
0000
1000
0000
0000
0000
0001
0000
0000
0000
0000
0000
,
0100
0001
0100
0001
0100
0000
0010
0000
,
2000
0000
3000
0001
0000
0000
1000
0020
,
0000
0030
1000
0020
0000
0030
0100
0002
,
0000
0003
1000
0002
0000
0003
0000
0200
,
0000
0300
0001
0200
0000
0300
0010
2000
,
0000
3000
0001
2000
0000
3000
0000
0000
,
0001
0001
0100
0010
,
1000
0000
0000
0010
0000
0000
1000
0000
0000
0000
0010
0000
0000
0000
0100
0000
,
0010
0010
1000
0001
,
0100
0001
0100
0001
0000
1000
0001
0000
,
1000
0100
0010
0001
,
0010
0100
1000
1000
,
0001
0100
0010
1000
,
0010
1000
0100
0010
,
0002
0000
0003
0001
,
0200
0000
0300
0100
,
0020
0000
0030
0010
,
2000
0000
0000
0000
3000
0001
1000
0001
,
0000
0110
0000
1001
,
0000
0000
0001
0000
0000
0100
0001
0100
,
0001
1000
0001
0000
1000
0100
1000
0000
,
0001
0000
0010
0001
0000
0001
0010
0001
,
0020
0000
0130
1000
,
0100
0010
0001
1000
,
0001
1000
0001
1000
0001
0000
0100
0000
,
0001
0000
0001
0100
0000
0000
0001
2000
,
0000
3000
1000
0020
0000
0030
0010
0000
,
0100
0000
0010
0000
1000
0000
1000
0002
,
0000
0003
0001
0200
0000
0300
0100
0000
,
0001
0010
0100
1000
,
1000
0001
0001
0100
,
0010
0000
0000
0100
0000
0000
0010
0000
0000
0000
1000
0000
0000
0000
0010
0000
,
1000
0010
1000
0010
0200
0000
0300
0000
,
0001
1000
0001
0100
0000
0000
0000
0000
;

//--------------- dance-single - RxSteps ----------------
#NOTES:
     dance-single:
     RxSteps:
     Hard:
     6:
     0,0,0,0,0:
0000
0000
0000
0000
,
0002
0000
0000
0003
0000
0000
0000
0220
0000
0000
0330
0000
0000
0000
0000
0000
,
2000
0000
0000
3000
0000
0000
0000
2020
0000
3030
0000
0000
0010
0000
0000
1000
,
0000
0010
0000
0000
0100
0000
0001
0000
0100
0000
0000
0000
0010
0000
0000
0000
,
1000
0010
0000
0000
0100
0010
0000
0000
0100
0000
0000
0000
0001
0000
0000
0000
,
0010
0000
0001
1000
0001
0000
0100
0000
,
0020
2000
0000
0000
0000
0000
0000
0000
0030
3000
0000
0000
1000
0000
0000
0000
,
0010
1000
0010
0010
0100
0000
1000
0000
,
0010
1000
0000
0000
0001
0100
0000
0000
0010
0000
0000
0000
0100
0000
0000
0000
,
0001
0010
0100
1000
0010
0100
0001
1000
,
0200
2000
0000
0000
0300
0000
3000
0000
0001
0000
0100
0001
0000
0000
0000
0000
,
1000
0000
0010
0000
0200
0000
0000
0000
0001
0300
0000
0000
0010
0000
0001
0000
,
0010
0100
0020
0000
0032
0000
1003
0000
,
0010
1000
0010
0100
0001
1000
0100
0010
,
0001
2000
0000
0000
0000
0000
0000
0000
3000
0000
0010
0000
1000
0000
0010
0000
,
0101
0000
2100
0001
3100
1000
0100
0000
,
2000
3000
0010
0100
0000
0001
1000
0001
,
1000
0010
1020
0100
1030
0010
0100
0000
,
0001
0000
0100
0010
0000
1000
0010
1000
,
0202
0303
1100
0110
,
0001
0000
0000
1000
0000
0000
0010
0000
0000
0000
0100
0000
0000
0000
0001
0100
,
0001
1000
0010
0100
0001
1000
0010
0100
,
0001
0001
1000
0100
0000
1000
0010
2000
,
0000
3000
0002
0200
0003
0300
0002
2000
,
0003
3000
0100
0010
0100
0100
1000
0020
,
0000
0030
0200
0002
0300
0003
0020
0002
,
0030
0003
0010
0100
0000
0010
0001
1000
,
0000
0011
1010
1000
,
0001
0000
0000
0010
0000
0000
0000
0100
0000
0000
1000
0000
0000
0000
0010
1000
,
0010
1000
0010
0100
0001
1000
0010
1000
,
0010
0010
0100
0001
0000
1000
0010
0000
,
0100
0010
1000
0001
,
0100
0000
0010
0000
1000
0000
0010
1000
0010
0000
0000
0000
0100
0000
0000
0000
,
0001
0000
1000
0000
0100
0000
1000
0100
,
0010
0100
0010
0100
1000
0000
0010
0000
,
1000
0000
0001
0000
0100
0001
0100
0000
0001
0000
0000
0000
1000
0000
0000
0000
,
0010
0100
0000
0000
0010
0100
0000
0000
0001
0000
0000
0000
1000
0000
0010
0000
,
1000
0010
0100
0001
0100
0001
0010
0100
,
0000
1000
0001
0000
0000
0000
0000
0000
0100
0000
0000
0000
0001
0000
0100
0000
,
0000
0000
0010
1000
0100
0000
0010
0100
,
0010
0001
1000
0100
1000
0000
0100
0000
,
1000
0100
0010
0001
1000
0001
1000
0010
,
1000
0020
0000
0000
0000
0000
0030
0000
0000
0000
0100
0000
0001
0000
0100
0000
,
1010
0000
0012
1000
0013
0001
0010
0000
,
0002
0003
0100
0010
0000
1000
0001
1000
,
0001
0100
0201
0010
0301
0100
0010
0000
,
1000
0000
0010
0100
0000
0001
0100
0001
,
2020
3030
0011
0110
,
1000
0000
0000
0001
0000
0000
0100
0000
0000
0000
0010
0000
0000
0000
1000
0010
,
1000
0001
0100
0010
1000
0001
0100
0010
,
1000
1000
0001
0010
0000
0001
0100
0002
,
0000
0003
2000
0020
3000
0030
2000
0002
,
3000
0003
0010
0100
0010
0010
0001
0200
,
0000
0300
0020
2000
0030
3000
0200
2000
,
0300
3000
0100
0010
0000
0100
1000
0001
,
0000
1100
0101
0001
,
1000
0000
0000
0100
0000
0000
0000
0010
0000
0000
0001
0000
0000
0000
0100
0001
,
0100
0001
0100
0010
1000
0001
0100
0001
,
0100
0100
0010
1000
0000
0001
0100
0000
,
0010
0000
1000
0000
0000
0000
0010
0000
0100
0000
0000
0000
0010
0000
0000
1000
,
0000
0000
0100
0000
0000
0010
0000
0000
0200
0000
0000
0000
0000
0300
0000
0000
,
1000
0000
0000
0000
0001
0000
0100
0000
0000
0001
0000
0000
0100
0000
0000
0000
,
0010
0000
0001
0000
0000
0100
0000
0000
0001
0000
0000
0000
0100
0000
0000
0000
,
0010
0000
0000
1000
0000
0000
0010
0000
0000
0000
0001
0000
1000
0001
0000
0000
,
0010
0000
0100
0000
0000
0010
0000
0000
1000
0000
0000
0001
1000
0000
0000
0000
,
0002
0000
0000
0000
0003
0100
0010
0000
,
2000
0000
0000
0000
3000
0010
1000
0010
,
0101
0000
2100
0001
3100
1000
0100
0000
,
2000
3000
0010
0100
0000
0001
1000
0001
,
1000
0010
1020
0100
1030
0010
0100
0000
,
0001
0000
0100
0010
0000
1000
0010
1000
,
0202
0303
1100
0110
,
0001
0000
0000
1000
0000
0000
0010
0000
0000
0000
0100
0000
0000
0000
0001
0100
,
0001
1000
0010
0100
0001
1000
0010
0100
,
0001
0001
1000
0100
0000
1000
0010
2000
,
0000
3000
0002
0200
0003
0000
0000
0000
,
0002
0000
0300
0000
2003
0000
0000
0020
,
3000
0030
0200
0002
0000
0000
0300
0000
,
2000
0000
0003
0000
3000
0010
0001
1000
,
0000
0011
1010
1000
,
0001
0000
0000
0010
0000
0000
0000
0100
0000
0000
1000
0000
0000
0000
0010
1000
,
0010
1000
0010
0100
0001
1000
0010
1000
,
0010
0010
0100
0001
0000
0000
0000
0000
;
