#TITLE:The Holographic Nightmare;
#SUBTITLE:;
#ARTIST:GHOST DATA;
#TITLETRANSLIT:;
#SUBTITLETRANSLIT:;
#ARTISTTRANSLIT:;
#GENRE:;
#CREDIT:RxSteps;
#MUSIC:The Holographic Nightmare.ogg;
#BANNER:The Holographic Nightmare.png;
#BACKGROUND:The Holographic Nightmare-BG.png;
#CDTITLE:cdtitle.png;
#SAMPLESTART:73.152;
#SAMPLELENGTH:22.500;
#SELECTABLE:YES;
#OFFSET:1.848;
#BPMS:0.000=128.000;
#STOPS:;
#BGCHANGES:;
#FGCHANGES:;

//--------------- dance-single - RxSteps ----------------
#NOTES:
     dance-single:
     RxSteps:
     Beginner:
     1:
     0,0,0,0,0:
0000
0000
0000
0000
,
0100
0000
0000
0000
,
0010
0000
0000
0000
,
1000
0000
0000
0000
,
0001
0000
0000
0000
,
0001
0000
0000
0000
,
0010
0000
0000
0000
,
0010
0000
0000
0000
,
1000
0000
0000
0000
,
1000
0000
0000
0000
,
0100
0000
0000
0000
,
0100
0000
0000
0000
,
0010
0000
0000
0000
,
0010
0000
0000
0000
,
0001
0000
0000
0000
,
1000
0000
0000
0000
,
0001
0000
0000
0000
,
1001
0000
0000
0000
,
0100
0000
0000
0000
,
0001
0000
0000
0000
,
1000
0000
0000
0000
,
0010
0000
0000
0000
,
0100
0000
0000
0000
,
0100
0000
0000
0000
,
0001
0000
0000
0000
,
0110
0000
0000
0000
,
0001
0000
0000
0000
,
1000
0000
0000
0000
,
0001
0000
0000
0000
,
0010
0000
0000
0000
,
2000
0000
0000
0000
,
0000
0000
0000
0000
,
3000
0000
0000
0000
,
1001
0000
0000
0000
,
0001
0000
0000
0000
,
0110
0000
0000
0000
,
1000
0000
0000
0000
,
1001
0000
0000
0000
,
0010
0000
0000
0000
,
0110
0000
0000
0000
,
0001
0000
0000
0000
,
0001
0000
0000
0000
,
0200
0000
0300
0000
,
0010
0000
0000
0000
,
0020
0000
0030
0000
,
1000
0000
0000
0000
,
0200
0000
0300
0000
,
0010
0000
0000
0000
,
0001
0000
0000
0000
,
0100
0000
0000
0000
,
0010
0000
0000
0000
,
1000
0000
0000
0000
,
0010
0000
0000
0000
,
0010
0000
0000
0000
,
0100
0000
0000
0000
,
0100
0000
0000
0000
,
0001
0000
0000
0000
,
0002
0000
0003
0000
,
0001
0000
0000
0000
,
2000
0000
3000
0000
,
1000
0000
0000
0000
,
0020
0000
0030
0000
,
0010
0000
0000
0000
,
0200
0000
0300
0000
,
0100
0000
0000
0000
,
0001
0000
0000
0000
,
1000
0000
0000
0000
,
0010
0000
0000
0000
,
0100
0000
0000
0000
,
1000
0000
0000
0000
,
0001
0000
0000
0000
,
0010
0000
0000
0000
,
0100
0000
0000
0000
,
1000
0000
0000
0000
,
1000
0000
0000
0000
,
0100
0000
0000
0000
,
0001
0000
0000
0000
,
0001
0000
0000
0000
,
0010
0000
0000
0000
,
0200
0000
0000
0000
,
0300
0000
0000
0000
,
1001
0000
0000
0000
,
0010
0000
0000
0000
,
1100
0000
0000
0000
,
1000
0000
0000
0000
,
1001
0000
0000
0000
,
0010
0000
0000
0000
,
0011
0000
0000
0000
,
0001
0000
0000
0000
,
0101
0000
0000
0000
,
2000
0000
3000
0000
,
1000
0000
0000
0000
,
0020
0000
0030
0000
,
0010
0000
0000
0000
,
0002
0000
0003
0000
,
0001
0000
0000
0000
,
0100
0000
0000
0000
,
0001
0000
0000
0000
,
0100
0000
0000
0000
,
0010
0000
0000
0000
,
0010
0000
0000
0000
,
1000
0000
0000
0000
,
0001
0000
0000
0000
,
0001
0000
0000
0000
,
0010
0000
0000
0000
,
0100
0000
0000
0000
,
0100
0000
0000
0000
,
0020
0000
0030
0000
,
2000
0000
3000
0000
,
0001
0000
0000
0000
,
0010
0000
0000
0000
,
0010
0000
0000
0000
,
0200
0000
0300
0000
,
0001
0000
0000
0000
,
0001
0000
0000
0000
,
1000
0000
0000
0000
,
0100
0000
0000
0000
,
0010
0000
0000
0000
,
0010
0000
0000
0000
,
0100
0000
0000
0000
,
1000
0000
0000
0000
,
0001
0000
0000
0000
,
0010
0000
0000
0000
,
0010
0000
0000
0000
,
0001
0000
0000
0000
,
1000
0000
0000
0000
,
1000
0000
0000
0000
,
0010
0000
0000
0000
,
0100
0000
0000
0000
,
0002
0000
0000
0000
,
0000
0000
0000
0000
,
0000
0000
0000
0000
,
0000
0000
0000
0000
,
0000
0000
0000
0000
,
0003
0000
0000
0000
;

//--------------- dance-single - RxSteps ----------------
#NOTES:
     dance-single:
     RxSteps:
     Easy:
     4:
     0,0,0,0,0:
0000
0000
0000
0000
,
1000
0000
0000
0010
0000
0000
0010
0000
,
0100
0000
0000
0001
0000
0000
0001
0000
,
0010
0000
0000
0100
0000
0000
0100
0000
,
1000
0100
0010
0001
0000
0000
0001
0000
,
0100
0000
0000
0010
0000
0000
0010
0000
,
1000
0000
0000
1000
0000
0000
0001
0000
,
0010
0000
0000
0100
0000
0000
1000
0000
,
0001
1000
0010
0100
0000
0000
0100
0000
,
0001
0000
0000
1000
0000
0000
1000
0000
,
0010
0000
0000
0100
0000
0000
0100
0000
,
0001
0000
0000
0010
0000
0000
0010
0000
,
0001
0010
0100
1000
0000
0000
1000
0000
,
0001
0000
0000
0100
0000
0000
0100
0000
,
0010
0000
0000
1000
0000
0000
0001
0000
,
0100
0000
0000
0010
0000
0000
0010
0000
,
1000
0100
0010
0001
0000
0000
0001
0000
,
0100
0010
1000
0001
,
0001
0100
0010
1000
,
1000
0100
0010
0001
,
1000
0001
1000
0002
0000
0003
0100
0000
,
0001
0010
0100
1000
,
0001
0100
0010
1000
,
1000
0010
0100
0001
,
1000
0100
0010
0001
0000
0000
0000
0000
,
1010
0000
0000
1000
0000
0000
0001
0000
,
0000
0100
0000
0000
0100
0000
0010
0000
,
0100
0000
0000
0001
0000
0000
1000
0000
,
0001
0010
0100
0000
0100
0010
0001
0000
,
0010
0001
0010
0100
,
1000
0100
1000
0100
1000
0100
1000
0100
,
2000
0000
0000
0000
,
3000
0000
0000
0000
,
0101
0000
0001
1000
,
0020
0000
0030
0000
,
1010
0000
1000
0001
,
0020
0000
0030
0000
,
0011
0000
0001
0010
,
0200
0000
0300
0000
,
1100
0000
0001
1000
,
0001
1000
0010
0000
0010
1000
0001
0000
,
1000
0100
0010
0001
,
0100
0010
0010
0010
,
1000
0001
0100
0100
,
0001
1000
1000
1000
,
0010
0100
0001
0010
,
0100
0100
0100
0100
,
1000
0010
1000
0100
,
1000
0002
0000
0000
,
1003
0000
0000
0010
0000
0000
0010
0000
,
1000
0000
0000
0001
0000
0000
0001
0000
,
0010
0000
0000
0010
0000
0000
0100
0000
,
0001
0010
0100
1000
0000
0000
1000
0000
,
0010
0000
0000
0010
0000
0000
0100
0000
,
0001
0000
0000
0001
0000
0000
1000
0000
,
0100
0000
0000
1000
0000
0000
0010
0000
,
1000
0100
0010
0001
0000
0000
0001
0000
,
0200
0000
0000
0300
,
0001
0000
1000
0001
0000
1000
0000
0000
,
0020
0000
0000
0030
,
2000
0000
0000
3000
,
0002
0000
0000
0000
0003
0000
0000
1000
,
0010
0000
0000
0200
0000
0000
0300
0000
,
0002
0000
0000
0003
,
1000
0100
0010
0001
0000
0000
0001
0000
,
1000
0010
0100
0001
,
0010
0100
1000
0100
,
0010
0010
0001
0001
,
1000
1000
0100
0100
,
1000
0010
0100
0001
,
0100
0010
0100
0001
,
0010
0100
1000
0100
,
1000
0100
0010
0001
0000
0000
0000
0000
,
0101
0000
0000
0001
0000
0000
1000
0000
,
0000
0010
0000
0000
0010
0000
0100
0000
,
0010
0000
0000
1000
0000
0000
0001
0000
,
1000
0100
0010
0000
0010
0100
1000
0000
,
0100
1000
0100
0010
,
0001
0010
0001
0010
0001
0010
0001
0010
,
0002
0000
0000
0000
,
0003
0000
0000
0000
,
1010
0000
1000
0001
,
0200
0000
0300
0000
,
0101
0000
0001
1000
,
0200
0000
0300
0000
,
1100
0000
1000
0100
,
0020
0000
0030
0000
,
0011
0000
1000
0001
,
1000
0001
0100
0000
0100
0001
1000
0000
,
0001
0010
0100
1000
,
0010
0100
0100
0100
,
0001
1000
0010
0010
,
1000
0001
0001
0001
,
0100
0010
1000
0100
,
0010
0010
0010
0010
,
0001
0100
0001
0010
,
0001
1000
0000
0000
,
0110
0000
0001
1000
,
0010
0100
0001
1000
,
0010
1000
0100
0010
,
0001
0010
0100
1000
0000
0000
1000
0000
,
0001
0100
0010
1000
,
0001
0010
0001
1000
,
0010
0100
0010
1000
,
0001
0010
0100
1000
0000
0000
1000
0000
,
0001
0001
0010
0001
,
1000
1000
0010
0100
,
0100
0010
0200
0300
0001
0100
0002
0003
,
1000
0001
2000
3000
0010
1000
0020
0030
,
1000
0001
0100
0100
,
0001
0010
0100
1000
,
1000
0010
1000
0100
,
1000
0100
0010
0001
0000
0000
0000
0000
,
0220
0000
0330
0000
,
2002
0000
3003
0000
,
2200
0000
3300
0000
,
1000
0100
0010
0001
0000
0000
0000
0000
,
0022
0000
0033
0000
,
2200
0000
3300
0000
,
2002
0000
3003
0000
,
0001
0010
0100
1000
0000
0000
1000
0000
,
0001
0100
0010
1000
,
1000
0100
0010
0001
,
0001
0100
0010
0010
,
1000
0100
0010
0001
0000
0000
1000
0000
,
0001
0010
0100
1000
,
1000
0010
0100
0001
,
0001
0010
0100
0100
,
1000
0010
0100
0001
0000
0000
0002
0000
,
2000
0000
0000
0000
,
0000
0000
0000
0000
,
0000
0000
0000
0000
,
0000
0000
0000
0000
,
0000
0000
0000
0000
,
3003
0000
0000
0000
;

//--------------- dance-single - RxSteps ----------------
#NOTES:
     dance-single:
     RxSteps:
     Medium:
     7:
     0,0,0,0,0:
0000
0000
0000
0000
,
0001
0000
0100
0010
0000
0100
0001
0000
,
1000
0000
0010
0100
0000
0010
1000
0000
,
0001
0000
1000
0010
0000
1000
0100
0000
,
1000
0100
0010
0001
0000
0010
0001
0000
,
1000
0000
0010
0100
0000
0001
0010
0000
,
0001
0000
0100
0010
0000
1000
0100
0000
,
1000
0000
0001
1000
0000
0010
1000
0000
,
0001
1000
0010
0100
0000
0001
1000
0000
,
0100
0000
1000
0010
0000
0100
0001
0000
,
0100
0000
1000
0001
0000
0001
1000
0000
,
0010
0000
0001
0100
0000
0100
0001
0000
,
1000
0100
0010
0100
0000
0010
0100
0000
,
1000
0000
0001
0010
0000
0100
0010
0000
,
0001
0000
0010
0100
0000
0010
0001
0000
,
1000
0000
0001
0100
0000
0001
1000
0000
,
0100
1000
0010
0100
0000
0000
0011
0000
,
1010
0000
0001
1000
0010
0100
0001
0010
,
0001
1000
0100
1000
0010
0100
0010
1000
,
0001
0100
0010
1000
0010
1000
0001
0010
,
0001
0010
0100
1000
0010
1000
0100
1000
,
0001
0100
0010
1000
0001
0100
0001
0010
,
0100
0010
0100
1000
0001
1000
0001
1000
,
0010
0100
0001
0010
0001
0100
0010
1000
,
0100
1000
0200
0020
0300
0000
0031
0000
,
2100
0000
0001
3020
0000
0100
2030
0000
,
0010
0002
3000
0010
0100
0000
0100
0000
,
0203
0000
0010
0302
0000
0010
2000
0003
,
3010
1000
0001
0100
0010
1000
0001
0010
,
0001
0010
0100
1000
0100
0010
0001
1000
,
0001
0100
0010
1000
0001
0100
0010
1000
,
0100
1000
0010
0100
0001
0010
0001
2000
,
0002
3000
0023
0130
,
1001
0000
0000
0000
1000
0000
0000
0001
0000
0000
0100
0000
0001
0000
0010
0000
,
0001
0000
1000
0000
0100
0000
0000
1000
0000
0010
0000
1000
0010
0000
0100
0000
,
0001
0000
0000
0000
1000
0000
0000
0010
0000
0000
0100
0000
0010
0000
1000
0000
,
0001
0000
1000
0000
0100
0000
0010
0100
0000
0010
0000
0100
0010
0000
0001
0000
,
0010
0000
0000
0000
0100
0000
0000
0010
0000
0000
0001
0000
1000
0000
0010
0000
,
0100
0000
0001
0000
0100
0000
0000
0001
0000
0100
0000
0010
0100
0000
0001
0000
,
1000
0000
0000
0000
0001
0000
0000
0100
0000
0000
0001
0000
1000
0000
0100
0000
,
1000
0100
0010
0100
1000
0001
0100
0010
,
1000
0000
0000
0000
0001
0000
0000
0100
0000
0000
0010
0000
1000
0000
0100
0000
,
2000
0001
0100
3010
,
0101
0000
0000
0000
1010
0000
0000
0001
0000
0000
1000
0000
0010
0000
0100
0000
,
0002
0010
1000
0103
,
1100
0000
0000
0000
0110
0000
0000
1000
0000
0000
0010
0000
1000
0000
0001
0000
,
0020
0100
0001
0130
,
1001
0000
0000
0000
0110
0000
0000
0001
0000
0000
1000
0000
0100
0000
0010
0000
,
0200
0000
0000
0000
1000
0000
0000
1300
0000
0000
0001
0000
0010
0000
0100
0000
,
2000
0000
0000
0100
0000
0000
3100
0000
,
0002
0000
0000
0100
0000
0000
0100
0000
,
0023
0000
0000
0001
0000
0000
0130
0000
,
1000
0100
0010
0001
0000
0010
0001
0000
,
2000
0000
0010
0002
3000
0100
2003
0000
,
0100
0000
3020
0230
0300
0001
1000
0000
,
0020
0000
1030
0200
0000
0001
0310
0000
,
1000
0100
0010
0100
0000
1000
0001
0000
,
2000
0000
0100
0002
3000
0010
2003
0000
,
0010
0000
3200
0320
0030
0001
1000
0000
,
0200
0000
1300
0020
0000
0001
0130
0000
,
1000
0010
0100
0010
0000
1000
0100
0000
,
0002
0000
0100
2000
0003
0010
3002
0000
,
0010
0000
0203
0320
0030
1000
0001
0000
,
0200
0000
0001
0320
0000
1000
0130
0000
,
0001
0010
0100
0010
0000
0001
1000
0000
,
0001
0010
0100
1000
0100
0010
0001
0100
,
0001
0100
0010
1000
0001
0100
0010
0100
,
0001
0010
0001
0010
0100
0010
0001
0010
,
0100
1000
0010
0100
0001
0010
0001
0100
,
0010
0100
0010
1000
0001
0010
0001
1000
,
0100
0010
0001
1000
0100
0010
0100
1000
,
0010
0100
0001
0010
0001
1000
0010
0100
,
0010
1000
0002
0200
0003
0000
0310
0000
,
0012
0000
1000
0203
0000
0010
0302
0000
,
0100
2000
0003
0100
0010
0000
0010
0000
,
3020
0000
0100
2030
0000
0100
0002
3000
,
0103
0001
1000
0010
0100
0001
1000
0100
,
1000
0100
0010
0001
0010
0100
1000
0001
,
1000
0010
0100
0001
1000
0010
0100
0001
,
0010
0001
0100
0010
1000
0100
1000
0002
,
2000
0003
3200
0310
,
1001
0000
0000
0000
0001
0000
0000
1000
0000
0000
0010
0000
1000
0000
0100
0000
,
1000
0000
0001
0000
0010
0000
0000
0001
0000
0100
0000
0001
0100
0000
0010
0000
,
1000
0000
0000
0000
0001
0000
0000
0100
0000
0000
0010
0000
0100
0000
0001
0000
,
1000
0000
0001
0000
0010
0000
0100
0010
0000
0100
0000
0010
0100
0000
1000
0000
,
0100
0000
0000
0000
0010
0000
0000
0100
0000
0000
1000
0000
0001
0000
0100
0000
,
0010
0000
1000
0000
0010
0000
0000
1000
0000
0010
0000
0100
0010
0000
1000
0000
,
0001
0000
0000
0000
1000
0000
0000
0010
0000
0000
1000
0000
0001
0000
0010
0000
,
0001
0010
0100
0010
0001
1000
0010
0100
,
0001
0000
0000
0000
1000
0000
0000
0010
0000
0000
0100
0000
0001
0000
0010
0000
,
0002
1000
0010
0103
,
1010
0000
0000
0000
0101
0000
0000
1000
0000
0000
0001
0000
0100
0000
0010
0000
,
2000
0100
0001
3010
,
0011
0000
0000
0000
0110
0000
0000
0001
0000
0000
0100
0000
0001
0000
1000
0000
,
0200
0010
1000
0310
,
1001
0000
0000
0000
0110
0000
0000
1000
0000
0000
0001
0000
0010
0000
0100
0000
,
0010
0100
1000
0001
0100
0010
1000
0000
,
0002
0000
0100
2000
0003
0010
3002
0000
,
0010
0000
0103
0010
0000
1000
0001
0000
,
0200
0000
0001
0320
0000
1000
0130
0000
,
0001
0010
0100
0010
0000
0001
0100
0000
,
2000
0000
0100
0002
3000
0010
2003
0000
,
0010
0000
3200
0320
0030
0001
1000
0000
,
0200
0000
1000
0320
0000
0001
0130
0000
,
1000
0010
0100
0010
0000
1000
0001
0000
,
0100
0000
0010
0100
0000
0001
1000
0000
,
0010
0000
1000
0100
0000
0010
0100
0000
,
1000
0001
0100
0010
0100
0001
0010
0100
,
1000
0100
0010
0100
1000
0001
0100
0010
,
2000
0000
0100
0002
3000
0010
2003
0000
,
0010
0000
3200
0010
0300
0001
1000
0000
,
0200
0000
1300
0020
0000
0001
0130
0000
,
1000
0100
0010
0100
1000
0100
0010
0001
,
1000
0100
0001
0100
1000
0100
0001
0100
,
1000
0100
1000
0010
0100
0001
1000
0001
,
0010
0100
0010
0001
0100
0010
1000
0100
,
1000
0100
0010
0001
1000
0010
0100
0010
,
1000
0001
0010
0100
0010
0100
1000
0001
,
0100
0001
0010
0001
0100
0010
1000
0100
,
1000
0010
0100
0001
0010
0001
0100
0010
,
1000
0001
0100
0010
1000
0001
0100
0000
,
1001
0110
1100
0012
,
1000
1003
0110
2100
,
0001
3002
0010
0103
,
0001
0010
0100
1000
0001
0010
0100
0010
,
0001
1100
0110
0102
,
1000
2003
0100
3100
,
0101
1100
0001
0010
,
0001
0010
0100
2000
0000
0000
3010
0000
,
0202
0000
0000
0000
,
0000
0000
0000
0000
,
0000
0000
0000
0000
,
0000
0000
0000
0000
,
0000
0000
0000
0000
,
0303
0000
0000
0000
;

//--------------- dance-single - RxSteps ----------------
#NOTES:
     dance-single:
     RxSteps:
     Hard:
     9:
     0,0,0,0,0:
0000
0000
0000
0000
,
0001
0000
0100
0001
0000
0001
1000
0000
,
0100
0000
0010
0100
0000
1000
0100
0000
,
1000
0000
0001
0010
0000
0010
0001
0000
,
0100
1000
0100
0002
0000
0013
0001
0000
,
0100
0000
0010
1000
0000
0100
0010
0000
,
0010
0000
0001
0200
0000
1300
0100
0000
,
0001
0000
1000
0100
0000
0010
0001
0000
,
0010
1000
0010
0001
0000
1000
0010
0000
,
0100
0000
0100
0001
0000
0001
0010
0000
,
0100
0000
0200
2300
0000
3010
0002
0000
,
0013
0000
0200
0302
0003
0020
1030
0000
,
0010
0100
1000
0001
0000
0100
0001
0000
,
0010
0000
0100
1000
0000
1000
0200
0000
,
0301
0000
0100
1000
0000
0010
0100
0000
,
0001
0000
0010
0100
0000
0010
0001
0000
,
0100
1000
0100
0001
0000
0010
0100
0000
,
1000
0001
0010
0001
0100
0010
1000
0001
,
1000
0010
1000
0100
0010
0100
0010
0001
,
0010
0100
1000
0100
0010
0001
0010
0001
,
0100
1000
0100
0001
0010
0001
0100
0010
,
1000
0100
0001
0100
1000
0010
1000
0010
,
0100
0001
0010
1000
0010
0001
0100
0010
,
1000
0100
0010
0001
0010
1000
0010
0001
,
0100
1000
0001
0010
0000
0010
0000
0000
,
1100
1000
0000
0101
0001
0000
1010
1000
,
0000
0110
0000
0100
0101
0000
1100
0000
,
0001
0000
0020
1000
0030
0010
0001
0000
,
1000
0000
0100
0000
0010
0100
0010
0000
0001
0000
0100
0000
1000
0000
0100
0000
,
0001
0000
0001
0100
1000
0100
0001
0010
,
1000
0010
0001
0010
0001
1000
0100
1000
,
0001
1000
0001
1000
0001
1000
0001
1000
0001
1000
0001
1000
0001
1000
0001
1000
,
0002
0000
0103
1010
,
0021
0000
0000
0000
0130
0000
0000
0010
0000
0000
0001
0000
0100
0000
0010
0000
,
1000
0000
0100
0000
0001
0000
0000
1000
0000
0010
0000
0001
0000
0000
0100
0000
,
0010
0000
0000
0000
0010
0000
0000
1000
0000
0000
0100
0000
0001
0000
0100
0000
,
1000
0000
0001
0000
0100
0000
0001
1000
0000
0001
0000
1000
0010
0000
0100
0000
,
0001
0000
0000
0000
0021
0000
0000
0100
0030
0000
1000
0000
0010
0000
0100
0000
,
0010
0000
1000
0000
0100
0000
0000
0001
0000
1000
0000
0010
0000
0000
0001
0000
,
0100
0000
0000
0000
0100
0000
0000
1000
0000
0000
0100
0000
0001
0000
0010
0000
,
0100
0000
0010
0000
0001
0010
0001
0000
0010
0000
0100
0000
1000
0000
0000
0000
,
1001
0000
0000
0000
0110
0000
0000
1000
0000
0000
0001
0000
0100
0000
0010
0000
,
1000
0000
0100
0000
0001
0000
0000
1000
0000
0010
0000
0100
0000
0000
1000
0000
,
0010
0000
0000
0000
0101
0000
0000
1000
0000
0000
0001
0000
0010
0000
0100
0000
,
0010
0000
0001
0000
0100
0000
0000
1000
0100
0000
0000
0001
0100
0000
1000
0000
,
0100
0000
0000
0000
0001
0000
0000
0010
0000
0000
0100
0000
1000
0000
0100
0000
,
1000
0000
0001
0000
0100
0000
0000
1000
0000
0001
0000
0010
0000
0000
0100
0000
,
0001
0000
0000
0000
1000
0000
0000
0010
0000
0000
1000
0000
0100
0000
0010
0000
,
0001
0000
0100
0100
0000
0001
0100
1000
,
0200
0000
0000
0301
0000
0000
0001
0000
,
0020
0000
0000
0130
0000
0000
0100
0000
,
2000
0000
0000
0010
0000
0000
3002
0000
,
0103
1000
0100
0001
0000
0010
0001
0000
,
1000
0000
0001
0010
0000
0001
0200
0000
,
1000
0300
0100
0002
0000
0023
1000
0000
,
1030
0000
0010
0001
0000
0001
0100
0000
,
0100
0001
0020
1000
0030
0010
0001
0000
,
0001
0000
1000
0010
0000
0100
0001
0000
,
1000
0000
0100
0000
0010
0100
0010
0000
0000
0000
0100
0000
0000
0000
1000
0000
,
0001
0000
0100
0010
0000
1000
0001
0000
,
0100
1000
0100
0001
0000
1000
0001
0000
,
0020
0000
0000
0100
0000
0000
0031
0010
,
0001
0010
0100
0020
0000
0031
0000
0200
,
0000
0000
1300
0100
0000
0001
1000
0000
,
0001
0100
0010
2000
3000
0200
0001
0300
,
0100
1000
0100
0010
0001
0010
0100
0010
,
0001
0100
0010
1000
0100
1000
0010
0100
,
0001
0010
1000
0010
0001
0100
1000
0100
,
0001
0010
1000
0010
0001
0100
1000
0001
,
0020
0000
0000
0130
0000
0001
0010
0100
,
1000
0010
0100
0001
0010
0100
1000
0010
,
0100
0001
0010
1000
0010
0001
0100
1000
,
0100
0001
0010
0002
0000
0000
1003
0000
,
0110
0000
0000
1010
0000
0000
0011
0000
,
0000
1100
0000
0000
1001
0000
0110
0000
,
1001
0000
1000
0010
0000
0010
0100
1000
,
0100
0001
0010
1000
0001
0100
1000
0010
,
0100
0001
1000
0100
0001
0100
1000
0100
,
0001
0100
0010
0001
0100
0010
1000
0100
,
0010
0100
0010
0100
0010
0100
0010
0100
0010
0100
0010
0100
0010
0100
0010
0100
,
0020
0000
0031
1010
,
0101
0000
0000
0000
1000
0000
0000
0100
0000
0000
1000
0000
0010
0000
0100
0000
,
0001
0000
0010
0000
1000
0000
0000
0001
0000
0100
0000
1000
0000
0000
0010
0000
,
0100
0000
0000
0000
0100
0000
0000
0001
0000
0000
0010
0000
1000
0000
0010
0000
,
0001
0000
1000
0000
0010
0000
0010
1000
0000
0000
1000
0001
0000
0000
0100
0000
,
0010
0000
0000
0000
1200
0000
0000
0010
0300
0000
0001
0000
0100
0000
0010
0000
,
0100
0000
0001
0000
0010
0000
0000
1000
0000
0001
0000
0100
0000
0000
1000
0000
,
0010
0000
0000
0000
0020
0000
0000
0031
0000
0000
0010
0000
1000
0000
0100
0000
,
0010
0000
0100
0000
1000
0100
1000
0000
0100
0000
0010
0000
0001
0000
0000
0000
,
1001
0000
0000
0000
0110
0000
0000
0001
0000
0000
1000
0000
0010
0000
0100
0000
,
0001
0000
0010
0000
1000
0000
0000
0001
0000
0100
0000
0010
0000
0000
0001
0000
,
0100
0000
0000
0000
1010
0000
0000
0001
0000
0000
1000
0000
0100
0000
0010
0000
,
0100
0000
1000
0000
0010
0000
1000
0010
0000
0100
0000
0001
0100
0000
0001
0000
,
0010
0000
0000
0000
0010
0000
0000
0100
0000
0000
0010
0000
0001
0000
0010
0000
,
0001
0000
1000
0000
0010
0000
0000
0001
0000
1000
0000
0100
0000
0000
0010
0000
,
1000
0000
0000
0000
0001
0000
0000
0100
0000
0000
0001
0000
0010
0000
0100
0000
,
1000
0000
0100
0000
0010
0100
0010
0000
0001
0000
0100
0000
0010
0000
0000
0000
,
1100
0000
0102
0000
0103
1000
0100
0001
,
1100
0110
0011
0010
,
0001
0100
1000
0100
0001
0010
1000
0010
,
0001
0100
1000
0002
0000
0013
0100
0000
,
1100
0101
0110
2001
,
3100
0001
0100
1000
0010
0100
0010
1000
,
0100
0001
0100
1000
0100
0010
0001
0100
,
1000
0100
0001
0020
0000
0031
0100
0010
,
1000
0100
0010
0100
1000
0100
0010
0100
,
1000
0001
0010
0100
0010
0001
0010
0100
,
1000
0100
0001
0100
1000
0010
0001
0010
,
1000
0100
0001
0100
1000
0010
0001
1000
,
0200
0000
0000
0310
1000
0100
0010
0001
,
0010
0100
1000
0010
0100
0001
0010
0001
,
0010
0100
1000
0001
0100
0010
1000
0100
,
0010
0001
1000
0010
0001
1000
0100
0001
,
0010
0100
1000
0100
0010
0001
0100
1000
,
0100
0001
0100
1000
0100
0010
1000
0100
,
0001
0100
1000
0100
0001
0100
1000
0100
,
1000
0010
0100
0002
0003
1000
0010
0000
,
0010
0100
0001
0010
0100
1000
0010
0001
,
0010
1000
0010
0001
0010
0100
0001
0010
,
1000
0010
0001
0010
1000
0010
0001
0010
,
0001
0100
0010
2000
3000
0001
0100
0000
,
1100
0110
1001
0011
,
1010
0101
0110
1001
,
1000
0010
0001
0010
1000
0010
0001
0010
,
0100
0001
0010
0200
0300
1000
0200
0300
,
2000
3000
0001
0100
1000
0100
0010
0100
,
0001
0010
1000
0001
0100
1000
0010
0100
,
0010
1000
0100
0001
1000
0010
0001
0100
,
0010
1000
0001
0200
0000
0000
2300
0000
,
0002
0000
0000
0000
,
0000
0000
0000
0000
,
0000
0000
0000
0000
,
0000
0000
0000
0000
,
0000
0000
0000
0000
,
3003
0000
0000
0000
;
