#TITLE:The Death That I Deservioli;
#SUBTITLE:;
#ARTIST:Pizza Tower Mr. Sauceman;
#TITLETRANSLIT:;
#SUBTITLETRANSLIT:;
#ARTISTTRANSLIT:;
#GENRE:;
#CREDIT:RxSteps;
#MUSIC:The Death That I Deservioli.ogg;
#BANNER:The Death That I Deservioli.png;
#BACKGROUND:The Death that I Deservioli-bg.png;
#CDTITLE:cdtitle.png;
#SAMPLESTART:54.231;
#SAMPLELENGTH:26.667;
#SELECTABLE:YES;
#OFFSET:1.544;
#BPMS:0.000=151.500
,36.000=154.000
,38.000=155.000
,39.000=156.000
,40.000=158.000
,41.000=160.000
,42.000=163.000
,43.000=166.000
,44.000=169.000
,45.000=172.000
,46.000=174.000
,47.000=176.000
,48.000=180.000
,49.000=184.000
,50.000=188.000
,51.000=192.000
,52.000=200.000
,53.000=205.000
,54.000=212.000
,55.000=214.000
,56.000=224.000
,57.000=230.000
,58.000=240.000
,59.000=248.000
,60.000=260.000
,61.000=264.000
,62.000=280.000
,64.000=325.000
,68.000=180.000
;
#STOPS:;
#BGCHANGES:;
#FGCHANGES:;

//--------------- dance-single - RxSteps ----------------
#NOTES:
     dance-single:
     RxSteps:
     Beginner:
     4:
     0,0,0,0,0:
0000
0000
0000
0000
,
1000
0000
0010
0000
0100
0000
0001
0100
,
0001
1000
0010
1000
,
0001
0100
0010
0100
,
0001
1000
0001
0000
1000
0001
1000
0000
,
0010
0000
0100
0000
0001
0000
1000
0010
,
1000
0010
0100
0001
,
1000
0001
0010
0001
,
1000
0001
1000
0000
0001
1000
0001
0000
,
0100
0000
0001
0000
,
0010
0000
0100
0000
,
1000
0000
0010
0000
,
0100
0000
0001
0000
,
0100
0000
0010
0000
,
1000
0000
0001
0000
,
0100
0000
0010
0000
,
2000
0000
3000
0000
,
0001
0000
0100
0000
0001
0100
0001
0000
,
1000
0010
0100
0000
,
0001
0000
1000
0000
0100
1000
0100
0000
,
1000
0001
0010
0001
,
0010
0000
0001
0000
1000
0001
1000
0000
,
0010
1000
0001
0100
,
0010
0000
1000
0000
,
0010
0000
0100
0000
,
0001
1000
0001
0000
0100
0000
0010
0000
,
1000
0001
1000
0000
0010
0000
0100
0000
,
0001
1000
0100
1000
,
0020
0000
0030
0000
,
1000
0010
1000
0000
0001
0000
0100
0000
,
0001
0100
0001
0000
1000
0000
0010
0000
,
1000
0000
0001
0000
,
0100
0000
0010
0000
,
1000
0001
1000
0000
0010
0000
1000
0000
,
0001
1000
0001
0000
0100
0000
0010
0000
,
1000
0010
0100
0001
,
1000
0000
0010
0100
,
0010
0100
0010
0000
1000
0000
0001
0000
,
0100
0001
0100
0000
0010
0000
0100
0000
,
0001
0000
0000
1000
0000
0010
0000
0100
,
0000
0000
0001
1000
,
0010
0100
0010
0000
1000
0000
0001
0000
,
0100
0010
0100
0000
0001
0000
0010
0000
,
0001
1000
0010
0100
,
0001
0000
1000
0000
,
0010
1000
0010
0000
0100
0000
0001
0000
,
1000
0010
1000
0000
0001
0000
0100
0000
,
0001
0000
0000
1000
0000
0100
0000
0010
,
0000
0000
0100
1000
,
0100
1000
0100
0000
1000
0000
0001
0000
,
0100
0001
0100
0001
0000
0000
0000
1000
,
0010
0000
0100
0001
0100
0001
0100
0001
,
0000
0000
1000
0010
,
1000
0001
1000
0001
1000
0000
0010
0000
,
1000
0100
1000
0100
0000
0000
0000
1000
,
0001
1000
0010
0100
,
0001
0000
0010
0000
,
0001
0010
0001
0010
0001
0000
1000
0000
,
0001
0100
0001
0100
0000
0000
0000
0010
,
1000
0000
0001
0100
0001
0100
0001
0100
,
0000
0000
0010
1000
,
0001
1000
0001
1000
0001
0000
0100
0000
,
0010
0100
0010
0100
0000
0000
0000
0001
,
1000
0010
1000
0100
,
0010
0100
1000
0001
,
1000
0000
0010
0000
0100
0010
0100
0000
,
0000
0001
0000
0100
0010
0000
0100
0000
,
0010
0000
1000
0000
0001
1000
0001
0000
,
0000
0100
0000
0010
0100
0000
0001
0000
,
0010
0000
0001
0000
0010
0001
0010
0000
,
0000
0001
0000
1000
0010
0000
1000
0000
,
0001
0100
0010
1000
,
0001
0100
0010
1000
,
0001
1000
0001
0000
0010
0000
0100
0000
,
1000
0001
1000
0000
0100
0000
0010
0000
,
0001
1000
0010
1000
,
0200
0000
0300
0000
,
1000
0100
1000
0000
0001
0000
0010
0000
,
0001
0010
0001
0000
1000
0000
0100
0000
,
1000
0000
0001
0100
,
0010
0000
1000
0000
,
0010
1000
0010
0000
1000
0000
0001
0000
,
0010
0001
0010
0001
0000
0000
0000
1000
,
0100
0000
0010
0001
0010
0001
0010
0001
,
0000
0000
1000
0100
,
1000
0001
1000
0001
1000
0000
0100
0000
,
1000
0010
1000
0010
0000
0000
0000
1000
,
0001
1000
0100
0010
,
0001
0000
0100
0000
,
0001
0100
0001
0100
0001
0000
1000
0000
,
0001
0010
0001
0010
0000
0000
0000
0100
,
1000
0000
0001
0010
0001
0010
0001
0010
,
0000
0000
0100
1000
,
0001
1000
0001
1000
0001
0000
0010
0000
,
0100
0010
0100
0010
0000
0000
0000
0001
,
1000
0100
1000
0010
,
0100
0010
1000
0001
,
1000
0000
0010
0000
0100
0010
0100
0010
,
0000
1000
0000
0010
1000
0000
0000
0000
,
0001
0000
0100
0000
0001
0100
0001
0100
,
0000
0010
0000
1000
0010
0000
1000
0000
,
0001
0000
1000
0000
0010
1000
0010
1000
,
0000
0001
0000
0100
0001
0000
0000
0000
,
2000
0000
0000
3000
,
0020
0030
0200
0300
,
0001
0000
0010
0000
0001
0010
0001
0000
,
0010
0001
1000
0001
,
1000
0000
0100
0000
1000
0100
1000
0000
,
0001
0100
0010
0100
,
0001
0000
1000
0000
0010
1000
0010
0000
,
0100
0001
0100
0000
0010
1000
0010
0000
,
0100
0000
0001
1000
,
0010
0100
0001
1000
,
0001
1000
0001
0000
0010
0000
0100
0000
,
1000
0001
1000
0000
0100
0000
0010
0000
,
0001
1000
0010
1000
,
0200
0000
0300
0000
,
1000
0100
1000
0000
0001
0000
0010
0000
,
0001
0010
0001
0000
1000
0000
0100
0000
,
1000
0000
0001
0100
,
0010
0100
0001
0000
,
1000
0001
1000
0000
0100
0000
1000
0000
,
0001
1000
0001
0000
0010
0000
0100
0000
,
1000
0100
0010
0001
,
1000
0000
0100
0010
,
0100
0010
0100
0000
1000
0000
0001
0000
,
0010
0001
0010
0000
0100
0000
1000
0000
,
0001
1000
0001
1000
0010
0000
0200
0000
,
0002
0000
0000
0000
,
0303
0000
0000
0000
;

//--------------- dance-single - RxSteps ----------------
#NOTES:
     dance-single:
     RxSteps:
     Easy:
     6:
     0,0,0,0,0:
0000
0000
0000
0000
,
1000
0010
1000
0010
0100
0001
0100
0000
,
0010
0100
0010
1000
0010
1000
0001
0000
,
0010
0001
0010
0001
1000
0001
1000
0000
,
0010
0100
0001
1000
,
0100
1000
0100
0010
0100
0010
0001
0000
,
1000
0001
1000
0010
0100
0010
1000
0000
,
0100
1000
0100
1000
0001
1000
0010
1000
,
0001
0100
0010
0100
,
0001
0000
0010
0000
,
0100
0000
1000
0000
,
0010
0000
0100
0000
,
0001
0000
0010
0000
,
0001
0000
0100
0000
,
0010
0000
1000
0000
,
0100
0000
1000
0000
,
0002
0000
0003
0000
,
1000
0000
0010
0000
0100
0010
0100
0010
,
0000
1000
0001
1000
0010
0000
0000
0000
,
0100
0000
0001
0000
0010
0001
0010
0001
,
0000
1000
0010
1000
0001
0000
0100
0000
,
0001
0000
1000
0000
0010
1000
0010
0100
,
0000
0001
1000
0001
0010
0000
0000
0000
,
0001
0100
0001
0000
1000
0000
0010
1000
,
0020
0030
0200
0300
,
0001
0100
0001
0000
1000
0000
0010
0000
,
1000
0010
1000
0010
1000
0000
0001
0000
,
0100
0010
1000
0001
,
0100
0001
0100
0001
0100
0000
0010
0000
,
1000
0010
1000
0010
1000
0000
0001
0000
,
0100
0010
0100
0010
0100
0000
0001
0000
,
1000
0100
0010
0100
,
1000
0000
0001
0100
,
0010
0100
0010
0000
1000
0000
0001
0000
,
0010
0001
0010
0000
0100
0000
1000
0000
,
0010
0100
0010
1000
,
0100
1000
0100
1000
0100
0000
0010
0000
,
0001
1000
0001
0000
0100
0000
0010
0000
,
1000
0100
1000
0000
0001
0000
0010
0000
,
0002
0003
0000
0100
0000
0010
0000
1000
,
0010
0100
0010
0000
1000
0001
1000
0010
,
0100
0001
0100
0000
0010
0000
1000
0000
,
0001
0100
0001
0000
0010
0000
0100
0000
,
1000
0001
0100
0010
,
0100
0001
0100
0001
0100
0000
0010
0000
,
1000
0001
1000
0000
0100
0000
0010
0000
,
0001
0010
0001
0000
0100
0000
0010
0000
,
1000
0000
0000
0010
0000
0100
0000
0010
,
1000
0000
0001
0000
0100
0001
0100
0001
,
0100
0010
1000
0010
1000
0000
0001
0000
,
0100
0010
0100
0020
0030
0000
0000
1000
,
0001
0000
0100
0010
0100
0001
1000
0001
,
0100
0010
1000
0100
,
1000
0100
1000
0100
1000
0000
0001
0000
,
0100
0010
0100
0020
0030
0000
0000
1000
,
0001
0100
0001
0100
0010
1000
0010
1000
,
0010
0100
0001
0010
,
0100
1000
0100
1000
0100
0000
0010
0000
,
0100
1000
0100
0020
0030
0000
0000
0001
,
0100
0001
0100
0010
1000
0010
0100
0001
,
0100
0010
1000
0001
,
1000
0001
1000
0001
0100
0000
0010
0000
,
1000
0001
0100
0020
0030
0000
0000
1000
,
0001
1000
0010
0100
0001
1000
0001
0100
,
0010
1000
0100
0010
,
0001
0000
0010
0000
0100
1000
0100
1000
,
0000
0001
0000
0100
0001
0000
0000
0000
,
1000
0000
0010
0000
0100
0010
0100
0010
,
0000
1000
0000
0001
0100
0000
0001
0000
,
1000
0000
0010
0000
1000
0100
1000
0100
,
0000
1000
0000
0001
1000
0000
0010
0000
,
0200
0000
0000
0300
,
0002
0003
1000
0000
,
1000
0100
1000
0000
0001
0000
0010
0000
,
0001
0010
0001
0010
0001
0000
1000
0000
,
0100
0010
0001
1000
,
0100
1000
0100
1000
0100
0000
0010
0000
,
0001
0010
0001
0010
0001
0000
1000
0000
,
0100
0010
0100
0010
0100
0000
1000
0000
,
0001
0100
0010
0100
,
0002
0000
0003
0000
,
0001
0100
0001
0100
0001
0000
1000
0000
,
0010
0100
0010
0200
0300
0000
0000
0001
,
1000
0000
0010
0100
0010
1000
0001
1000
,
0010
0100
0001
0010
,
0001
0010
0001
0010
0001
0000
1000
0000
,
0010
0100
0010
0200
0300
0000
0000
0001
,
1000
0010
1000
0010
0100
0001
0100
0001
,
0100
0010
1000
0100
,
0010
0001
0010
0001
0010
0000
0100
0000
,
0010
0001
0010
0200
0300
0000
0000
1000
,
0010
1000
0010
0100
0001
0100
0010
1000
,
0010
0100
0001
1000
,
0001
1000
0001
1000
0010
0000
0100
0000
,
0001
1000
0010
0200
0300
0000
0000
0001
,
1000
0001
0100
0010
1000
0001
1000
0010
,
0100
0001
0010
0100
,
1000
0000
0001
0000
0100
0001
0100
0001
,
0000
1000
0000
0010
1000
0000
0000
0000
,
0001
0000
0010
0000
0001
0010
0001
0010
,
0000
0100
0000
1000
0100
0000
0010
0000
,
0001
0000
1000
0000
0010
0100
0010
0100
,
0000
0001
0000
1000
0020
0000
0030
0000
,
1000
0100
0010
0001
,
0010
0100
0010
0001
,
0100
0000
0010
0000
1000
0010
1000
0010
,
0100
0001
0100
0000
0001
1000
0001
0000
,
1000
0000
0100
0000
1000
0100
1000
0100
,
0010
0001
0010
0000
0100
1000
0100
0000
,
1000
0000
0001
0000
0100
0010
0100
0010
,
1000
0001
1000
0000
0010
1000
0010
0000
,
0200
0000
0300
0000
0001
0000
0010
0001
,
0010
0000
0000
0000
0001
1000
0001
0000
,
1000
0010
1000
0000
0001
0000
0100
0000
,
0001
0100
0001
0100
0001
0000
1000
0000
,
0010
0100
0001
1000
,
0010
1000
0010
1000
0010
0000
0100
0000
,
0001
0100
0001
0100
0001
0000
1000
0000
,
0010
0100
0010
0100
0010
0000
1000
0000
,
0001
0010
0100
0010
,
0001
0000
1000
0010
,
0100
0010
0100
0000
0001
0000
1000
0000
,
0100
1000
0100
0000
0010
0000
0001
0000
,
0100
0010
0100
0001
,
0010
0001
0010
0001
0010
0000
0100
0000
,
1000
0001
1000
0000
0010
0000
0100
0000
,
0001
0010
0001
0000
1000
0000
0010
0000
,
0200
0000
0300
0000
0001
0100
0001
2000
,
0020
0000
0000
0000
,
3030
0000
0000
0000
;

//--------------- dance-single - RxSteps ----------------
#NOTES:
     dance-single:
     RxSteps:
     Medium:
     8:
     0,0,0,0,0:
0000
0000
0000
0000
,
1000
0100
0010
0100
0010
0001
0010
0100
,
0010
0100
1000
0010
0100
0010
1000
0001
,
1000
0001
0100
0010
0100
0001
1000
0001
,
0010
0001
0100
0010
0100
0001
0010
0100
,
1000
0010
0100
0001
0010
0100
0010
0001
,
1000
0001
1000
0010
0100
0001
0010
0001
,
0010
0100
1000
0001
0010
0100
0010
0100
,
1000
0010
0100
0010
1000
0100
0010
0001
,
1000
0001
0010
0001
,
0100
0010
1000
0100
,
1000
0001
0010
0001
,
0100
0010
1000
0100
,
1000
0100
0010
0100
,
1000
0001
0100
0010
,
1000
0001
0010
0100
,
2000
0000
0000
3000
,
0001
0100
0010
1000
0001
0100
0010
1000
,
0001
0100
0010
1000
0200
0000
0310
0000
,
0100
1000
0001
1000
0100
0010
0100
1000
,
0001
0010
0100
0010
0002
0000
0103
0000
,
0001
0100
0010
1000
0100
1000
0010
0100
,
0001
0010
0001
0100
0020
0000
1030
0000
,
0002
0000
0000
0003
,
0020
0030
0200
0300
,
1000
0010
0100
0010
1000
0000
0001
0000
,
0100
0001
0100
0010
1000
0000
0010
0000
,
0100
0010
1000
0010
0100
0001
0100
0001
,
1000
0100
0010
0001
,
1000
0010
0100
0010
1000
0000
0100
0000
,
1000
0100
0010
0001
1000
0000
0010
0000
,
0100
0010
0100
0010
1000
0100
0010
0001
,
0200
0000
0000
0300
0001
0000
1000
0000
,
0001
0100
0010
0100
0001
0000
1000
0000
,
0001
1000
0010
0100
0010
0000
0100
0000
,
0001
1000
0010
1000
0001
0100
0001
1000
,
0100
0010
0002
0003
,
1000
0001
0100
0010
0100
0000
0001
0000
,
1000
0001
0010
0100
0010
0000
0001
0000
,
0200
0000
0300
0002
0000
0023
0000
0230
,
2000
0300
3000
0000
0001
0000
0010
0000
,
0100
0010
0001
0010
0001
0000
0100
0000
,
0010
1000
0100
1000
0100
0010
0100
1000
,
0001
0000
0100
0000
0001
0100
0010
0100
,
0001
0010
0200
0300
,
1000
0010
1000
0010
0100
0000
0001
0000
,
0010
0001
0010
0001
1000
0001
0100
0010
,
2000
0000
3000
0002
0000
0203
0000
0310
,
2000
3100
0010
0001
,
1000
0100
0010
0100
2000
3000
0010
0000
,
0100
0001
0010
0200
1000
0000
0310
0001
,
2000
3000
0001
0010
0100
0010
0001
1000
,
0001
0010
0100
0010
,
0001
0010
0100
1000
0020
0030
0100
0000
,
0001
1000
0010
0200
0001
0300
0001
1000
,
0200
0300
0010
0001
0010
0100
1000
0100
,
0010
0100
1000
0001
,
0010
0001
0010
0100
2000
3000
0001
0000
,
0010
0100
1000
0020
0100
0000
0130
0001
,
0020
0030
0100
1000
0100
0010
0001
0010
,
0100
1000
0100
0010
,
0001
1000
0010
0100
0002
0003
1000
0000
,
0100
1000
0010
0200
0001
0300
0010
1000
,
0002
0003
0100
0010
1000
0010
0100
0010
,
1000
0100
0010
0001
,
1000
0010
1000
0010
0100
0001
0100
0002
,
0003
1000
0000
0001
0020
0000
0000
0030
,
0100
1000
0100
1000
0010
0100
0010
0200
,
0300
0001
0000
0010
0001
0000
0100
0000
,
0010
1000
0010
1000
0001
0100
0010
0200
,
0300
0001
0000
1000
0020
0000
0030
0000
,
1000
0010
0100
0001
,
0010
0001
0100
0010
,
1000
0010
0100
0010
1000
0000
0100
0000
,
1000
0001
0100
0010
1000
0000
0001
0000
,
1000
0100
1000
0100
0010
0000
0100
0000
,
1000
0100
0010
0001
,
1000
0100
0010
0100
1000
0000
0010
0000
,
0100
0001
0100
0001
1000
0010
0100
0002
,
0020
0030
0013
0100
,
2000
0000
0000
3000
,
0001
0010
0100
0010
0002
0003
0100
0000
,
0010
1000
0100
0020
0001
0000
0130
1000
,
0002
0003
0010
0100
1000
0100
0010
0001
,
0010
0100
1000
0010
,
1000
0010
0100
0001
0020
0030
0100
0000
,
1000
0001
0100
0020
1000
0030
1000
0001
,
0020
0030
0001
1000
0010
0100
0010
1000
,
0100
0010
0100
1000
,
0001
1000
0100
0010
0002
0003
1000
0000
,
0100
0010
0001
0200
0010
0300
0010
1000
,
0200
0300
0010
0100
1000
0100
0010
0100
,
1000
0010
0100
0001
,
1000
0001
0100
0010
2000
3000
0001
0000
,
0010
0001
0100
0020
1000
0030
0100
0001
,
2000
3000
0001
0100
0010
1000
0010
0100
,
0001
0100
0020
0030
,
1000
0001
0100
0010
0100
0000
0010
0000
,
1000
0010
1000
0010
0200
0000
0000
0300
,
0001
1000
0010
0100
0010
0000
1000
0000
,
0010
0100
0010
0100
0001
0000
0010
0000
,
0001
0010
0100
1000
0001
0000
0100
0000
,
0010
1000
0010
0100
0002
0000
0000
0003
,
1000
0100
0010
0000
0100
0000
1000
0000
,
0001
0010
0100
0000
0010
0100
1000
0001
,
0010
0100
1000
0010
0100
0000
0001
0000
,
1000
0010
1000
0010
0100
0001
0100
0001
,
1000
0000
0010
0000
0100
0010
0100
0001
,
1000
0010
0100
0000
0001
1000
0100
0000
,
1000
0001
0010
0000
0100
0000
1000
0000
,
0001
0100
0010
0000
0100
0010
1000
0000
,
0001
0100
0010
1000
0010
0100
0001
1000
,
0100
0010
0001
1000
,
0001
0100
0010
0100
0001
0000
1000
0000
,
0010
1000
0010
0100
0001
0000
0100
0000
,
0010
0100
0001
0100
0010
1000
0010
1000
,
0001
0010
0100
1000
,
0001
0100
0010
0100
0001
0000
0010
0000
,
0001
0010
0100
1000
0001
0000
0100
0000
,
0010
0100
0010
0100
0001
0010
0100
1000
,
0001
0100
0010
1000
,
0001
0010
0100
0010
0001
0000
1000
0000
,
0100
1000
0100
0010
0001
0000
0010
0000
,
0100
0010
0001
0010
0100
1000
0100
1000
,
0001
0100
0010
1000
,
0001
0010
0100
0010
0001
0000
0100
0000
,
0001
0100
0010
1000
0001
0000
0010
0000
,
0100
1000
0010
0100
0001
0100
0010
2000
,
0200
0000
0000
0000
,
3300
0000
0000
0000
;

//--------------- dance-single - RxSteps ----------------
#NOTES:
     dance-single:
     RxSteps:
     Hard:
     9:
     0,0,0,0,0:
0000
0000
0000
0000
,
1000
0100
0010
0100
0010
0001
0010
0100
,
0010
0100
1000
0010
0100
0010
1000
0001
,
1000
0001
0100
0010
0100
0001
1000
0001
,
0010
0001
0100
0010
0100
0001
0010
0100
,
1000
0010
0100
0001
0010
0100
0010
0001
,
1000
0001
1000
0010
0100
0001
0010
0001
,
0010
0100
1000
0001
0010
0100
0010
0100
,
1000
0010
0100
0010
1000
0100
0010
0001
,
1000
0010
0100
0010
1000
0001
0010
0001
,
1000
0100
0010
0100
0010
0001
1000
0010
,
0100
0010
0100
0001
0010
0001
0100
0010
,
1000
0100
1000
0001
1000
0010
0100
0001
,
0010
0001
0010
0100
1000
0100
0010
0001
,
0010
0001
0010
0100
1000
0100
1000
0100
,
0010
0001
0010
0001
0010
0100
1000
0001
,
2000
0000
0000
3000
,
0001
0100
0010
1000
0001
0100
0010
1000
,
0001
0100
0010
1000
0100
0010
0100
0010
,
0100
1000
0001
1000
0100
0010
0100
1000
,
0001
0010
0100
0010
0001
1000
0001
1000
,
0001
0100
0010
1000
0100
1000
0010
0100
,
0001
0010
0001
0100
0010
1000
0010
1000
,
0020
0000
0100
0000
0100
0030
0100
0000
,
0002
0000
0000
0003
,
1000
0010
0100
0010
1000
0001
0100
0010
,
1000
0001
0010
0100
1000
0001
0010
0100
,
1000
0010
1000
0010
0100
0001
0100
0001
,
1000
0100
0010
0100
1000
0100
0010
0001
,
1000
0010
0100
0010
1000
0001
0010
0001
,
1000
0100
0010
0001
1000
0100
0010
0001
,
0100
0010
0100
0010
1000
0100
0010
0001
,
0200
0000
0000
0300
0001
0010
0100
1000
,
0001
0100
0010
0100
0001
0010
0100
0010
,
0001
1000
0010
0100
0010
1000
0100
0010
,
0001
1000
0010
1000
0001
0100
0001
1000
,
0200
0010
0010
0310
,
1000
0001
0100
0010
0100
0001
1000
0010
,
1000
0001
0010
0100
0010
0001
1000
0010
,
0200
0000
0300
0002
0000
0023
0000
0230
,
2000
0300
3000
0000
0010
0100
0001
1000
,
0100
0010
0001
0010
0001
1000
0010
0100
,
0001
1000
0100
1000
0100
0010
0100
1000
,
0001
0010
0100
0010
0001
0100
0010
0100
,
0002
0010
0010
0013
,
1000
0001
1000
0010
0100
0010
1000
0100
,
1000
0010
0100
0001
0010
0001
0100
0010
,
2000
0000
3000
0002
0000
0203
0000
0310
,
2000
0000
3100
0000
0010
0001
0100
0010
,
1000
0100
0010
0100
2000
3000
0010
0000
,
0100
0001
0010
0200
1000
0000
0310
0001
,
1000
0010
0100
0001
0100
0010
1000
0100
,
0010
0001
0010
0100
1000
0001
0010
0001
,
1000
0010
0100
0001
0020
0030
0100
0000
,
1000
0001
0100
0020
1000
0030
1000
0001
,
0010
0100
1000
0100
1000
0010
0100
0001
,
1000
0010
1000
0100
1000
0001
1000
0010
,
0100
0001
0010
0100
2000
3000
0001
0000
,
0010
0100
1000
0020
0100
0000
0130
0001
,
0010
0100
0010
0001
1000
0100
0010
0100
,
2000
0010
0010
3010
,
0001
1000
0010
0100
0002
0003
1000
0000
,
0100
1000
0010
0200
0001
0300
0010
1000
,
0001
0010
0100
1000
0001
0100
0010
0100
,
0001
1000
0100
0010
0100
0010
0001
0010
,
0100
0010
0001
0100
0010
1000
0100
1000
,
0001
0100
0010
0100
0001
0010
0001
0010
,
0001
1000
0010
0100
0001
0100
0010
0100
,
0001
1000
0100
0010
0001
1000
0001
1000
,
0010
0100
0001
0010
0100
0010
0100
1000
,
0001
1000
0100
0010
0001
0100
0001
0100
,
0020
0100
0100
0130
,
1000
0001
1000
0001
1000
0100
0010
0100
,
1000
0010
0100
0010
1000
0001
0010
0100
,
1000
0001
0100
0010
1000
0001
0100
0010
,
1000
0100
1000
0100
0010
0001
0010
0001
,
1000
0010
0100
0010
1000
0010
0100
0001
,
1000
0100
0010
0100
1000
0001
0100
0001
,
1000
0010
0100
0001
1000
0010
0100
0002
,
0020
0030
0013
0100
,
2000
0000
0000
3000
,
0001
0010
0100
0010
0002
0003
0100
0000
,
0010
1000
0100
0020
0001
0000
0130
1000
,
0001
0100
0010
1000
0010
0100
0001
0010
,
0100
1000
0100
0010
0001
1000
0100
1000
,
0001
0100
0010
1000
0200
0300
0010
0000
,
0001
1000
0010
0200
0001
0300
0001
1000
,
0100
0010
0001
0010
0001
0100
0010
1000
,
0001
0100
0001
0010
0001
1000
0001
0100
,
0010
1000
0100
0010
0002
0003
1000
0000
,
0100
0010
0001
0200
0010
0300
0010
1000
,
0100
0010
0100
1000
0001
0010
0100
0010
,
0002
0100
0100
0103
,
1000
0001
0100
0010
2000
3000
0001
0000
,
0010
0001
0100
0020
1000
0030
0100
0001
,
1000
0100
0010
0001
1000
0010
0100
0010
,
1000
0001
0010
0100
0010
0100
1000
0100
,
0010
0001
0100
0010
0100
0001
0010
0001
,
1000
0010
1000
0010
0200
0000
0001
0300
,
0001
1000
0010
0100
0010
1000
0100
1000
,
0010
0100
0010
0100
0001
1000
0010
1000
,
0001
0010
0100
1000
0001
1000
0001
0100
,
0010
1000
0010
0100
0002
0000
1000
0003
,
1000
0100
0010
0001
1000
0100
0010
0001
,
0100
0010
0100
0010
1000
0010
0100
0001
,
0010
0100
1000
0010
0100
0010
1000
0001
,
0100
0010
1000
0010
0100
0001
0100
0001
,
1000
0100
1000
0100
0010
0100
1000
0001
,
0100
0010
0100
0010
1000
0001
1000
0010
,
0100
0001
0010
0100
0010
0001
0010
0001
,
1000
0010
0100
0001
0100
0010
1000
0001
,
1000
0100
0010
0001
0010
0001
0100
0010
,
1000
0100
0010
0100
0010
0100
1000
0001
,
0100
0010
0100
0001
1000
0001
0010
0100
,
0010
0001
1000
0001
0100
0001
0010
0100
,
1000
0010
0100
0010
1000
0100
0010
0001
,
1000
0010
0100
0010
0100
0001
1000
0010
,
0100
0001
0100
0010
1000
0100
1000
0010
,
0100
0001
1000
0010
0100
0001
0100
0001
,
0100
0010
1000
0100
1000
0010
0100
0010
,
1000
0001
0010
0001
1000
0100
0010
0100
,
1000
0100
0010
0100
1000
0001
0010
0100
,
1000
0001
0100
0010
1000
0001
0100
0010
,
1000
0100
1000
0100
0010
0001
0010
0001
,
1000
0010
0100
0010
1000
0010
0100
0001
,
1000
0100
0010
0100
1000
0001
0100
0001
,
1000
0010
0100
0001
1000
0010
0100
0001
,
0010
0100
0010
0100
1000
0010
0100
0002
,
0020
0000
0000
0000
,
0033
0000
0000
0000
;

//--------------- dance-single - RxSteps ----------------
#NOTES:
     dance-single:
     RxSteps:
     Challenge:
     13:
     0,0,0,0,0:
0000
0000
0000
0000
,
1000
0100
0010
0100
0010
0001
0010
0100
,
0010
0100
1000
0010
0100
0010
1000
0001
,
1000
0001
0100
0010
0100
0001
1000
0001
,
0010
0001
0100
0010
0100
0001
0010
0100
,
1000
0010
0100
0001
0010
0100
0010
0001
,
1000
0001
1000
0010
0100
0001
0010
0001
,
0010
0100
1000
0001
0010
0100
0010
0100
,
1000
0010
0100
0010
1000
0100
0010
0001
,
1000
0010
0100
0010
1000
0001
0010
0001
,
1000
0100
0010
0100
0010
0001
1000
0010
,
0100
0010
0100
0001
0010
0001
0100
0010
,
1000
0100
1000
0001
1000
0010
0100
0001
,
0010
0001
0010
0100
1000
0100
0010
0001
,
0010
0001
0010
0100
1000
0100
1000
0100
,
0010
0001
0010
0001
0010
0100
1000
0001
,
2000
0000
0000
3000
,
0001
0010
0100
1000
0001
0100
0010
1000
0001
0010
0100
0010
0001
1000
0010
1000
,
0001
0100
0010
0100
0001
1000
0100
1000
0001
0010
0100
1000
0001
0010
0100
1000
,
0100
1000
0100
0010
0001
0100
0010
1000
0100
1000
0001
0100
0010
1000
0010
0100
,
0001
0100
0001
1000
0010
0100
0010
1000
0001
0100
0010
1000
0001
0100
0010
1000
,
0001
0010
0100
0010
0001
1000
0100
0010
0100
0010
0100
1000
0010
0100
0001
0010
,
0001
1000
0010
0100
0001
0100
0010
1000
0001
0010
0100
1000
0001
0010
0100
1000
,
0001
0010
0100
1000
0010
1000
0100
0010
,
0002
0000
0000
0003
,
1000
0010
0100
0010
1000
0001
0100
0010
,
1000
0001
0010
0100
1000
0001
0010
0100
,
1000
0010
1000
0010
0100
0001
0100
0001
,
1000
0100
0010
0100
1000
0100
0010
0001
,
1000
0010
0100
0010
1000
0001
0010
0001
,
1000
0100
0010
0001
1000
0100
0010
0001
,
0100
0010
0100
0010
1000
0100
0010
0001
,
0200
0000
0000
0300
0001
0010
0100
1000
,
0001
0100
0010
1000
0010
0100
0001
1000
0010
0100
0001
0010
0100
1000
0100
0010
,
0001
1000
0001
0100
0010
1000
0001
0100
0010
1000
0100
0010
0001
0010
0100
1000
,
0001
0010
0001
0010
0100
1000
0100
1000
0001
1000
0010
0100
0001
1000
0010
0100
,
0001
0010
0100
1000
0001
0010
0100
1000
0100
0010
0100
1000
0001
0010
0100
1000
,
0001
0100
0001
0010
0100
0010
0001
1000
0100
1000
0010
0100
0001
0010
0001
0100
,
0001
0010
0100
1000
0001
0100
0010
0100
0001
1000
0100
0010
0001
0010
0100
1000
,
0200
0000
0300
0020
0000
0032
0003
0200
,
0020
0000
0030
0300
0001
0100
0001
1000
,
0001
0010
0100
1000
0001
0100
0010
1000
0001
0100
0010
1000
0010
0100
0001
1000
,
0001
0010
0100
1000
0001
0100
0010
0100
0001
0010
0100
1000
0001
0100
0010
0100
,
0001
1000
0010
0100
0001
1000
0100
1000
0001
0010
0001
1000
0100
1000
0001
0100
,
0001
1000
0010
0100
0001
1000
0010
0100
0001
0010
0100
0010
0001
1000
0010
0100
,
0010
1000
0100
1000
0010
0100
0010
0100
0001
0100
0010
0100
0001
1000
0001
0100
,
0010
1000
0100
1000
0010
0100
0001
0010
0001
0100
0010
1000
0100
1000
0100
0010
,
0002
0003
0000
0002
0003
0200
0300
0010
,
2000
0000
3100
0000
0010
0001
0100
0010
,
1000
0100
0010
0100
2000
3000
0010
0000
,
0100
0001
0010
0200
1000
0000
0310
0001
,
1000
0010
0100
0001
0100
0010
1000
0100
,
0010
0001
0010
0100
1000
0001
0010
0001
,
1000
0010
0100
0001
0020
0030
0100
0000
,
1000
0001
0100
0020
1000
0030
1000
0001
,
0010
0100
1000
0100
1000
0010
0100
0001
,
1000
0010
1000
0100
1000
0001
1000
0010
,
0100
0001
0010
0100
2000
3000
0001
0000
,
0010
0100
1000
0020
0100
0000
0130
0001
,
0010
0100
0010
0001
1000
0100
0010
0100
,
1000
0100
0010
0001
2000
3000
0100
0010
,
0001
1000
0010
0100
0002
0003
1000
0000
,
0100
1000
0010
0200
0001
0300
0010
1000
,
0001
0010
0100
1000
0001
0100
0010
0100
,
0001
1000
0100
0010
0100
0010
0001
0010
,
0001
1000
0010
0100
0001
1000
0010
0100
0001
1000
0001
1000
0100
0010
0001
1000
,
0010
0100
0010
1000
0001
0100
0010
0100
0001
1000
0001
1000
0010
0100
0010
1000
,
0001
0100
0010
1000
0100
0010
0100
1000
0001
0010
0001
0010
0100
1000
0100
0010
,
0001
1000
0001
0010
0100
1000
0010
0100
0001
1000
0001
1000
0001
0100
0010
1000
,
0100
0010
0001
0010
0100
0010
0100
1000
0100
0010
0001
0100
0010
1000
0100
1000
,
0001
1000
0010
0100
0001
0010
0100
1000
0010
0100
0010
0100
0010
0100
0001
0010
,
0002
0000
0023
0000
0032
0003
2000
3000
,
0010
0100
0001
0000
1000
0100
0010
0100
,
1000
0100
0010
0001
1000
0100
0010
0001
0010
0100
0010
0001
0100
0010
0100
0001
,
1000
0010
0100
0001
1000
0010
0100
0001
0100
0010
1000
0010
0100
0001
0100
0010
,
1000
0001
0010
0001
1000
0010
0100
0010
1000
0001
0100
0001
1000
0010
0100
0010
,
1000
0100
0010
0001
1000
0100
0010
0001
1000
0100
0010
0001
1000
0100
0010
0001
,
0100
0001
0010
0001
0100
0010
0100
0010
1000
0010
0100
0001
0010
0001
1000
0010
,
0100
0001
0010
0001
0100
0010
1000
0100
1000
0010
0100
0001
0010
0001
1000
0100
,
0020
0030
0002
0023
,
0230
0000
2300
3000
,
0001
0010
0100
0010
0002
0003
0100
0000
,
0010
1000
0100
0020
0001
0000
0130
1000
,
0001
0100
0010
1000
0010
0100
0001
0010
,
0100
1000
0100
0010
0001
1000
0100
1000
,
0001
0100
0010
1000
0200
0300
0010
0000
,
0001
1000
0010
0200
0001
0300
0001
1000
,
0100
0010
0001
0010
0001
0100
0010
1000
,
0001
0100
0001
0010
0001
1000
0001
0100
,
0010
1000
0100
0010
0002
0003
1000
0000
,
0100
0010
0001
0200
0010
0300
0010
1000
,
0100
0010
0100
1000
0001
0010
0100
0010
,
0001
1000
0010
0100
0002
0000
0013
0100
,
1000
0001
0100
0010
2000
3000
0001
0000
,
0010
0001
0100
0020
1000
0030
0100
0001
,
1000
0100
0010
0001
1000
0010
0100
0010
,
1000
0001
0010
0100
0010
0100
1000
0100
,
0010
0001
0100
0010
0100
0001
0010
0001
,
1000
0010
1000
0010
0200
0000
0001
0300
,
0001
1000
0010
0100
0010
1000
0100
1000
,
0010
0100
0010
0100
0001
1000
0010
1000
,
0001
0010
0100
1000
0001
1000
0001
0100
,
0010
1000
0010
0100
0002
0000
1000
0003
,
1000
0100
0010
0001
1000
0100
0010
0001
,
0100
0010
0100
0010
1000
0010
0100
0001
,
0010
0100
1000
0100
0010
0001
0010
0100
1000
0100
0010
0001
0010
0100
1000
0001
,
0100
0010
1000
0001
0100
0010
1000
0001
0100
0010
1000
0001
0100
0010
1000
0001
,
0010
0001
0010
0100
0010
0001
1000
0100
0010
0100
1000
0001
0010
0100
0010
0001
,
1000
0010
0100
0001
1000
0010
0100
0001
1000
0010
0100
0010
1000
0001
0010
0001
,
1000
0001
0100
0010
1000
0100
0010
0100
1000
0001
0010
0100
0010
0001
1000
0010
,
0100
0010
1000
0001
0100
0010
0100
0001
1000
0010
0100
0010
1000
0001
0100
0010
,
1000
0100
1000
0100
0010
0100
1000
0001
0100
0010
0100
0001
1000
0010
0100
0001
,
0010
0100
1000
0100
0010
0001
0010
0100
0010
0001
0010
0100
1000
0010
0100
0001
,
1000
0010
0100
0001
1000
0010
0100
0001
0100
0010
0100
0001
0010
0100
0010
0001
,
1000
0100
0010
0001
1000
0100
0010
0001
0010
0100
1000
0100
0010
0001
0010
0100
,
1000
0001
0100
0001
1000
0100
0010
0100
1000
0001
0010
0001
1000
0100
0010
0100
,
1000
0010
0100
0001
1000
0010
0100
0001
1000
0010
0100
0001
1000
0010
0100
0001
,
0010
0001
0100
0001
0010
0100
0010
0100
1000
0100
0010
0001
0100
0001
1000
0100
,
0010
0001
0100
0001
0010
0100
1000
0010
1000
0100
0010
0001
0100
0001
1000
0010
,
0200
0000
0301
0010
0001
0100
0010
0100
,
0001
1000
0100
1000
0001
0010
0100
0010
,
0001
0010
0100
0010
0001
1000
0100
0010
,
0001
1000
0010
0100
0001
1000
0010
0100
,
0001
0010
0001
0010
0100
1000
0100
1000
,
0001
0100
0010
0100
0001
0100
0010
1000
,
0001
0010
0100
0010
0001
1000
0010
1000
,
0001
0100
0010
1000
0001
0100
0010
1000
,
0100
0010
0100
0010
0001
0100
0010
2000
,
0200
0000
0000
0000
,
3300
0000
0000
0000
;
