#TITLE:The Beginning;
#SUBTITLE:;
#ARTIST:Magdalena Bay;
#TITLETRANSLIT:;
#SUBTITLETRANSLIT:;
#ARTISTTRANSLIT:;
#GENRE:;
#CREDIT:RxSteps;
#MUSIC:The Beginning.ogg;
#BANNER:The Beginning.png;
#BACKGROUND:The Beginning-bg.png;
#CDTITLE:cdtitle.png;
#SAMPLESTART:54.756;
#SAMPLELENGTH:28.000;
#SELECTABLE:YES;
#OFFSET:-0.756;
#BPMS:0.000=120.000;
#STOPS:;
#BGCHANGES:;
#FGCHANGES:;

//--------------- dance-single - RxSteps ----------------
#NOTES:
     dance-single:
     RxSteps:
     Beginner:
     3:
     0,0,0,0,0:
0000
0000
0000
0000
,
1000
0000
0001
0100
0000
0000
0000
0000
,
0001
0000
0010
0001
0000
0000
0000
0000
,
1000
0000
0001
1000
0000
0000
0000
0000
,
0010
0000
0100
0010
0000
0000
0000
0000
,
1000
0000
0010
1000
0000
0000
0000
0000
,
0010
0000
0100
0010
0000
0000
0000
0000
,
1000
0000
0001
1000
0000
0000
0000
0000
,
0001
0010
0100
1000
,
0000
0001
0000
0000
1000
0000
0010
0000
,
0010
1000
0001
0100
,
0100
0000
0000
0000
,
0001
1000
0010
1000
,
0001
0000
1000
0001
0000
0000
0000
0000
,
0100
0000
0001
0000
1000
0000
0010
1000
,
0000
0001
0100
0100
,
0010
0100
0010
0000
0000
1000
0000
0000
,
0001
0000
0000
0000
0100
0001
0100
0001
,
0100
0000
0001
0000
1000
0000
0010
1000
,
0000
0001
0100
0010
,
0010
0000
0000
0000
1000
0000
0001
1000
,
0000
0000
0010
1000
0010
1000
0010
0000
,
1000
0000
0001
0000
,
0100
0000
0000
0001
0100
0001
0100
0000
,
0001
0000
0000
0000
0100
0000
0000
0010
,
0000
0000
0000
2000
0000
0000
0000
0000
,
3000
0000
0000
0000
,
1001
0000
1000
0000
,
0010
0000
0100
0001
,
0100
0000
0001
1000
,
0100
0000
1000
0000
0100
0000
1000
0100
,
0000
1000
0001
0001
,
0100
0000
0000
0001
0010
0001
0010
0001
,
0010
0000
0001
1000
,
1000
0010
0100
0000
,
0010
0000
1000
0010
0000
0000
0100
0000
,
0001
0000
0000
1000
0000
0000
0001
0000
,
0100
0000
0000
0100
0000
0000
0010
0000
,
1000
0010
1000
0010
1000
0000
0000
0000
,
0001
0000
0000
0100
0000
0000
0001
0000
,
0001
0000
0000
0100
0000
0000
0010
0000
,
1000
0000
0000
0001
0000
0000
1000
0000
,
0001
1000
0001
1000
0001
0000
0000
0000
,
0100
0000
0010
0000
,
1000
0010
0100
0001
,
1000
0000
0001
0000
,
0100
0010
0100
0010
,
1000
0000
0000
0010
1000
0000
0000
0000
,
0001
0100
0010
0010
,
1000
0000
0000
0001
0000
0000
0100
0000
,
0000
0100
0000
0001
,
1000
0001
0010
0100
,
1000
0000
0001
0001
,
0100
0000
0001
0001
,
1000
0000
0100
1000
,
0010
1000
0001
0100
,
0010
0000
1000
0000
,
0001
0000
1000
1000
,
0010
0000
0000
0100
0000
0000
0000
0001
,
0000
0000
0000
0020
0000
0000
0000
0000
,
0030
0000
0000
0000
,
1001
0000
0001
0100
,
0100
0000
0000
0001
1000
0001
1000
0001
,
1000
0000
0010
0010
,
1000
0000
0001
0000
,
1000
0000
0000
0001
0010
0001
0010
0000
,
0001
0000
0000
1000
0001
1000
0001
1000
,
0001
0000
0100
0001
,
1000
0010
0010
0000
,
1000
0000
0010
0010
,
2000
0000
3000
0001
,
0000
1000
0000
0010
,
0000
0100
0000
0001
,
0000
2000
0000
0000
,
3000
0000
0000
0000
0001
1000
0001
0000
,
1000
0000
0010
0000
,
0100
0000
0001
0000
0000
0000
0100
0010
,
0000
0000
1001
0000
,
1000
0100
0010
0001
,
0010
0100
1000
0001
,
1000
0001
1000
0010
,
0100
0000
0000
0001
1000
0000
0000
0000
,
0001
0100
0010
1000
,
0001
0001
1000
1000
,
0001
0010
0100
1000
,
0001
0100
0000
0000
0001
1000
0000
0010
,
1000
0002
0003
0000
,
0110
0000
0001
0000
,
0100
0000
0010
1000
,
0010
0000
1000
0001
,
0010
0000
0001
0000
0010
0000
0001
0010
,
0000
0001
1000
1000
,
0010
0000
0000
1000
0100
1000
0100
1000
,
0100
0000
1000
0001
,
0001
0100
0010
0000
,
0100
0000
0001
0100
0000
0000
0010
0000
,
1000
0000
0000
0001
0000
0000
1000
0000
,
0010
0000
0000
0010
0000
0000
0100
0000
,
0001
0100
0001
0100
0001
0000
0000
0000
,
1000
0000
0000
0010
0000
0000
1000
0000
,
1000
0000
0000
0010
0000
0000
0100
0000
,
0001
0000
0000
1000
0000
0000
0001
0000
,
1000
0001
1000
0001
1000
0000
0000
0000
,
0010
0000
0000
2002
,
0000
0000
0000
0000
,
0000
0000
0000
0000
,
3003
0000
0000
0000
;

//--------------- dance-single - RxSteps ----------------
#NOTES:
     dance-single:
     RxSteps:
     Easy:
     6:
     0,0,0,0,0:
0000
0000
0000
0000
,
1000
0010
1000
0001
0010
0100
1000
0000
,
0001
0100
0001
1000
0100
0010
0001
0000
,
0100
0010
0100
0001
1000
0010
0100
0000
,
0001
1000
0001
0100
0010
0100
0001
0000
,
1000
0100
1000
0001
0010
0100
1000
0000
,
0001
0010
0001
1000
0100
0010
0001
0000
,
1000
0010
1000
0001
0100
0010
1000
0000
,
0001
0010
0100
1000
0001
0010
0100
1000
,
0100
0010
0001
1000
0010
0100
0010
0000
,
1000
0001
1000
0001
1000
0010
0100
0010
,
1000
0000
1000
0001
0000
0100
0001
0000
,
1000
0010
0100
0010
1000
0001
0100
0010
,
1000
0000
0001
0010
0001
1000
0100
1000
,
0001
0010
0100
1000
0001
0010
0001
1000
,
0010
0000
0010
1000
0001
0100
0010
1000
,
0100
1000
0001
0000
0100
0010
0100
0000
,
0001
1000
0001
0100
0000
0010
1000
0100
,
1000
0000
0001
1000
0010
0100
0001
1000
,
0010
0000
0100
0001
1000
0100
0010
0000
,
0001
0000
1000
0010
1000
0001
0100
0001
,
1000
0000
0010
0100
0001
0100
0010
0000
,
1000
0000
0001
1000
0100
0010
0001
0010
,
0001
0000
1000
0010
0100
0010
1000
0000
,
0001
0000
0100
0010
0000
0100
0001
1000
,
0000
0010
0000
0100
0000
0002
0000
0000
,
0100
0100
0103
0110
,
1001
0000
1000
0001
1000
0001
0100
0010
,
0100
0000
0010
1000
0010
1000
0010
0100
,
0001
0000
1000
0010
0100
0001
1000
0010
,
1000
0100
0010
0001
0010
0000
0100
1000
,
0100
0010
0001
1000
0010
1000
0001
0100
,
0010
0000
1000
0001
0010
0001
0010
0001
,
1000
0000
0100
1000
0001
0100
0010
1000
,
0001
0010
0100
1000
0100
0000
0010
0001
,
1000
0000
0010
0200
0000
0000
0001
0000
,
0010
0000
0000
0320
0000
0000
1000
0000
,
0100
0000
0000
2030
0000
0000
0010
3000
,
0001
1000
0001
1000
0010
0000
0100
0001
,
1000
0010
0100
0001
0000
0010
0100
0000
,
2000
3000
0000
1000
0000
0001
0100
0000
,
0002
0000
0003
1000
0000
0010
0100
0000
,
0001
1000
0100
0010
0001
0000
0020
0200
,
0000
0000
0000
0330
0000
0000
1001
0000
,
1000
0010
0100
0010
1000
0001
0100
0001
,
0010
0000
0001
1000
0000
0010
0100
0000
,
0001
1000
0001
1000
0001
0100
0010
1000
,
0010
0000
0100
0001
2000
0000
0010
3000
,
0001
1000
0001
0010
0001
1000
0100
2000
,
0010
3000
0001
1000
0000
0001
1000
0000
,
0000
0020
0100
0000
0000
0130
0000
0000
,
0001
0010
0100
1000
0001
0010
0100
1000
,
0001
0000
0100
0010
1000
0010
0100
0001
,
0010
0000
0001
0010
0100
1000
0100
0000
,
1000
0000
0010
0100
0001
1000
0100
0020
,
0000
0032
0000
2003
3000
0010
1000
0010
,
0100
0000
0001
1000
0100
0010
0100
1000
,
0100
0000
1000
0001
0010
0100
0010
0000
,
0001
0000
1000
0010
0000
1000
0001
0100
,
0000
0010
0000
1000
0000
0100
0000
1000
,
0000
0100
0000
1000
0000
0000
0101
0000
,
0001
0000
1000
0001
0100
0010
1000
0000
,
0100
0000
1000
0001
0010
0001
0010
0100
,
1000
0000
0001
0100
0001
1000
0010
1000
,
0100
1000
0100
0010
0001
0000
1000
0010
,
0100
0001
0010
0001
1000
0001
1000
0000
,
0010
0000
0100
0001
0010
0100
1000
0100
,
0010
0000
0001
1000
0001
0100
0001
1000
,
0010
1000
0100
0010
0001
0000
1000
0100
,
2000
0000
3010
0011
,
2000
0000
3000
0001
,
1000
0000
0001
0010
0001
0000
1000
0100
,
1000
0000
0001
1000
0001
0000
0100
0010
,
0100
0000
0002
0000
0003
1000
0001
1000
,
0000
0000
0000
0000
0001
0010
0100
0000
,
1000
0100
0010
0000
0001
0010
0001
0000
,
1000
0000
0002
0000
0003
0000
0200
0020
,
0000
0330
0000
0000
1001
0000
1001
0000
,
2000
0100
3002
0100
,
2003
0010
3002
0010
,
2003
0100
3002
0100
,
1003
0000
0000
0001
0000
0000
0100
0000
0010
0000
0000
1000
0000
0000
0001
0000
,
0100
0001
1000
0010
0100
0001
1000
0010
,
0200
0302
0023
0230
,
2300
3002
0203
0310
,
1000
0010
1000
0010
0100
0001
0100
0001
,
1000
0001
2000
0002
3003
0000
0110
0000
,
1001
0000
1000
0001
1000
0001
0010
0100
,
0010
0000
0100
1000
0100
1000
0100
0010
,
0001
0000
1000
0100
0010
0001
1000
0100
,
1000
0010
0100
0001
0100
0000
0010
1000
,
0010
0100
0001
1000
0100
1000
0001
0010
,
0100
0000
1000
0001
0100
0001
0100
0001
,
1000
0000
0010
1000
0001
0010
0100
1000
,
0001
0100
0010
1000
0010
0000
0100
0001
,
1000
0000
0100
0020
0000
0000
0001
0000
,
0100
0000
0000
0230
0000
0000
1000
0000
,
0010
0000
0000
2300
0000
0000
0100
3000
,
0001
1000
0001
1000
0100
0000
0010
0001
,
1000
0100
0010
0001
0000
0100
0010
0000
,
2000
3000
0000
1000
0000
0001
0010
0000
,
0002
0000
0003
1000
0000
0100
0010
0000
,
0001
1000
0010
0100
0001
0000
0200
0020
,
0000
0000
0000
0330
0000
0000
2002
0000
,
0000
0000
0000
0000
,
0000
0000
0000
0000
,
3003
0000
0000
0000
;

//--------------- dance-single - RxSteps ----------------
#NOTES:
     dance-single:
     RxSteps:
     Medium:
     8:
     0,0,0,0,0:
0000
0000
0000
0000
,
1000
0000
0010
0100
0010
0000
1000
0000
0001
0000
0010
0000
0100
0000
0010
0000
,
0001
0000
1000
0010
1000
0000
0010
0000
1000
0000
0100
0000
0010
0000
0100
0000
,
1000
0000
0001
1000
0001
0000
0100
0000
0001
0000
1000
0000
0010
0000
0100
0000
,
0001
0000
1000
0100
1000
0000
0001
0000
1000
0000
0001
0000
0100
0000
0001
0000
,
0010
0000
0100
1000
0100
0000
0010
0000
0001
0000
1000
0000
0100
0000
1000
0000
,
0001
0000
0010
0001
0010
0000
0100
0000
1000
0000
0001
0000
0100
0000
0010
0000
,
1000
0000
0001
0010
0001
0000
1000
0000
0100
0000
0010
0000
0100
0000
1000
0000
,
0010
0100
0001
0100
0010
1000
0100
0010
,
0001
0000
0010
0000
0001
0000
1000
0000
0010
0000
0000
0100
0001
0000
0000
0000
,
1200
0310
0001
0010
0100
1000
0010
0100
,
0001
0000
1100
1000
0001
0010
0001
1000
,
0010
0100
0010
1000
0010
0100
0001
0010
,
0100
0000
0021
0130
1000
0010
0100
0001
,
0010
0100
0010
0001
1000
0010
0100
0001
,
0020
0000
0100
0031
0010
0100
1000
0001
,
0100
0010
0100
0000
1001
0001
0020
0000
,
0031
0000
0100
0000
0010
0000
2000
0000
0000
0000
3001
0000
0100
0000
0010
1000
,
0010
0100
0001
1000
0100
0010
0100
1000
,
0010
0000
0101
1000
0100
0010
0100
0000
,
1020
0000
0130
0001
1000
0100
0010
0001
,
0100
0000
1200
0310
0100
1000
0010
0000
,
0101
0000
1000
0010
0100
0001
0010
0000
,
0101
0000
1200
0310
0001
0100
0010
1000
,
0100
0000
0021
0130
1000
0010
0100
0001
,
0100
0010
1000
0010
0100
0010
2000
0000
,
3010
1000
0100
0010
0001
0000
0110
0000
,
1001
0000
0000
0001
0100
0000
0010
0000
1000
0000
0100
0000
0010
0000
0000
0000
,
1001
0000
0000
1000
0010
0000
0100
0000
0001
0000
0010
0000
0100
0000
0000
0000
,
0011
0000
0000
1000
0010
0000
0100
0000
0001
0000
1000
0000
0100
0000
0000
0000
,
1020
0130
0001
0010
0100
0010
0001
0000
,
0110
0000
0000
0001
0100
0000
0010
0000
1000
0000
0010
0000
0100
0000
0000
0000
,
1100
0000
0000
0001
0100
0000
0010
0000
0100
0000
0010
0000
1000
0000
0000
0000
,
0021
0000
0030
0100
1000
0000
0010
0000
0100
0000
0001
0000
1000
0000
0000
0000
,
0201
0310
1000
0010
0100
0010
1000
0010
,
0100
0001
0010
0200
0000
1000
0310
0000
,
0102
0000
0000
2003
0000
0010
3001
0000
,
2100
0000
0000
3020
0000
1000
0130
0000
,
1001
0001
0010
0100
1000
0100
0010
0001
,
0100
0001
0010
0001
0010
0100
1000
0100
,
0010
0100
1000
0001
0010
0100
0010
0100
,
1000
0100
0010
0001
0100
0010
1000
0100
,
0010
0100
1000
0001
0100
0001
1000
0001
,
0100
0010
1000
0010
0100
0000
1001
0000
,
1020
0130
0001
1000
0001
0100
0001
0010
,
0100
0000
1100
1000
0010
0100
0010
1000
,
0001
0100
0010
1000
0001
0100
0010
0100
,
0001
0000
1000
0000
0001
0000
0010
0000
0001
0000
1000
0100
1000
0000
0001
0010
,
0001
0000
0010
0000
0001
0000
1000
0000
0001
0000
0010
0000
0001
0000
1000
0010
,
1000
0000
0001
0010
0001
0000
1000
0010
1000
0000
0001
0010
0001
0000
0000
0000
,
1000
0001
0010
0000
0200
1000
0000
0000
,
0310
0001
1000
0010
0100
0001
0010
0100
,
1000
0000
0201
0310
1000
0100
0010
0100
,
1000
0000
0021
0130
1000
0010
0100
0000
,
1001
0000
0000
0000
0110
0000
0001
0000
1000
0000
0100
0000
0010
0000
0001
0010
,
0001
0000
1000
0001
1000
0000
0010
1000
0010
0000
0100
0000
0100
0000
0000
0000
,
1100
0000
0201
0310
0100
0001
0010
0100
,
0010
0001
1000
0100
0010
0001
1000
0000
,
0101
0000
1200
0010
0300
0100
1000
0020
,
0000
0100
0000
2030
0000
3200
0000
0000
,
0310
0001
0010
0100
1000
0000
0110
0000
,
1001
0000
0000
1000
0010
0000
0100
0000
0001
0000
0010
0000
0100
0000
0000
0000
,
1001
0000
0000
0001
0100
0000
0010
0000
1000
0000
0100
0000
0010
0000
0000
0000
,
1100
0000
0000
0001
0100
0000
0010
0000
1000
0000
0001
0000
0100
0000
0000
0000
,
0201
0310
1000
0001
0100
0001
1000
0000
,
0110
0000
0000
1000
0010
0000
0100
0000
0001
0000
0100
0000
0010
0000
0000
0000
,
0011
0000
0000
1000
0010
0000
0100
0000
0010
0000
0100
0000
0001
0000
0000
0000
,
1200
0000
0300
0010
0001
0000
0100
0000
0010
0000
1000
0000
0001
0000
0000
0000
,
1020
0130
0001
1000
0010
1000
0001
0100
,
0010
1000
0100
0010
0001
0000
0220
0000
,
0000
0000
0330
1000
,
0001
0000
1000
0010
0100
0000
0001
0010
,
0100
0000
1000
0001
0010
0000
0010
0001
,
1000
0000
0010
0100
0010
0100
0001
0010
,
0001
0000
1000
0100
1000
0001
0010
0000
,
0001
0010
0100
0000
0100
1000
0010
2000
,
0001
0000
3020
0000
0130
0000
1001
0220
,
0000
0330
1001
1001
,
1000
0001
0100
0001
0010
0100
0010
0001
,
1000
0010
0100
0010
1000
0100
0010
0001
,
0100
0010
0100
0001
1000
0100
1000
0000
,
0002
0000
0000
0100
0003
0000
2000
0000
0010
0000
0000
3100
0000
0000
0001
0000
,
0010
0100
1000
0001
0010
0001
0100
0010
,
1000
0100
1000
0010
0100
0001
0010
0001
,
1000
0001
0010
0001
0100
0010
0100
0001
,
0010
0000
0001
0010
0001
0000
0010
0000
0100
1000
0100
0000
0010
0000
0001
0010
,
0001
1000
0100
0010
0001
0000
0110
0000
,
1001
0000
0000
0001
0010
0000
0100
0000
1000
0000
0010
0000
0100
0000
0000
0000
,
1001
0000
0000
1000
0100
0000
0010
0000
0001
0000
0100
0000
0010
0000
0000
0000
,
0101
0000
0000
1000
0100
0000
0010
0000
0001
0000
1000
0000
0010
0000
0000
0000
,
1200
0310
0001
0100
0010
0100
0001
0000
,
0110
0000
0000
0001
0010
0000
0100
0000
1000
0000
0100
0000
0010
0000
0000
0000
,
1010
0000
0000
0001
0010
0000
0100
0000
0010
0000
0100
0000
1000
0000
0000
0000
,
0201
0000
0300
0010
1000
0000
0100
0000
0010
0000
0001
0000
1000
0000
0000
0000
,
0021
0130
1000
0010
0100
0010
1000
0100
,
0010
0001
0100
0020
0000
1000
0130
0000
,
0012
0000
0000
2003
0000
0100
3001
0000
,
2010
0000
0000
3200
0000
1000
0310
0000
,
1001
0001
0100
0010
1000
0100
0010
0001
,
1000
0001
0100
0001
0100
0010
1000
0010
,
0100
0010
1000
0100
0010
0100
1000
0001
,
0010
0001
1000
0001
0010
0100
1000
0100
,
0010
0100
1000
0001
0010
0001
0010
0100
,
1000
0001
0010
0100
1000
0000
0202
0000
,
0000
0000
0000
0000
,
0000
0000
0000
0000
,
0303
0000
0000
0000
;

//--------------- dance-single - RxSteps ----------------
#NOTES:
     dance-single:
     RxSteps:
     Hard:
     10:
     0,0,0,0,0:
0000
0000
0000
0000
,
1000
0000
0010
0100
0001
0000
1000
0000
0001
0000
0010
0000
0100
0000
0010
0000
,
0001
0000
1000
0010
0100
0000
0010
0000
1000
0000
0100
0000
0010
0000
0100
0000
,
1000
0000
0001
1000
0010
0000
0100
0000
0001
0000
1000
0000
0010
0000
0100
0000
,
0001
0000
1000
0100
0010
0000
0001
0000
1000
0000
0001
0000
0100
0000
0001
0000
,
0010
0000
0100
1000
0010
0000
0100
0000
0001
0000
1000
0000
0100
0000
1000
0000
,
0001
0000
0010
0001
0100
0000
0010
0000
1000
0000
0001
0000
0100
0000
0010
0000
,
1000
0000
0001
0010
0100
0000
1000
0000
0200
0000
0301
0000
0100
0000
1000
0000
,
0010
0100
0001
0100
0010
1000
0200
0301
,
1000
0000
0010
0000
0001
0000
1000
0000
0010
0000
0000
0100
0001
0000
0000
0000
,
1200
0310
0001
0010
0100
1000
0010
0100
,
0001
0000
1100
1000
0001
0010
0001
1000
,
0010
0100
0010
1000
0010
0100
0001
0010
,
0100
0000
0021
0130
1000
0010
0100
0001
,
0020
1030
0010
0001
1000
0010
0100
0001
,
0020
0000
0100
0031
0010
0100
1000
0001
,
0100
0010
0100
0000
1001
0001
0020
0000
,
0031
0000
0100
0000
0010
0000
2000
0000
0000
0000
3001
0000
0100
0000
0010
1000
,
0010
0100
0001
1000
0200
0301
0100
1000
,
0010
0000
0101
1000
0100
0010
0100
0000
,
1020
0000
0130
0001
1000
0100
0010
0001
,
0100
0000
1200
0310
0100
1000
0010
0000
,
0101
0000
1000
0010
0100
0001
0010
0000
,
0101
0000
1200
0310
0001
0100
0020
0031
,
1000
0000
0021
0130
1000
0010
0100
0001
,
0100
0010
1000
0200
0301
0100
2000
0000
,
3010
0000
1000
0100
0010
0001
1000
0100
0010
0001
1000
0000
0110
0000
0000
0000
,
1001
0000
0000
0001
0100
0000
0010
0000
1000
0000
0100
0000
0010
0000
0100
0000
,
1001
0000
0000
1000
0010
0000
0100
0000
0001
0000
0010
0000
0100
0000
0010
0000
,
0011
0000
0000
1000
0010
0000
0100
0000
0001
0000
1000
0000
0010
0000
0100
0000
,
1020
0130
0001
0020
1030
0010
0001
0100
,
0110
0000
0000
0001
0100
0000
0010
0000
1000
0000
0010
0000
0100
0000
0001
0000
,
1100
0000
0000
0001
0100
0000
0010
0000
0100
0000
0010
0000
1000
0000
0100
0000
,
0021
0000
0030
0100
1000
0000
0010
0000
0100
0000
0001
0000
1000
0000
0100
0000
,
0201
0310
1000
0200
0301
0100
1000
0010
,
0100
0001
0010
0200
0000
1000
0310
0000
,
0102
0000
0000
2003
0000
0010
3001
0000
,
2100
0000
0000
3020
0000
1000
0130
0000
,
1001
0001
0010
0100
1000
0020
0031
1000
,
0100
0001
0010
0001
0010
0100
1000
0200
,
0301
0100
1000
0010
0100
0010
1000
0020
,
0031
0010
1000
0001
0100
0010
1000
0200
,
0301
0100
1000
0020
0031
1000
0100
0001
,
0010
0000
0100
1000
0001
0010
0100
1000
0001
0010
0100
0000
1001
0000
0000
0000
,
1020
0130
0001
1000
0001
0100
0001
0010
,
0100
0000
1100
1000
0010
0100
0010
1000
,
0001
0100
0010
1000
0001
0020
1030
0001
,
0100
0000
1000
0000
0001
0000
0010
0000
0001
0000
1000
0100
0010
0000
0001
0010
,
0100
0000
1000
0000
0020
0000
0031
0000
0010
0000
1000
0000
0001
0000
1000
0010
,
0100
0000
0001
0100
0010
0000
1000
0001
0100
0000
0010
1000
0100
0000
0000
0000
,
1000
0001
0010
0000
0200
1000
0000
0000
,
0310
0001
1000
0010
0100
0001
0010
0100
,
1000
0000
0201
0310
1000
0100
0010
0100
,
1000
0000
0021
0130
1000
0010
0100
0000
,
1001
0000
0000
0000
0110
0000
0001
0000
1000
0000
0100
0000
0010
0000
0100
1000
,
0010
0000
0100
0001
0010
0000
0100
1000
0001
0000
0100
0000
0100
0000
0010
0000
,
1100
0000
0201
0310
0100
0001
0020
1030
,
0010
0001
0200
1300
0001
0010
1000
0000
,
0101
0000
1200
0010
0300
0100
1000
0020
,
0000
0100
0000
2030
0000
3200
0000
0000
,
0310
0000
0001
0100
0010
1000
0001
0100
0010
1000
0001
0000
0110
0000
0000
0000
,
1001
0000
0000
1000
0010
0000
0100
0000
0001
0000
0010
0000
0100
0000
0010
0000
,
1001
0000
0000
0001
0100
0000
0010
0000
1000
0000
0100
0000
0010
0000
0100
0000
,
1100
0000
0000
0001
0100
0000
0010
0000
1000
0000
0001
0000
0100
0000
0010
0000
,
0201
0310
1000
0200
0301
0100
1000
0010
,
0110
0000
0000
1000
0010
0000
0100
0000
0001
0000
0100
0000
0010
0000
1000
0000
,
0011
0000
0000
1000
0010
0000
0100
0000
0010
0000
0100
0000
0001
0000
0010
0000
,
1200
0000
0300
0010
0001
0000
0100
0000
0010
0000
1000
0000
0001
0000
0010
0000
,
1020
0130
0001
0020
1030
0010
0001
0100
,
0010
0000
1000
0000
0100
0000
0010
0001
0010
0100
1000
0100
0020
0000
0000
0000
,
0230
0000
0300
1000
,
0001
0000
1000
0010
0100
0000
0001
0010
,
0100
0000
1000
0001
0010
0000
0010
0001
,
1000
0000
0020
0031
1000
0100
0001
0010
,
0001
0000
1000
0100
1000
0001
0010
0000
,
0001
0010
0100
0000
0100
1000
0010
2000
,
0001
0000
3020
0000
0130
0000
1001
0220
,
0000
0330
1001
1001
,
1000
0001
0100
0010
1000
0001
0100
0010
1000
0001
0100
0010
1000
0001
0100
0010
,
1000
0100
0010
0001
1000
0100
0010
0001
1000
0100
0010
0001
1000
0100
0010
0001
,
0010
0100
1000
0100
0010
0001
0010
0100
1000
0001
0010
0100
1000
0100
0010
0100
,
2000
3000
0000
0200
0000
0000
0301
0000
0100
0000
0000
1000
0000
0000
0001
0010
,
0001
0010
0100
1000
0001
1000
0001
1000
0010
0100
0010
0100
0001
1000
0001
1000
,
0001
0100
0010
1000
0001
0100
0010
1000
0001
0010
0100
1000
0001
0010
0100
1000
,
0001
0100
0010
1000
0001
0100
0010
1000
0001
0100
0010
1000
0001
0100
0010
0100
,
0002
0003
1000
0010
0200
0300
0002
0003
0010
0100
2000
3000
0020
0030
0100
0010
,
2000
3000
0001
0100
0010
1000
0001
0100
0010
1000
0001
0000
0110
0000
0000
0000
,
1001
0000
0000
0001
0010
0000
0100
0000
1000
0000
0010
0000
0100
0000
0010
0000
,
1001
0000
0000
1000
0100
0000
0010
0000
0001
0000
0100
0000
0010
0000
0100
0000
,
0101
0000
0000
1000
0100
0000
0010
0000
0001
0000
1000
0000
0100
0000
0010
0000
,
1200
0310
0001
0200
1300
0100
0001
0010
,
0110
0000
0000
0001
0010
0000
0100
0000
1000
0000
0100
0000
0010
0000
0001
0000
,
1010
0000
0000
0001
0010
0000
0100
0000
0010
0000
0100
0000
1000
0000
0010
0000
,
0201
0000
0300
0010
1000
0000
0100
0000
0010
0000
0001
0000
1000
0000
0010
0000
,
0021
0130
1000
0020
0031
0010
1000
0100
,
0010
0001
0100
0020
0000
1000
0130
0000
,
0012
0000
0000
2003
0000
0100
3001
0000
,
2010
0000
0000
3200
0000
1000
0310
0000
,
1001
0001
0100
0010
1000
0200
0301
1000
,
0010
0001
0100
0001
0100
0010
1000
0020
,
0031
0010
1000
0100
0010
0100
1000
0200
,
0301
0100
1000
0001
0010
0100
1000
0100
,
0010
0100
1000
0001
0010
0001
0010
0100
,
1000
0001
0100
1000
0010
0002
0200
0000
,
0000
0000
0000
0000
,
0000
0000
0000
0000
,
0303
0000
0000
0000
;
