#TITLE:TIKI TAKA;
#SUBTITLE:;
#ARTIST:DAEGHO & NGXT;
#TITLETRANSLIT:;
#SUBTITLETRANSLIT:;
#ARTISTTRANSLIT:;
#GENRE:;
#CREDIT:RxSteps;
#MUSIC:TIKI TAKA.ogg;
#BANNER:TIKI TAKA.png;
#BACKGROUND:TIKI TAKA-BG.png;
#CDTITLE:cdtitle.png;
#SAMPLESTART:29.741;
#SAMPLELENGTH:22.857;
#SELECTABLE:YES;
#OFFSET:-0.027;
#BPMS:0.000=105.000;
#STOPS:;
#BGCHANGES:;
#FGCHANGES:;

//--------------- dance-single - RxSteps ----------------
#NOTES:
     dance-single:
     RxSteps:
     Beginner:
     2:
     0,0,0,0,0:
0000
0000
0000
0000
,
0001
0000
0000
0000
,
0001
0000
0000
0000
,
1000
0000
0000
0000
,
0100
0000
0000
0000
,
0100
0000
0000
1001
,
0000
0000
0000
0110
,
0000
0000
0000
2002
,
0000
3003
0000
0000
,
1000
0000
0000
0000
,
0010
0000
0000
0000
,
0010
0000
0000
0000
,
0100
0000
0000
0000
,
0001
0000
0000
0000
,
1000
0000
0000
0000
,
0001
0000
0000
0000
,
0001
0000
0010
0000
,
0020
0000
0030
0000
,
1000
0000
0000
0000
,
0001
0000
0000
0000
,
0100
0000
0000
0000
,
0010
0000
0010
0010
,
0000
0000
1000
1000
,
0000
0000
0100
0100
,
0000
0000
0001
0001
,
0001
0000
0000
0000
,
1000
0000
0000
0000
,
0010
0000
0000
0000
,
0010
0000
0000
0000
,
0100
0000
0000
0000
,
0001
0000
0000
0000
,
1000
0000
0000
0000
,
0010
0000
0020
0000
,
0000
0000
0000
0000
,
0030
0000
0000
0000
,
1000
0000
0000
0000
,
0001
0000
0000
0000
,
0010
0000
0000
0000
,
0010
0000
0000
0000
,
0001
0000
0000
0000
0000
0000
0000
0100
,
0000
0000
0000
0000
0000
0000
0000
0010
,
0000
0000
0000
0000
,
1000
0000
0000
0000
,
1001
0000
0000
0000
,
0010
0000
0000
0000
,
0100
0000
0000
0000
,
0100
0000
0000
0000
,
0001
0000
0000
0000
,
0001
0000
0000
0000
,
0010
0000
0000
0000
,
1000
0000
1000
0000
,
0010
0000
0000
0000
,
1001
0000
0000
0000
,
0001
0000
0000
0000
,
0010
0000
0000
0000
,
0100
0000
0100
0100
,
0000
0000
1000
1000
,
0000
0000
0001
0001
,
0000
0000
0010
0010
,
0000
0000
0000
0000
,
1000
0000
0000
0000
,
0010
0000
0000
0000
,
0010
0000
0000
0000
,
0000
1001
0000
0000
,
0100
0000
0000
0000
,
0100
0000
0000
0000
,
0001
0000
0001
0001
,
0000
0000
0000
0000
0000
0000
0000
0100
,
0000
0000
0000
0000
0000
0000
0000
0010
,
0000
0000
0000
0000
0000
0000
0000
1000
,
0000
0000
0000
0000
,
0001
0000
0000
0000
0000
0000
0000
0100
,
0000
0000
0000
0000
0000
0000
0000
1000
,
0000
0000
0000
0000
0000
0000
0000
0010
,
0000
0000
0001
0000
,
0002
0000
0000
0000
,
0000
0000
0000
0000
,
0003
0000
0000
0000
;

//--------------- dance-single - RxSteps ----------------
#NOTES:
     dance-single:
     RxSteps:
     Easy:
     4:
     0,0,0,0,0:
0000
0000
0000
0000
,
1000
0001
0100
0100
,
0001
0010
0010
0001
,
1000
1000
0001
0001
,
1000
0010
0100
0100
,
0001
1000
0010
1010
,
1000
0001
0010
0011
,
0001
0000
1000
0000
0010
1000
0010
1000
,
0020
0000
0130
0000
,
2001
0001
0001
3001
,
1200
1000
1000
1300
,
2010
0010
0010
3010
,
0101
0100
0001
0001
,
1020
1000
1000
1030
,
0201
0001
0001
0301
,
0012
0010
0010
0013
,
0110
0100
0010
0100
,
0020
0000
0030
0000
,
1001
1000
0001
0100
,
0010
0010
0100
0001
,
1000
0100
0010
0001
,
0010
0000
0010
0000
0010
0001
0010
0001
,
0010
0000
0100
0000
1000
0100
1000
0100
,
1000
0000
0001
0000
0100
0010
0100
0010
,
0100
0001
1000
0000
,
0101
0001
0010
0100
,
0010
0001
1000
0100
,
0010
0010
0100
1000
,
0100
1000
0100
1000
0200
0000
2300
0000
,
3010
0010
1000
0001
,
0100
0001
0100
0000
0001
0000
1000
0000
,
0010
0100
0001
1000
,
0010
1000
0010
1000
0020
0000
0200
0000
,
0000
0000
0000
0000
,
0000
0000
0330
0000
,
0001
0001
1000
1000
,
0010
1000
0001
0100
,
0010
1000
0010
0000
1000
0000
0001
0000
,
1000
0001
1000
0001
2000
0000
3020
0000
,
0100
0000
0100
0000
0230
0000
0300
0002
,
0000
2003
0000
0000
3020
0000
0000
2030
,
0000
3002
0000
0000
0103
0000
0100
0000
,
0001
0100
0001
0100
0001
0000
0000
0000
,
2001
0001
0001
3001
,
1020
1000
1000
1030
,
2100
0100
0100
3100
,
0011
0010
0001
0001
,
1200
1000
1000
1300
,
0021
0001
0001
0031
,
0102
0100
0100
0103
,
0110
0010
0100
0010
,
0200
0000
0300
0000
,
1001
1000
0001
0010
,
0100
0100
0010
0001
,
1000
0010
0100
0001
,
0100
0000
0100
0000
0100
0001
0100
0001
,
0100
0000
0010
0000
1000
0010
1000
0010
,
1000
0000
0001
0000
0010
0100
0010
0100
,
0010
0001
2000
3000
,
1001
0001
1000
0100
,
1100
1000
0001
0100
,
0101
0001
0010
0100
,
0110
1000
0002
0000
,
0003
1010
1000
0001
,
0011
0001
0100
0010
,
1010
1000
0100
1000
,
1100
0001
0200
0000
,
0301
0000
0100
0000
0010
0000
1000
0020
,
0000
0030
1000
0000
0100
0000
0010
0002
,
0000
0003
1000
0000
0001
0000
0100
0010
,
0000
0010
0100
0010
0100
0010
0100
0010
,
0000
0000
1000
0000
0001
0000
0100
0020
,
0000
0030
0010
0000
1000
0000
0010
2000
,
0000
3000
0001
0000
1000
0000
0010
0100
,
0000
0001
0000
0000
0100
0001
1000
0020
,
2000
0000
0000
0000
,
0000
0000
0000
0000
,
3030
0000
0000
0000
;

//--------------- dance-single - RxSteps ----------------
#NOTES:
     dance-single:
     RxSteps:
     Medium:
     7:
     0,0,0,0,0:
0000
0000
0000
0000
,
0001
0010
0001
0000
0001
0000
1000
0100
,
0010
0001
0010
0000
0010
0000
0100
1000
,
0001
0010
0100
0000
0100
0000
1000
0010
,
0100
0010
1000
0000
1000
0000
0001
0000
,
1000
0010
0100
0010
1000
0000
0011
0000
,
1000
0001
0010
0100
1000
0000
0101
0000
,
0100
0001
1000
0010
0100
0001
1000
1000
,
0010
0010
1000
0001
0100
0010
1000
0000
,
0011
0000
0010
0001
0100
0010
0100
0000
,
1001
0000
0001
0100
0010
0100
0001
0000
,
1100
0000
1000
0001
0010
0100
0010
0000
,
1001
0000
0000
0000
0001
0000
0000
0100
0000
0010
0000
0100
0010
0000
0000
0000
,
1100
0000
0001
0100
0010
1000
0100
0000
,
0012
0000
0013
0001
1000
0100
0010
0000
,
2001
0000
3100
1000
0010
0100
0001
0000
,
1100
0000
0000
0000
1000
0000
0000
0010
0000
0100
0000
0010
0100
0000
0000
0000
,
0001
0000
0200
0000
0000
0000
0010
0310
,
1000
0010
0100
0010
1000
0010
0100
0010
,
1000
1000
0010
1000
0001
1000
0010
1000
,
0000
0110
0000
0011
0000
0001
0000
1000
,
0010
0100
0010
1000
0001
0200
0000
0300
,
0001
1000
0010
1000
0100
0020
0000
0030
,
0001
0010
0100
1000
0001
0200
0000
0300
,
0010
1000
0001
0100
0010
2000
0000
3000
,
0001
0010
0100
1000
0001
0100
0010
0100
,
0001
0100
0010
1000
0010
0100
0010
1000
,
0010
0100
0001
1000
0100
0010
0100
1000
,
0002
0000
0100
0000
0203
0000
0310
1000
,
0001
1000
0020
0000
1030
0010
0100
0001
,
1000
0001
1000
0001
0010
0200
1000
0310
,
0001
0010
0001
1000
0001
0100
0020
1000
,
0130
0001
0010
0100
0010
0002
2000
0000
,
0000
0000
0000
0000
,
0000
0000
0000
3003
,
0001
0100
0001
0010
0100
0010
0001
1000
,
0010
0100
0010
1000
0001
1000
0100
0010
,
0200
0000
1300
0100
0010
0001
1000
0020
,
0100
0000
0100
0000
0130
0001
0010
0100
,
2000
0000
0001
0000
3001
0000
0000
0110
,
0000
2000
0000
0000
3001
0000
0000
1100
,
0000
1000
0001
0010
0100
0020
0001
0100
,
0031
1000
0001
0100
0010
1000
0001
0000
,
1010
0000
0001
0100
0010
0100
0010
0000
,
1001
0000
1000
0010
0100
0010
1000
0000
,
0011
0000
0001
1000
0100
0010
0100
0000
,
1001
0000
0000
0000
1000
0000
0000
0010
0000
0100
0000
0010
0100
0000
0000
0000
,
0011
0000
1000
0010
0100
0001
0010
0000
,
2100
0000
3100
1000
0001
0010
0100
0000
,
1002
0000
0013
0001
0100
0010
1000
0000
,
0011
0000
0000
0000
0001
0000
0000
0100
0000
0010
0000
0100
0010
0000
0000
0000
,
1000
0000
0020
0000
0000
0000
0100
0130
,
0001
0100
0010
0100
0001
0100
0010
0100
,
0001
0001
0100
0001
1000
0001
0100
0001
,
0000
0110
0000
1100
0000
1000
0000
0001
,
0100
0010
0100
0001
1000
0020
0000
0030
,
1000
0001
0100
0001
0010
0200
0000
0300
,
1000
0100
0010
0001
1000
0020
0000
0030
,
0100
0001
1000
0010
0100
0002
0003
0000
,
1010
0000
0110
0000
0011
0000
1000
0001
,
0010
0100
1000
0010
0100
0001
1000
0000
,
0110
0000
1001
0000
1100
0000
0001
0100
,
0010
1000
0000
0020
0100
0100
0100
0130
,
0000
1001
0101
0110
,
1000
0100
0010
0100
1000
0100
0010
0001
,
0010
0100
0010
0001
1000
0001
0100
0010
,
2000
0000
3002
0000
0100
0100
0100
0103
,
0001
0000
1000
0010
0100
0001
1000
1100
,
0000
0001
0100
0010
1000
0001
0100
0210
,
0000
0310
1000
0001
0100
0010
1000
1001
,
0000
0001
0100
0020
1000
1000
1000
1030
,
0000
0000
0101
0100
0010
1000
0001
0011
,
0000
1000
0010
0100
0001
1000
0010
0120
,
0000
0130
0001
1000
0010
0100
0001
1001
,
0000
1000
0010
0200
0002
0300
1000
2003
,
0020
0000
0000
0000
,
0000
0000
0000
0000
,
3030
0000
0000
0000
;

//--------------- dance-single - RxSteps ----------------
#NOTES:
     dance-single:
     RxSteps:
     Hard:
     9:
     0,0,0,0,0:
0000
0000
0000
0000
,
0001
0010
0001
0000
0100
0000
0010
0100
,
0001
0100
0010
0000
1000
0000
0100
1000
,
0100
0010
0100
0000
0100
0000
1000
0010
,
0100
0010
1000
0000
1000
0000
0001
0010
,
0100
0010
0001
0100
0010
0000
1100
0101
,
0001
1000
0001
0010
0100
0000
0011
1010
,
1000
0000
0100
0000
0010
0000
0100
0000
1000
0100
1000
0100
2000
0200
0000
0000
,
0300
3000
0001
0020
0130
0001
2000
0010
,
3001
0000
0010
0001
0010
0001
1000
0010
1000
0010
1000
0000
0200
0000
0010
0000
,
1300
0000
0010
1000
0010
1000
0001
0010
0001
0010
0001
0000
0200
0000
0010
0000
,
0301
0000
0100
0001
0100
0001
1000
0100
1000
0100
1000
0000
0002
0000
0010
0000
,
1003
0000
0001
1000
0001
1000
0010
0100
0000
0010
0000
0100
0020
0000
0100
0000
,
1030
0000
0100
1000
0100
1000
0001
0010
0001
0010
0001
0000
2000
0000
0010
0000
,
3001
0000
0100
0001
0100
0001
1000
0010
1000
0010
1000
0000
0002
0000
0010
0000
,
1003
0000
0010
1000
0010
1000
0001
0100
0001
0100
0001
0000
2000
0000
0010
0000
,
3001
0000
1000
0001
1000
0001
0100
0010
0000
0100
0000
0010
0100
0000
0010
0000
,
2100
0000
3002
0000
0000
0000
0010
1003
,
0110
0011
1100
0102
,
0013
0100
1000
0200
0301
0200
1300
0200
,
0000
2300
3001
0010
0001
1000
0200
1300
,
0011
0000
0001
0000
0010
0001
0000
1000
0000
0100
1000
0000
0001
0000
0100
0000
,
0110
0000
0001
0000
0100
0001
0000
0010
0000
0001
0010
0000
0100
0000
1000
0000
,
1010
0000
0010
0000
1000
0001
0000
0100
0000
0001
0100
0000
0001
0000
0010
0000
,
1010
0000
0010
0000
1000
0100
0000
1000
0000
0001
0100
0000
0001
0000
0100
0000
,
0110
0100
0001
0200
1300
0200
0301
0200
,
1300
0100
0001
0010
0001
1000
0200
0010
,
1300
0001
0100
0010
0100
0001
0200
0010
,
0301
0000
1000
0001
1000
0001
0100
0010
0100
0010
1000
0001
1000
0000
0001
0000
,
1200
0010
1300
0001
0010
0100
0010
0001
,
1000
0001
1000
0001
1000
0001
1000
0001
1000
0001
0200
0000
0010
0000
0302
0000
,
0023
0100
0031
0020
0001
0100
0031
1000
,
0200
0010
1300
0200
1000
0320
0002
0000
,
0000
0000
0000
0030
,
2000
0000
0000
0003
,
3100
1000
0100
0010
0001
1000
0010
0100
,
0001
0010
0100
0010
0100
1000
0010
0100
,
0001
0100
0001
0100
0002
0000
1000
0000
0100
0000
2003
0000
3020
0000
0130
0000
,
0010
1000
0010
1000
0001
0010
0001
0010
0200
0000
0000
0000
1000
0000
0310
0000
,
0001
1000
0020
0100
2000
0000
0030
0200
,
3300
0000
1000
0100
1000
0100
0020
0000
0002
0000
0000
0000
0030
0000
2000
0000
,
3003
0000
0001
1000
0001
1000
0010
0100
0010
0000
0100
0000
0001
0000
0010
0000
,
0001
0010
0001
0010
0001
0010
0001
0010
0001
0000
0200
0000
0010
0000
0301
0000
,
1000
0000
0100
1000
0100
1000
0001
0100
0001
0100
0001
0000
0020
0000
0100
0000
,
0031
0000
0100
0001
0100
0001
1000
0100
1000
0100
1000
0000
0020
0000
0100
0000
,
1030
0000
0010
1000
0010
1000
0001
0010
0001
0010
0001
0000
2000
0000
0100
0000
,
3001
0000
1000
0001
1000
0001
0100
0010
0000
0100
0000
0010
0200
0000
0010
0000
,
0302
0000
0013
0001
0010
0001
1000
0100
1000
0100
1000
0000
0002
0000
0100
0000
,
1003
0000
0010
1000
0010
1000
0001
0100
0001
0100
0001
0000
2000
0000
0100
0000
,
3001
0000
0100
0001
0100
0001
1000
0010
1000
0010
1000
0000
0002
0000
0100
0000
,
1003
0000
0001
1000
0001
1000
0010
0100
0000
0010
0000
0100
0010
0000
0100
0000
,
0012
0000
2003
0000
0000
0000
0100
3001
,
0110
1100
0011
2010
,
3200
0320
0031
0020
1030
0020
0031
0020
,
0000
0031
1000
0100
1000
0001
0020
0031
,
1100
0000
1000
0000
0100
1000
0000
0001
0000
0010
0001
0000
1000
0000
0010
0000
,
0110
0000
1000
0000
0010
1000
0000
0100
0000
1000
0100
0000
0010
0000
0001
0000
,
0101
0000
0100
0000
0001
1000
0000
0010
0000
1000
0010
0000
1000
0000
0100
0000
,
0101
0000
0100
0000
0001
0010
0000
0001
0000
1000
0010
0000
1000
0000
0010
0000
,
0110
0020
1030
0020
0031
0020
1030
0020
,
0031
0010
1000
0100
1000
0001
0020
0100
,
0031
1000
0010
0100
0010
1000
0020
0100
,
1030
0000
0001
1000
0001
1000
0010
0100
0010
0100
0001
1000
0001
0000
1000
0000
,
0011
1100
1001
0110
,
0011
0010
0001
0010
0100
0010
0002
0100
,
2003
0010
3002
0100
2003
0100
3002
0013
,
1010
0000
1200
0000
0310
0001
0200
0001
,
0320
0230
1300
0200
0301
0200
1300
0000
,
1200
0000
0301
0200
1300
0200
0301
0000
,
0201
0000
1300
0200
0301
0200
1300
0000
,
0011
0000
0010
0001
0010
0001
1000
0010
1000
0010
1000
0010
1000
0010
1000
0020
,
2000
3030
0000
0000
0201
0000
0310
0000
1000
0000
0100
0000
0010
0000
0000
0000
,
0021
0130
1000
0001
0110
0000
2100
3010
,
0201
0000
1300
0200
0301
0200
1300
0000
,
1100
0000
1000
0100
1000
0100
1000
0001
0000
0100
0000
0001
0100
0000
0020
0000
,
2000
0000
0000
0000
,
0000
0000
0000
0000
,
3030
0000
0000
0000
;
