#TITLE:Spicy;
#SUBTITLE:;
#ARTIST:Aespa;
#TITLETRANSLIT:;
#SUBTITLETRANSLIT:;
#ARTISTTRANSLIT:;
#GENRE:;
#CREDIT:RxSteps;
#MUSIC:Spicy.ogg;
#BANNER:Spicy.png;
#BACKGROUND:Spicy-bg.png;
#CDTITLE:cdtitle.png;
#SAMPLESTART:42.284;
#SAMPLELENGTH:26.870;
#SELECTABLE:YES;
#OFFSET:1.803;
#BPMS:0.000=115.000;
#STOPS:;
#BGCHANGES:;
#FGCHANGES:;

//--------------- dance-single - RxSteps ----------------
#NOTES:
     dance-single:
     RxSteps:
     Beginner:
     4:
     0,0,0,0,0:
0000
0000
0000
0000
,
1000
0100
0010
0001
,
1000
0000
0010
1000
0000
0000
0001
0000
,
0100
0000
0010
0100
0000
0001
0000
0000
,
1000
0000
0100
1000
0000
0000
0001
0000
,
1000
0000
0010
1000
0000
0000
0000
0000
,
0001
0000
1000
0010
1000
0000
0000
0000
,
0000
0001
0010
0001
0010
0000
0100
0000
,
1000
0000
0100
1000
0100
0000
1000
0000
,
0000
0010
1000
0010
1000
0000
0001
0000
,
0100
0010
1000
0001
,
0100
0001
1000
0010
,
0100
0000
0010
0000
1000
0000
0000
0001
,
1000
0001
1000
0001
0000
0000
0100
0000
,
0001
0000
0000
0000
1000
0000
0000
0010
,
0100
0010
0100
0010
0100
0000
0001
0000
,
1000
0000
0000
0000
0100
0000
0000
0100
,
1000
0100
1000
0100
0000
0000
1000
0000
,
0001
0100
0010
0100
,
0001
0010
0100
1000
,
0001
1000
0001
0000
0100
0000
0010
0000
,
2000
3000
0000
0000
,
0101
0000
1000
0010
,
1000
0001
1000
0001
1000
0000
0010
0000
,
0100
0000
0001
0010
,
0001
0010
0001
0010
0001
0000
1000
0000
,
0010
0100
0010
1000
,
0100
1000
0100
1000
0100
0000
1000
0000
,
0001
0010
0001
0100
,
0001
0000
1000
0000
,
0110
0000
0000
0000
1001
0000
0000
1000
,
0000
0010
1000
0000
0001
0000
0100
0001
,
0100
0010
1000
0001
,
0100
0010
1000
0000
,
2100
0000
0000
0000
3001
0000
0000
0100
,
0000
0001
0100
0001
0200
0000
0310
0000
,
0100
0001
1000
0100
,
0010
0010
0001
1000
,
0000
0010
0100
0000
0000
0001
0100
0000
,
0001
0010
0001
0001
,
0000
1000
0010
0000
0000
0100
0010
0000
,
1000
0010
0100
0001
,
1000
0000
0001
0000
0010
0001
0010
0000
,
0001
0000
1000
0000
0100
1000
0100
0000
,
1000
0010
0100
0100
,
0010
1000
0001
0000
,
0110
0000
0000
0000
0001
0000
0000
0100
,
0010
0100
0010
0100
0010
0000
1000
0000
,
0001
0000
0000
0000
0010
0000
0000
0010
,
0001
0010
0001
0010
0000
0000
0001
0000
,
1000
0010
0100
0010
,
1000
0100
0010
0001
,
1000
0001
1000
0000
0010
0000
0100
0000
,
0002
0003
0000
0000
,
1010
0000
0001
0100
,
0001
1000
0001
1000
0001
0000
0100
0000
,
0010
0000
1000
0100
,
1000
0100
1000
0100
1000
0000
0001
0000
,
0100
0010
0100
0001
,
0010
0001
0010
0001
0010
0000
0001
0000
,
1000
0100
1000
0010
,
1000
0000
0001
0000
,
1000
0010
1000
0010
1000
0010
1000
0000
,
0001
0010
0100
1000
,
0001
0010
0001
0010
0001
0010
0001
0000
,
1000
0100
0010
0001
,
0001
0000
1000
0000
0010
0100
0010
0000
,
1000
0000
0001
0100
0001
0100
0000
0000
,
0010
1000
0001
0100
,
0001
1000
0100
0000
,
0011
0000
1000
0100
,
1000
0001
1000
0001
1000
0000
0100
0000
,
0010
0000
0001
0100
,
0001
0100
0001
0100
0001
0000
1000
0000
,
0100
0010
0100
1000
,
0010
1000
0010
1000
0010
0000
1000
0000
,
0001
0100
0001
0010
,
0001
0000
1000
0000
,
0110
0000
0000
0000
1001
0000
0000
1000
,
0000
0100
1000
0000
0001
0000
0010
0001
,
0010
0100
1000
0001
,
0010
0100
1000
0000
,
2010
0000
0000
0000
3001
0000
0000
0010
,
0000
0001
0010
0001
0020
0000
0130
0000
,
0010
0001
1000
0010
,
0100
0100
0001
0000
,
1010
0000
1000
0010
,
0100
0010
0100
0010
0100
0000
0001
0000
,
1000
0100
0010
0001
,
1000
0100
1000
0100
1000
0000
0001
0000
,
0010
0001
1000
0010
,
0100
0001
0010
0100
,
1000
0001
1000
0001
,
0100
0010
0100
0002
,
2000
0000
0000
3003
0000
0000
0000
0000
;

//--------------- dance-single - RxSteps ----------------
#NOTES:
     dance-single:
     RxSteps:
     Easy:
     7:
     0,0,0,0,0:
0000
0000
0000
0000
,
1000
0010
1000
0010
1000
0010
1000
0002
,
0100
0003
0100
0001
0010
0001
1000
0002
,
0010
0003
0010
0001
1000
0001
2000
3000
,
0001
0100
0010
0100
0001
1000
0100
1000
,
0200
0300
0010
0002
0000
0003
0000
0000
,
1010
0000
1000
0001
0010
0001
2000
0010
,
3000
0010
1000
0001
0100
0001
1000
0020
,
0100
0030
0100
0020
1000
0030
2000
0100
,
3000
0100
1000
0100
0020
0030
0001
0000
,
1000
0010
1000
0001
0100
0001
2000
0010
,
3000
0010
1000
0001
0100
0010
0100
0000
,
0001
0010
0100
1000
0100
0020
0030
0001
,
0000
1000
0000
0100
1000
0100
1000
0000
,
0020
0000
0030
0000
0100
0001
0100
0000
,
0010
1000
0010
1000
0010
0000
0100
0000
,
0001
1000
0001
0000
0010
0001
0010
0001
,
0010
0100
1000
0100
0000
1000
0001
1000
,
0001
0000
0200
0000
0010
0000
0001
0300
,
0020
0000
1000
0000
0100
0030
1000
0000
,
0001
0200
0010
0300
0020
0000
2030
0000
,
3200
0000
0310
0000
,
1001
0000
1100
0101
,
1000
0001
0100
0010
0100
0001
1000
0010
,
1000
0002
0010
0103
,
0001
0100
0010
1000
0010
0100
0001
1000
,
0001
0010
0011
1010
,
1000
0010
0100
0001
0100
0010
1000
0001
,
1000
0020
0100
1030
,
0010
0100
0001
0100
0020
0000
1030
0000
,
0011
0000
2010
0000
3001
0000
0000
0110
,
0000
1000
0001
0000
1100
0000
1000
0002
,
0100
0003
0100
0001
0000
1000
0100
0020
,
0001
0030
0001
0010
0000
0001
1000
0000
,
0110
0000
1001
0000
0001
0000
0000
0101
,
0000
1000
0010
1000
0010
0000
1000
0001
,
0010
0100
1000
0100
0010
0100
1000
0000
,
0100
0000
0010
0000
0001
0000
1000
0002
,
0100
0003
0100
0002
0010
0003
0010
0001
,
1000
0000
0100
0000
0010
0000
0100
1000
,
0100
0000
0010
0001
0010
0000
0100
0000
,
1000
0000
0010
0000
0100
0000
0001
0100
,
0001
0000
1000
0010
0100
0010
0100
0001
,
1000
0000
0100
1000
0100
1000
0100
0000
,
0010
0000
0001
0010
0001
0000
1000
0001
,
1000
0000
0010
0100
0010
0000
1000
0000
,
0001
2000
0010
3000
0010
1000
0010
0000
,
0100
0001
0100
0001
0100
0000
0010
0000
,
1000
0001
1000
0000
0100
1000
0100
1000
,
0100
0010
0001
0010
0000
0001
1000
0001
,
1000
0000
0020
0000
0100
0000
1000
0030
,
0200
0000
0001
0000
0010
0300
0001
0000
,
1000
0020
0100
0030
0200
0000
0302
0000
,
0023
0000
0130
0000
,
1001
0000
0011
1010
,
0001
1000
0010
0100
0010
1000
0001
0100
,
0001
2000
0100
3010
,
1000
0010
0100
0001
0100
0010
1000
0001
,
1000
0100
1100
0101
,
0001
0100
0010
1000
0010
0100
0001
1000
,
0001
0200
0010
0301
,
0100
0010
1000
0010
0200
0000
0301
0000
,
1000
0100
0010
0001
1000
0100
1000
0100
,
0010
0001
0010
0100
0010
0001
0020
0030
,
0001
1000
0010
0100
0001
1000
0010
0100
,
0001
0100
0001
1000
0001
0010
0002
0003
,
1000
0001
0100
0010
0100
0001
1000
0100
,
1000
0100
0010
0001
1000
0002
0003
0100
,
0010
0100
0001
0100
0010
0100
0001
1000
,
0001
1000
0010
0100
,
1001
0000
1010
0011
,
1000
0001
0010
0100
0010
0001
1000
0100
,
1000
0002
0100
0013
,
0001
0010
0100
1000
0100
0010
0001
1000
,
0001
0100
0101
1100
,
1000
0100
0010
0001
0010
0100
1000
0001
,
1000
0200
0010
1300
,
0100
0010
0001
0010
0200
0000
1300
0000
,
0101
0000
2100
0000
3001
0000
0000
0110
,
0000
1000
0001
0000
1010
0000
1000
0002
,
0010
0003
0010
0001
0000
1000
0010
0200
,
0001
0300
0001
0100
0000
0001
1000
0000
,
0110
0000
1001
0000
0001
0000
0000
0011
,
0000
1000
0100
1000
0100
0000
1000
0002
,
0100
0003
0100
0001
1000
0001
0010
0200
,
1000
0300
2000
0200
0000
3300
0000
0000
,
0101
0000
1100
0000
0001
0000
0100
0010
,
0100
0001
0100
0001
0100
0001
1000
0010
,
1000
0001
0010
0100
,
1000
0100
0010
0001
0010
0100
1000
0000
,
0001
0100
0010
1000
,
0001
1000
0010
0100
0010
1000
0001
0100
,
0010
1000
0100
0010
,
0100
0000
1000
0000
0001
0000
0100
0002
,
0200
0000
0000
0303
0000
0000
0000
0000
;

//--------------- dance-single - RxSteps ----------------
#NOTES:
     dance-single:
     RxSteps:
     Medium:
     9:
     0,0,0,0,0:
0000
0000
0000
0000
,
1000
0001
0010
0001
1000
0100
1000
0010
,
0102
0003
1000
0010
0100
0001
0100
0010
,
1000
0100
0010
0001
1000
0010
0100
0010
,
1000
0001
0010
0100
0020
0001
0130
1000
,
0010
0100
0002
2000
0000
0000
3003
0000
,
0110
0000
0001
0100
0010
1000
0200
0010
,
1300
0001
0010
0100
0010
0001
0100
0010
,
1002
0000
0003
0000
0010
0000
0100
0000
1000
0000
0010
0000
0200
0000
0010
0300
,
0001
1000
0100
0010
0001
0100
0010
0100
,
0001
1000
0010
0100
0001
0010
0001
0100
,
0010
0100
0001
0010
0001
1000
0010
0000
,
0011
1000
0010
0100
0010
1000
0001
0020
,
0100
0000
0031
0000
1000
0000
0010
0100
0010
0000
1000
0000
0001
0000
0010
0000
,
0200
0000
1000
0000
0010
0000
0300
0000
0010
0000
0001
1000
0000
0000
0010
0100
,
0001
0000
1000
0000
0010
0000
0100
0002
0000
0000
0000
0000
0013
0000
0000
0000
,
1200
0300
0010
0000
0002
0000
0003
0000
1000
0000
0020
0100
0000
0030
0100
0000
,
0010
0000
1000
0000
0100
0000
0010
0001
0000
0000
0100
0000
0010
0000
1000
0001
,
0100
0000
0000
0010
1000
0000
0000
0001
0100
0000
0000
0000
0110
0000
0000
1000
,
0010
0000
0000
0100
0001
0000
0000
1000
0010
0000
0000
0000
0110
0000
0000
0000
,
0001
1000
0100
0000
0101
0000
0110
0000
,
0021
0030
0100
0000
1000
0000
0200
0000
0010
0300
1000
0000
0001
0000
1000
0000
,
0100
0000
0000
0010
0001
0000
0000
1000
0100
0000
0000
0010
0001
0000
0000
0000
,
1200
0300
0010
0000
0001
0000
0100
0000
0001
0000
0010
0000
0001
0000
0100
0000
,
0010
0000
0000
1000
0100
0000
0000
0001
0100
0000
0000
0000
0110
0000
0000
0000
,
1000
0000
0200
0000
0010
0300
2000
3000
0010
0000
0100
0000
0001
0000
0010
0000
,
0100
0000
0000
1000
0010
0000
0000
0100
0001
0000
0000
1000
0010
0000
0000
0000
,
0021
0030
0100
0000
1000
0000
0100
0000
0010
0000
0100
0000
1000
0000
0001
0000
,
0010
0000
0000
0000
1010
0000
0000
0000
0110
0000
0000
0000
0021
0030
0100
0000
,
1000
0000
0001
0000
0010
0000
0100
0000
1000
0000
0000
0000
1010
0000
0000
0001
,
0100
0000
0000
0010
1000
0000
0000
0001
0200
0000
0300
0000
0010
0000
1000
0000
,
0200
0000
0010
0300
1000
0000
0000
0000
0201
0000
0300
0000
0010
0000
0100
0000
,
0002
0003
0010
0100
0010
0001
1000
0100
,
1000
0000
0010
0000
0100
0000
0001
0000
0010
0000
0100
0000
1000
0100
0010
0000
,
0001
0000
0000
1000
0100
0000
0000
0010
0002
0000
0003
0000
0100
0000
0010
0000
,
1000
0100
0010
0002
0100
0003
0100
0001
,
0020
0000
0130
1000
0010
0100
0010
1000
,
0100
0010
0100
1000
0002
0003
1000
0100
,
0020
0000
0001
0030
0100
0000
1000
0000
0020
0000
0100
0030
1000
0000
0001
0000
,
0010
0000
0000
1000
0010
0000
0000
0002
0010
0000
0003
0000
0010
0000
0001
0000
,
1000
0000
0001
0000
1000
0000
0010
0000
0200
0000
0001
0300
0010
0000
1000
0000
,
0010
0000
0000
0100
0001
0000
0000
1000
0020
0000
0000
0000
0130
0000
0000
0000
,
1002
0003
0000
0100
0010
0000
1000
0000
0100
0000
0010
0000
0001
0000
0010
0000
,
0100
0010
0001
1000
0010
0100
0010
0000
,
1100
0000
1000
0002
0010
0003
0010
0001
,
1000
0000
0000
0001
0100
0000
0000
0010
1000
0000
0001
0000
0010
0000
0100
0000
,
0020
0000
0001
0000
0100
0000
0030
0000
0100
0000
1000
0001
0000
0000
0100
0010
,
1000
0000
0001
0000
0100
0000
0010
2000
0000
0000
0000
0000
3100
0000
0000
0000
,
0021
0030
0100
0000
2000
0000
3000
0000
0001
0000
0200
0010
0000
0300
0010
0000
,
0100
0000
0001
0000
0010
0000
0100
1000
0000
0000
0001
0000
0100
0000
0001
1000
,
0010
0000
0000
0100
0001
0000
0000
1000
0010
0000
0000
0000
0110
0000
0000
0001
,
0100
0000
0000
0010
1000
0000
0000
0001
0100
0000
0000
0000
0110
0000
0000
0000
,
0001
0010
0100
0000
1010
0000
0110
0000
,
1200
0300
0010
0000
0001
0000
0200
0000
0010
0300
0001
0000
1000
0000
0001
0000
,
0010
0000
0000
0100
1000
0000
0000
0001
0010
0000
0000
0100
1000
0000
0000
0000
,
0021
0030
0100
0000
1000
0000
0010
0000
1000
0000
0100
0000
1000
0000
0010
0000
,
0100
0000
0000
0001
0100
0000
0000
0010
1000
0000
0000
0000
0110
0000
0000
0000
,
0001
0000
0020
0000
0100
0030
0002
0003
0100
0000
0010
0000
1000
0000
0100
0000
,
0010
0000
0000
0001
0100
0000
0000
0010
1000
0000
0000
0001
0100
0000
0000
0000
,
1200
0300
0010
0000
0001
0000
0100
0000
0010
0000
0100
0000
0001
0000
1000
0000
,
0010
0000
0000
0000
0101
0000
0000
0000
0110
0000
0000
0000
1200
0300
0010
0000
,
0001
0000
1000
0000
0100
0000
0010
0000
0001
0000
0000
2000
0100
0000
3000
0000
,
0100
0000
1000
0000
0010
0000
0100
0000
0001
0000
0010
0000
0001
0000
1000
0100
,
0020
0030
0001
0010
0200
0300
1000
0000
0001
0000
1000
0000
0001
0000
0100
0000
,
0010
1000
0100
1000
0010
0100
0001
0010
,
0100
0000
0000
0000
0000
0000
0020
0000
0000
0000
0000
0000
0001
0000
0000
0030
0000
0000
0100
0000
0000
0000
0000
0000
1000
0000
0000
0000
0000
0000
0100
0000
0000
0000
0000
0000
0010
0000
0000
0000
0100
0000
0000
0000
1000
0000
0000
0000
,
0001
0000
0100
0000
0010
0000
1000
0000
0001
0000
0100
0000
0010
0000
1000
0001
,
0200
0300
0010
1000
0200
0300
0010
0000
0001
0000
2000
0000
0000
3000
0100
0000
,
0010
0001
0100
0010
1000
0100
1000
0001
,
0010
0001
1000
0100
0010
0001
1000
0001
,
0010
0000
0000
0100
1000
0000
0000
0001
0010
0000
0000
0100
1000
0000
0000
0000
,
0021
0030
0100
0000
1000
0000
0010
0000
1000
0000
0100
0000
1000
0000
0010
0000
,
0100
0000
0000
0001
0010
0000
0000
1000
0010
0000
0000
0000
0110
0000
0000
0000
,
0001
0000
0020
0000
0100
0030
0002
0003
0100
0000
0010
0000
1000
0000
0100
0000
,
0010
0000
0000
0001
0100
0000
0000
0010
1000
0000
0000
0001
0100
0000
0000
0000
,
1200
0300
0010
0000
0001
0000
0010
0000
0100
0000
0010
0000
0001
0000
1000
0000
,
0100
0000
0000
0000
0101
0000
0000
0000
0110
0000
0000
0000
1200
0300
0010
0000
,
0001
0000
1000
0000
0100
0000
0010
0000
0001
0000
0000
0000
0101
0000
0000
1000
,
0010
0000
0000
0100
0001
0000
0000
1000
0020
0000
0030
0000
0100
0000
0001
0000
,
0020
0000
0100
0030
0001
0000
0000
0000
1020
0000
0030
0000
0100
0000
0010
0000
,
2000
3000
0100
0010
0100
1000
0001
0010
,
0001
0000
0100
0000
0010
0000
1000
0000
0100
0000
0010
0000
0001
0010
0100
0000
,
1000
0000
0000
0001
0010
0000
0000
0100
2000
0000
3000
0000
0010
0000
0100
0000
,
0001
0010
0100
2000
0010
3000
0010
1000
,
0200
0000
0310
0001
0100
0010
0100
0001
,
0010
0000
0100
0000
0010
0000
0001
0000
2000
0000
0000
0200
3300
0000
0000
0000
,
0110
0000
0001
0100
0010
1000
0010
0100
,
0001
0000
1000
0000
0100
0000
1000
0000
0001
0000
0100
0000
0010
0100
0010
0000
,
1000
0001
0010
0100
0020
0001
0130
1000
,
0020
0000
0100
0000
1030
0000
0001
0000
0010
0000
0001
0000
0100
0010
1000
0000
,
0001
0010
0100
0010
0100
1000
0001
0100
,
0010
0000
0100
0000
0001
0000
0020
0000
0100
0030
0001
0000
0010
0100
1000
0000
,
0010
0100
0010
1000
0001
0010
0001
0100
,
0010
0000
0100
0001
1000
0000
0100
0000
2000
3000
0000
0020
0030
0000
0200
0000
,
0002
0000
0000
0303
0000
0000
0000
0000
;

//--------------- dance-single - RxSteps ----------------
#NOTES:
     dance-single:
     RxSteps:
     Hard:
     10:
     0,0,0,0,0:
0000
0000
0000
0000
,
1000
0001
0010
0001
1000
0100
1000
0010
,
0102
0003
1000
0010
0100
0001
0100
0010
,
1000
0200
0301
0100
1000
0020
0031
0010
,
0100
0001
0010
0100
0020
0001
0130
1000
,
0010
0100
0002
2000
0000
0000
3003
0000
,
0110
0000
0001
0100
0010
1000
0200
0010
,
1300
0001
0020
1030
0010
0001
0100
0010
,
1200
0300
0010
0100
1000
0010
0200
0010
,
0301
1000
0100
0010
0001
0020
1030
0010
,
0001
0100
0010
0100
0001
0010
0001
0200
,
1300
0100
0001
0010
0001
1000
0010
0000
,
0012
0003
0100
0000
0010
0000
1000
0000
0010
0000
0100
0000
0001
0000
0020
0000
,
0100
0000
0031
0000
1000
0000
0010
0100
0010
0000
1000
0000
0001
0000
0010
0000
,
0200
0000
1000
0000
0010
0000
0300
0000
0010
0000
0001
1000
0000
0000
0010
0100
,
0001
0000
1000
0000
0010
0000
0100
0002
0000
0000
0000
0000
0013
0000
0000
0000
,
1200
0300
0010
0000
0002
0000
0003
0000
1000
0000
0020
0100
0000
0030
0100
0000
,
0010
0000
1000
0000
0100
0000
0010
0001
0000
0000
0100
0000
0010
0000
1000
0001
,
0100
0000
0000
0010
1000
0000
0000
0001
0100
0000
0000
0000
0110
0000
0000
1000
,
0010
0000
0000
0100
0001
0000
0000
1000
0010
0000
0000
0000
0110
0000
0000
0000
,
0001
0100
0010
1000
0010
0000
0000
0000
0101
0000
0000
0000
0110
0000
0000
0000
,
0021
0030
0100
0000
1000
0000
0010
0000
0100
0000
0001
0000
1000
0000
0020
0000
,
0031
0000
1000
0000
0100
0000
0001
1000
0100
0000
0000
0010
0001
0000
0000
0000
,
1200
0300
0010
0000
0001
0000
0100
0000
0001
0000
0010
0000
0001
0000
0100
0000
,
0010
0000
1000
0000
0100
0010
0100
0000
2000
0000
3000
0010
0100
0000
0001
0000
,
1000
0000
0200
0000
0010
0300
2000
3000
0010
0000
0100
0000
0001
0000
0010
0000
,
0100
0000
0000
1000
0010
0000
0000
0100
0001
0000
0000
1000
0010
0000
0000
0000
,
0021
0030
0100
0000
1000
0000
0020
0000
0031
0000
1000
0000
0100
0000
0001
0000
,
0020
0000
0030
0000
0100
1000
0100
0000
0010
0000
0000
0001
0010
0000
0200
0000
,
1000
0300
0010
0000
0001
1000
0010
0000
0100
0000
0000
0010
2000
3000
0000
0001
,
0100
0000
0000
0010
1000
0000
0000
0001
0100
0010
0100
0000
0001
0000
1100
0000
,
0020
0001
0130
0000
0201
0300
0010
0100
,
0002
0003
0010
0100
0010
0001
0200
1300
,
0001
0000
0010
0000
1000
0000
0200
0300
0001
0000
0100
0000
1000
0100
0010
0000
,
0001
0000
0000
1000
0100
0000
0000
0010
0001
0010
0100
0000
1000
0000
0001
0000
,
0010
0110
1000
0002
0100
0003
0100
0001
,
0020
0000
0130
1000
0010
0100
0010
1000
,
0100
0000
0010
0000
0100
0000
1000
0000
0002
0000
0003
0000
0100
0010
0100
0001
,
1000
0000
0010
0000
1000
0001
0100
0000
0020
0030
1000
0000
0001
0100
0010
0100
,
0002
0003
0010
0100
2000
3000
0010
0100
0002
0003
1000
0000
0100
0010
0100
1000
,
0200
0300
0020
0030
0100
1000
0001
0100
0020
0030
1000
0000
0100
0000
1000
0000
,
0010
0000
0000
0100
0001
0000
0000
1000
0020
0000
0000
0000
0130
0000
0000
0000
,
1002
0003
0000
0100
0010
0000
1000
0000
0100
0000
0010
0000
0001
0000
0200
0300
,
1000
0100
0001
0010
0001
0200
0310
0000
,
1100
0000
0000
0000
1000
0010
0100
0002
0010
0000
0003
0000
0010
0001
0100
0010
,
2000
3000
0010
0100
0002
0003
0010
0100
1000
0000
0001
0000
0010
0000
0100
0000
,
0020
0000
0001
0000
0100
0000
0030
0000
0100
0000
1000
0001
0000
0000
0100
0010
,
1000
0000
0001
0000
0100
0000
0010
2000
0000
0000
0000
0000
3100
0000
0000
0000
,
0021
0030
0100
0000
2000
0000
3000
0000
0001
0000
0200
0010
0000
0300
0010
0000
,
0100
0000
0001
0000
0010
0000
0100
1000
0000
0000
0010
0000
0100
0000
0001
1000
,
0010
0000
0000
0100
0001
0000
0000
1000
0010
0000
0000
0000
0110
0000
0000
0001
,
0100
0000
0000
0010
1000
0000
0000
0001
0100
0000
0000
0000
0110
0000
0000
0000
,
1000
0010
1000
0001
0010
0000
0000
0000
1010
0000
0000
0000
0110
0000
0000
0000
,
1200
0300
0010
0000
0001
0000
0100
0000
0010
0000
1000
0000
0001
0000
0200
0000
,
1300
0000
0001
0000
0010
0000
1000
0001
0010
0000
0000
0100
1000
0000
0000
0000
,
0021
0030
0100
0000
1000
0000
0010
0000
1000
0000
0100
0000
1000
0000
0010
0000
,
0100
0000
0001
0000
0010
0100
0010
0000
0002
0000
0003
0100
0010
0000
1000
0000
,
0001
0000
0020
0000
0100
0030
0002
0003
0100
0000
0010
0000
1000
0000
0100
0000
,
0010
0000
0000
0001
0100
0000
0000
0010
1000
0000
0000
0001
0100
0000
0000
0000
,
1200
0300
0010
0000
0001
0000
0200
0000
1300
0000
0001
0000
0010
0000
1000
0000
,
0200
0000
0300
0000
0010
0001
0010
0000
0100
0000
0000
1000
0100
0000
0020
0000
,
0001
0030
0100
0000
1000
0001
0100
0000
0010
0000
0000
0100
0001
0000
0000
0000
,
1010
0000
0010
0000
0110
0000
0100
0000
0101
0000
0001
0000
1001
0000
1000
0020
,
0100
0030
0100
0010
1000
0000
0001
0000
1000
0000
0100
0000
0010
0000
0000
0000
,
0011
0001
1001
1000
1010
0010
0110
0100
,
0101
0000
0000
0001
0000
0000
1000
0000
0000
0010
0000
0000
0100
0000
0000
0001
0000
0000
0010
0000
0100
0000
1000
0000
,
0001
0000
0100
0000
0010
0000
1000
0000
0200
0300
0001
0000
1000
0000
0010
0001
,
0200
0300
0010
0100
0002
0003
1000
0000
0001
0000
2000
0000
0000
3000
0100
0000
,
0010
0001
0020
1030
0001
0100
1000
0010
,
0100
0010
1000
0100
0010
0001
1000
0200
,
0301
0000
1000
0000
0010
0000
0001
1000
0010
0000
0000
0100
0001
0000
0000
0000
,
1020
0030
0100
0000
0001
0000
0010
0000
0001
0000
0100
0000
0001
0000
0010
0000
,
0100
0000
1000
0000
0010
0100
0010
0000
2000
0000
3000
0100
0010
0000
0001
0000
,
1000
0000
0020
0000
0100
0030
2000
3000
0100
0000
0010
0000
0001
0000
0100
0000
,
0010
0000
0000
0000
1100
0000
0000
0010
0001
0000
0000
1000
0100
0000
0000
0000
,
0201
0300
0010
0000
1000
0000
0200
0000
0301
0000
1000
0000
0010
0000
0001
0000
,
0200
0000
0300
0000
0010
1000
0010
0000
0100
0000
0000
0001
0100
0000
0020
0000
,
1000
0030
0100
0000
0001
1000
0100
0000
0010
0000
0000
0100
2000
3000
0000
0001
,
0010
0000
0000
0100
1000
0000
0000
0001
0010
0100
1000
0000
0010
0000
0201
0000
,
0320
1000
0130
0000
2100
3000
0010
0100
,
0002
0003
0100
0010
0100
0001
0020
1030
,
0001
0000
0100
0000
1000
0000
0020
0030
0001
0000
0010
0000
1000
0010
0100
0000
,
0001
0000
0000
1000
0010
0000
0000
0100
0001
0100
0010
0000
1000
0000
0001
0000
,
0010
0110
1000
0002
0010
0003
0010
0001
,
0200
0000
0310
1000
0100
0010
0100
1000
,
0010
0000
0100
0000
0010
0000
1000
0000
0002
0000
0000
0020
0033
0000
0000
0000
,
2010
3000
0001
0100
0010
1000
0010
0100
,
0001
0000
0020
0000
1030
0000
0010
0000
0001
0000
0200
0000
1300
0100
0010
0000
,
1000
0001
0010
0100
0020
0001
0130
1000
,
0020
0000
0100
0000
1030
0000
0001
0000
0010
0000
0001
0000
0100
0010
1000
0000
,
0001
0010
0100
0010
0100
1000
0001
0100
,
0010
0000
0100
0000
0001
0000
0020
0000
0100
0030
0001
0000
0010
0100
1000
0000
,
0010
0000
0200
0300
1000
0000
0001
0000
0010
0000
1000
0000
0001
0000
0100
0000
,
0010
0000
0100
0001
0010
0000
0100
0000
2000
3000
0000
0020
0030
0000
0200
0000
,
0002
0000
0000
0303
0000
0000
0000
0000
;
