#TITLE:Somewhere;
#SUBTITLE:feat. Reiki Ruawai;
#ARTIST:Grafix;
#TITLETRANSLIT:;
#SUBTITLETRANSLIT:;
#ARTISTTRANSLIT:;
#GENRE:;
#CREDIT:RxSteps;
#MUSIC:Somewhere.ogg;
#BANNER:Somewhere.png;
#BACKGROUND:Somewhere-BG.png;
#CDTITLE:cdtitle.png;
#SAMPLESTART:118.748;
#SAMPLELENGTH:24.828;
#SELECTABLE:YES;
#OFFSET:1.252;
#BPMS:0.000=174.000;
#STOPS:;
#BGCHANGES:;
#FGCHANGES:;

//--------------- dance-single - RxSteps ----------------
#NOTES:
     dance-single:
     RxSteps:
     Beginner:
     2:
     0,0,0,0,0:
0000
0000
0000
0000
,
0001
0000
0000
0000
,
0001
0000
0000
0000
,
1000
0000
0000
0000
,
1000
0000
0000
0000
,
0010
0000
0000
0000
,
0100
0000
0000
0000
,
0001
0000
0000
0000
,
0100
0000
0000
0000
,
0100
0000
0000
0000
,
0100
0000
0000
0000
,
1000
0000
0000
0000
,
0001
0000
0000
0000
,
1000
0000
0000
0000
,
0100
0000
0000
0000
,
0010
0000
0000
0000
,
0001
0000
0000
0000
,
0001
0000
0000
0000
,
0100
0000
0000
0000
,
0100
0000
0000
0000
,
0010
0000
0000
0000
,
0001
0000
0000
0000
,
0001
0000
0000
0000
,
1000
0000
0000
0000
,
0010
0000
0000
0000
,
0100
0000
0000
0000
,
0100
0000
0000
0000
,
0100
0000
0000
0000
,
1000
0000
0000
0000
,
1000
0000
0000
0000
,
1000
0000
0000
0000
,
0001
0000
0000
0000
,
1000
0000
0000
0000
,
0010
0000
0000
0000
,
0000
0000
0000
0000
,
0010
0000
0000
0000
,
0000
0000
0000
0000
,
0100
0000
0000
0000
,
0000
0000
0000
0000
,
0001
0000
0000
0000
,
1000
0000
0000
0000
,
0010
0000
0000
0000
,
0010
0000
0000
0000
,
1000
0000
0000
0000
,
0000
0000
0000
0000
,
0100
0000
0000
0000
,
0100
0000
0000
0000
,
0100
0000
0000
0000
,
0001
0000
0000
0000
,
1000
0000
0000
0000
,
1000
0000
0000
0000
,
0010
0000
0000
0000
,
0010
0000
0000
0000
,
0100
0000
0000
0000
,
0100
0000
0000
0000
,
0100
0000
0000
0000
,
0001
0000
0000
0000
,
0001
0000
0000
0000
,
1000
0000
0000
0000
,
0100
0000
0000
0000
,
0010
0000
0000
0000
,
0001
0000
0000
0000
,
0100
0000
0000
0000
,
0001
0000
0000
0000
,
1000
0000
0000
0000
,
1000
0000
0000
0000
,
0100
0000
0000
0000
,
0100
0000
0000
0000
,
0010
0000
0000
0000
,
0010
0000
0000
0000
,
1000
0000
0000
0000
,
0001
0000
0000
0000
,
0001
0000
0000
0000
,
0010
0000
0000
0000
,
0100
0000
0000
0000
,
0010
0000
0000
0000
,
1000
0000
0000
0000
,
0100
0000
0000
0000
,
0001
0000
0000
0000
,
0001
0000
0000
0000
,
1000
0000
0000
0000
,
0010
0000
0000
0000
,
0010
0000
0000
0000
,
0100
0000
0000
0000
,
0100
0000
0000
0000
,
0001
0000
0000
0000
,
0010
0000
0000
0000
,
1000
0000
0000
0000
,
1000
0000
0000
0000
,
0100
0000
0000
0000
,
0100
0000
0000
0000
,
0010
0000
0000
0000
,
1000
0000
0000
0000
,
0001
0000
0000
0000
,
1000
0000
0000
0000
,
0001
0000
0000
0000
,
0000
0000
0000
0000
,
0100
0000
0000
0000
,
0000
0000
0000
0000
,
0010
0000
0000
0000
,
0000
0000
0000
0000
,
1001
0000
0000
0000
,
0000
0000
0000
0000
,
1000
0000
0000
0000
,
0000
0000
0000
0000
,
0010
0000
0000
0000
,
0000
0000
0000
0000
,
0010
0000
0000
0000
,
0000
0000
0000
0000
,
1001
0000
0000
0000
,
0000
0000
0000
0000
,
0010
0000
0000
0000
,
0000
0000
0000
0000
,
1000
0000
0000
0000
,
0000
0000
0000
0000
,
1000
0000
0000
0000
,
0000
0000
0000
0000
,
0010
0000
0000
0000
,
0000
0000
0000
0000
,
0001
0000
0000
0000
,
0000
0000
0000
0000
,
0100
0000
0000
0000
,
0100
0000
0000
0000
,
0000
0000
0000
0000
,
0010
0000
0000
0000
,
1000
0000
0000
0000
,
0001
0000
0000
0000
,
1000
0000
0000
0000
,
0100
0000
0000
0000
,
0100
0000
0000
0000
,
0001
0000
0000
0000
,
0001
0000
0000
0000
,
1000
0000
0000
0000
,
0100
0000
0000
0000
,
1000
0000
0000
0000
,
0010
0000
0000
0000
,
0010
0000
0000
0000
,
0010
0000
0000
0000
,
0100
0000
0000
0000
,
0001
0000
0000
0000
,
0010
0000
0000
0000
,
0010
0000
0000
0000
,
0010
0000
0000
0000
,
0010
0000
0000
0000
,
1000
0000
0000
0000
,
1000
0000
0000
0000
,
0100
0000
0000
0000
,
0010
0000
0000
0000
,
0001
0000
0000
0000
,
0001
0000
0000
0000
,
0010
0000
0000
0000
,
0100
0000
0000
0000
,
1000
0000
0000
0000
,
0001
0000
0000
0000
,
0100
0000
0000
0000
,
0010
0000
0000
0000
,
0010
0000
0000
0000
,
1000
0000
0000
0000
,
0100
0000
0000
0000
,
0010
0000
0000
0000
,
0001
0000
0000
0000
,
0010
0000
0000
0000
,
0000
0000
0000
0000
,
0100
0000
0000
0000
,
0000
0000
0000
0000
,
1001
0000
0000
0000
,
0000
0000
0000
0000
,
1000
0000
0000
0000
,
0000
0000
0000
0000
,
1000
0000
0000
0000
,
0000
0000
0000
0000
,
0010
0000
0000
0000
,
0000
0000
0000
0000
,
1001
0000
0000
0000
,
0000
0000
0000
0000
,
0100
0000
0000
0000
,
0000
0000
0000
0000
,
0010
0000
0000
0000
,
0000
0000
0000
0000
,
1000
0000
0000
0000
,
0000
0000
0000
0000
,
1001
0000
0000
0000
;

//--------------- dance-single - RxSteps ----------------
#NOTES:
     dance-single:
     RxSteps:
     Easy:
     5:
     0,0,0,0,0:
0000
0000
0000
0000
,
1000
0000
1000
0000
,
0010
0000
0010
0000
,
0100
0000
0100
0000
,
0001
0000
0100
0000
,
0001
0000
0010
0000
,
0100
0000
0010
0000
,
0002
0000
1000
0000
,
0100
0000
0103
0000
,
0001
1000
0001
1000
,
0100
1000
0100
1000
,
0001
0100
0010
1000
,
0001
0100
0010
1000
,
0200
0000
1000
0000
,
2300
0000
0010
0000
,
3020
0000
0100
0000
,
0130
0000
0001
1000
,
0010
1000
0001
1000
,
0001
0100
0002
0000
,
0003
0000
1000
0100
,
0010
0001
0020
0000
,
0030
0000
0001
1000
,
0001
0100
0001
0010
,
0001
0010
0100
1000
,
0100
0010
0002
0000
,
0003
0000
1000
0100
,
1000
0001
0200
0000
,
0300
0000
0000
0002
0000
0000
0003
0000
,
0100
0010
0100
0010
,
0000
1000
0001
1000
,
0010
1000
0100
1000
,
0001
0010
0100
1000
,
0001
0010
0100
0010
,
0002
0000
0000
0003
,
0200
0000
0000
0300
,
0020
0000
0000
0000
0000
0030
0000
0000
,
1000
0000
0010
0000
,
1000
0000
0100
0000
,
1000
0000
0001
0000
,
0010
0001
0010
0001
,
1000
0001
2000
0000
,
3000
0000
0020
0000
,
2030
0000
0000
3000
,
0000
0001
1000
0010
,
0100
0001
2000
0000
,
3002
0000
0103
0000
,
0100
0000
0010
0000
,
0010
1000
0010
1000
,
0001
1000
0001
0000
,
0220
0030
0300
0010
,
2000
0000
3000
0000
,
0002
0010
0000
0003
,
0010
0200
0300
0000
,
2200
0000
3300
0000
,
1000
0020
0000
0030
,
0100
0100
0010
1000
,
0001
0010
0200
0300
,
1000
2000
0000
3000
,
0001
0002
0003
0000
,
0202
0000
0303
0000
,
0001
0100
0010
1000
,
2000
0000
3020
0000
,
0230
0000
0302
0000
,
1003
0001
1000
0001
,
0100
0001
0200
0300
,
0010
0000
1000
0010
,
0100
0010
2000
0000
,
3000
0000
0000
0020
0030
0000
0100
0000
,
0010
0100
0001
0010
,
0001
1000
0001
1000
,
0010
1000
0020
0000
,
0030
0100
0100
0001
,
0001
1000
0001
1000
,
0010
1000
1000
0010
,
0010
0100
0002
0000
,
0003
0010
0100
1000
,
0001
0010
0200
0000
,
0300
0000
2000
0000
,
3020
0000
0230
0300
,
0001
0100
0001
0010
,
0001
0010
0001
0000
,
2020
3000
0030
1000
,
0002
0000
0000
0000
,
2003
0100
0000
3000
,
0100
0020
0030
0000
,
0022
0000
0033
0000
,
0001
0200
0000
0300
,
0010
0010
0100
0001
,
1000
0100
0020
0030
,
0001
0002
0000
0003
,
1000
2000
3000
0000
,
2020
0000
3030
0000
,
1000
0010
0100
0001
,
0002
0000
0203
0000
,
0320
0000
2030
0000
,
0100
0000
0100
0000
,
0100
0000
3100
0000
,
1000
0010
0100
0000
,
0100
0010
0100
0000
,
0010
0010
1000
0000
,
0001
1000
0010
0100
,
0020
0000
0000
0100
0030
0000
0000
0000
,
0010
1000
0010
0000
,
1000
0001
1000
0010
,
1000
0100
0020
0030
,
0001
0010
0100
0000
,
0100
0010
0001
0000
,
0010
0010
0001
0000
,
1000
0001
0010
0001
,
0020
0000
0000
0001
0030
0000
0000
0000
,
0001
1000
0001
0000
,
1000
1000
0100
0000
,
1000
0001
0001
0000
,
0100
0000
0100
0000
,
0100
0000
0001
0000
,
0001
0000
0100
0000
,
0001
0100
0010
0000
,
0010
0000
0020
0000
,
2000
0000
3030
0000
,
1000
0001
1000
0001
,
0100
0001
0200
0300
,
0001
0000
0002
0000
,
0023
0000
0000
0030
,
0000
0001
0010
0100
,
1000
0100
1000
0000
,
1000
0000
0002
0000
,
0023
0000
0230
0000
,
2300
0000
3000
0000
,
0020
0000
0030
0000
,
0101
0000
0001
0001
,
2000
0000
0000
3000
,
0002
0100
0000
0003
,
0100
0020
0030
0000
,
1010
0000
1000
1000
,
0020
0000
0030
1000
,
0010
0100
0010
1000
,
0001
0100
0020
0030
,
1000
1000
0010
0100
,
0001
0002
0003
0000
,
0012
0000
0013
0000
,
0001
0100
0001
1000
,
2000
0000
3200
0000
,
0320
0000
0032
0000
,
1003
0001
1000
0001
,
0010
0001
1000
0000
,
1020
0030
2000
3000
,
0001
0100
0001
0000
,
1000
0010
0100
0000
,
0010
0100
0001
0000
,
0202
0000
0303
0000
,
0001
0010
0100
0000
,
0100
0100
1000
0001
,
1000
0010
0200
0300
,
0001
0100
0001
0000
,
1000
0001
1000
0000
,
2200
0000
3300
0000
,
1000
0100
0010
0001
,
0002
0000
0023
0000
,
0230
0000
2300
0000
,
3001
1000
0001
1000
,
0100
1000
0200
0300
,
1000
0100
0010
0000
,
0010
0100
0010
0000
,
0100
1000
0010
0000
,
1000
0001
0100
0010
,
0200
0000
0000
0010
0300
0000
0000
0000
,
0100
0001
0100
0000
,
0001
1000
0001
0100
,
0001
0010
0200
0300
,
1000
0100
0010
0000
,
0010
0100
1000
0000
,
0100
0100
1000
0000
,
0001
1000
0100
1000
,
0200
0000
0000
1000
0300
0000
0000
0000
,
1000
0001
1000
0000
,
0001
0001
0010
0000
,
0001
1000
1000
0000
,
0001
0010
0100
0000
,
0100
0010
0100
0000
,
0010
0010
0001
0000
,
1000
0001
0010
0100
,
0020
0000
0000
0100
0030
0000
0000
0000
,
0010
0001
0010
0000
;

//--------------- dance-single - RxSteps ----------------
#NOTES:
     dance-single:
     RxSteps:
     Medium:
     6:
     0,0,0,0,0:
0000
0000
0000
0000
,
0001
0100
0010
0100
,
0001
0010
0100
1000
,
0100
0010
0001
1000
,
0010
0100
0010
1000
,
0001
0100
0010
1000
,
0100
1000
0010
0100
,
0002
0000
0010
0000
,
0100
0000
0100
0003
,
0001
1000
0001
0000
0100
0000
0010
0000
,
1000
0010
1000
0000
0001
0000
0010
0000
,
0001
0010
0100
1000
,
0001
0010
0100
1000
,
0200
0000
0010
0000
,
1300
0001
0100
0010
,
1000
0001
0100
0010
,
1000
0001
0100
0010
,
1000
0010
1000
1000
,
0100
0010
0200
0300
,
1000
0001
0010
0010
,
0001
0100
0020
0030
,
1000
0001
0100
0100
,
0001
0100
0010
1000
,
0100
1000
0010
0100
,
0001
0010
0020
0030
,
0001
1000
0001
0000
1000
0000
0001
0000
,
0100
0100
0020
0030
,
1000
0000
0000
0001
0100
0000
0001
0000
,
0010
0100
0010
0001
,
2000
0100
0200
0300
,
3001
1000
0100
0010
,
0100
1000
0001
0100
,
0010
1000
1000
0100
,
0201
0000
0001
0000
,
0302
0000
1000
0000
,
1003
0000
0001
0000
0010
0000
0000
0100
,
0010
0100
2000
3000
,
1020
0000
1000
0000
,
2030
0000
0001
0000
,
3001
1000
0100
0010
,
0010
0100
2000
3000
,
0001
0000
0000
0001
0000
0000
1000
0000
,
0010
0000
0000
0010
0000
0000
1000
0010
,
0100
0001
0100
0010
,
1000
0100
0020
0030
,
0100
1000
0100
0010
,
0001
1000
0100
0010
,
0001
0010
0001
0010
0001
0010
0001
0010
,
0001
2000
0002
3003
,
1010
0000
1000
0000
0000
0001
0100
0000
,
0001
0000
1000
0000
0000
0010
1000
0000
,
0011
0000
1010
0000
0000
1000
0010
0000
,
0100
0000
0001
0000
0000
0001
0100
0000
,
1001
0000
0110
0000
0000
1000
0010
0000
,
1000
0000
0001
0000
0000
0010
0100
0000
,
1000
0100
0010
0010
,
0001
0100
0020
0030
,
1010
0000
0011
0000
0000
0001
0100
0000
,
0001
0000
0010
0000
0000
0010
0001
0000
,
1000
0000
0001
0000
0000
0001
0100
0000
,
0010
0000
0100
0000
0000
0010
1000
0000
,
0001
0000
0200
0000
,
0010
0000
0001
0000
,
0310
1000
0001
0010
,
0100
0100
2000
3000
,
0101
0001
0100
0100
,
0010
0100
0002
0003
,
1000
0000
0001
1000
0001
0000
0010
0000
,
0001
0010
0100
0100
,
0010
0001
1000
0001
,
0100
0010
0020
0030
,
1000
0001
0010
0100
,
1000
0100
1000
0100
,
1000
0001
1000
0010
,
0100
0001
0020
0030
,
0001
1000
0100
0010
,
0001
0100
0200
0300
,
1001
0000
0002
0000
,
0023
0000
0230
0000
,
0310
0001
0001
1000
,
1000
0010
0200
0300
,
0001
0000
0001
0000
0000
1000
0001
0000
,
0010
0000
0001
0000
0000
1000
0010
0000
,
1010
0000
0011
0000
0000
0001
1000
0000
,
0010
0000
0100
0000
0000
0010
1000
0000
,
0001
0000
2000
0000
3000
0100
0010
0000
,
0001
0000
0100
0000
0000
0100
0001
0000
,
0001
0100
0010
1000
,
0100
0010
0002
0003
,
1000
0000
0001
0000
0000
0010
0001
0000
,
1000
0000
0010
0000
1000
0010
0000
0000
,
0011
0000
1010
0000
0000
0010
0001
0000
,
0001
0000
0010
0000
0000
0001
1000
0000
,
0020
0000
0100
0000
,
1000
0000
0130
0000
,
0100
0010
0100
0010
0100
0010
0100
0010
,
0200
0000
0000
0300
,
0001
0100
0020
0030
,
1000
0100
0020
0030
,
0001
0000
0010
0000
0200
0000
0300
1000
,
0100
0000
0000
0100
1000
0000
0000
0000
,
0001
0000
1000
0100
0000
1000
0100
0000
,
1000
0100
0020
0030
,
0010
0100
1000
0001
,
1000
0001
0020
0030
,
0100
1000
0020
0030
,
0100
0001
0020
0030
,
0010
0100
2000
3000
,
0001
0100
0020
0030
,
1000
0000
0001
1000
0000
1000
0001
0000
,
0010
0100
0020
0030
,
0001
0100
0020
2030
,
3000
0010
1000
0010
2000
0000
3000
0000
,
0002
0000
0100
0000
,
0100
0000
1003
0000
,
1010
0000
0010
0000
0100
0000
0000
0001
,
0010
0001
0100
0000
,
2001
0000
0010
0000
,
0010
0000
3001
0000
,
1000
0100
0010
0001
,
0001
0010
0200
0300
,
1000
0000
0000
0001
1000
0000
1000
0000
,
0020
0000
0000
0100
0000
0000
0130
0010
,
1000
0001
0100
0010
,
1000
0010
0200
0300
,
0001
0010
0200
1000
,
0320
0001
0230
1000
,
0310
0100
0010
0100
0010
0100
0020
0000
,
0230
2300
3002
0003
,
0101
0002
1003
0010
,
1000
0000
0001
0000
0000
0100
0001
0000
,
1100
0000
0101
0000
0000
0001
0100
0000
,
0010
0000
1000
0000
0000
1000
0010
0000
,
1001
1010
2000
0100
,
3001
0000
2000
0000
3000
0100
0010
0000
,
0001
0010
0100
0100
,
1000
0010
0200
0300
,
0101
1100
2000
3010
,
0001
0000
0100
0000
0000
0100
1000
0000
,
0001
0000
1000
0000
0000
1000
0010
0000
,
0100
0000
0010
0000
0000
0100
0001
0000
,
1000
0000
0020
0000
,
0100
0000
1000
0000
,
0130
0001
1000
0100
,
0010
0010
0002
0003
,
1010
1000
0010
0010
,
0100
0010
2000
3000
,
0001
0000
1000
0001
1000
0000
0100
0000
,
1000
0100
0010
0010
,
0100
1000
0001
1000
,
0010
0100
0200
0300
,
0001
1000
0100
0010
,
0001
0010
0001
0010
,
0001
1000
0001
0100
,
0010
1000
0200
0300
,
1000
0001
0010
0100
,
1000
0010
0020
0030
,
1001
0000
2000
0000
,
3200
0000
0320
0000
,
0130
1000
1000
0001
,
0001
0100
0020
0030
,
1000
0010
0200
0300
,
0001
0010
0200
0300
,
1000
0000
0100
0000
0020
0000
0030
0001
,
0010
0000
0000
0010
0001
0000
0000
0000
,
1000
0000
0001
0010
0000
0001
0010
0000
,
0001
0010
0200
0300
,
0100
0010
0001
1000
,
0001
1000
0200
0300
,
0010
0001
0200
0300
,
0010
1000
0200
0300
,
0100
0010
0002
0003
,
1000
0010
0200
0300
,
0001
0000
1000
0001
0000
0001
1000
0000
,
0100
0010
0200
0300
,
1000
0010
0200
0302
,
0003
0100
0001
0100
0002
0000
0003
0000
,
0001
0010
0200
0300
,
1000
0010
0200
0300
,
0001
0000
0100
0000
0020
0000
0030
1000
,
0010
0000
0000
0010
1000
0000
0000
0000
,
0001
0000
1000
0010
0000
1000
0010
0000
,
1000
0010
0200
0300
;

//--------------- dance-single - RxSteps ----------------
#NOTES:
     dance-single:
     RxSteps:
     Hard:
     9:
     0,0,0,0,0:
0000
0000
0000
0000
,
0001
0100
0001
0100
,
0010
1000
0010
1000
,
0001
0010
0100
0010
,
0001
0010
0100
1000
,
0100
1000
0010
0100
,
0001
0100
0010
1000
,
0200
0301
0200
1300
,
0200
0301
0200
1300
,
0010
1000
0100
1000
0001
0010
0100
0010
,
0001
0010
0100
1000
0001
0010
0100
1000
,
0001
1000
0010
0100
0001
1000
0010
0100
,
0001
1000
0100
1000
0001
1000
0001
0010
,
0200
0010
1000
0310
,
0002
1000
0010
1000
,
0023
0100
0001
0130
,
2000
0100
0010
3001
,
0220
0000
0330
0000
1000
0001
1000
0000
,
0010
1000
0010
0000
0100
0001
0100
0000
,
0001
1000
0001
0000
1000
0100
1000
0000
,
0001
0010
0001
0000
0100
0010
0100
0000
,
0001
0010
0100
1000
0001
0010
0100
1000
,
0001
1000
0001
0100
0001
0010
0001
1000
,
0010
1000
0001
1000
0100
1000
0010
0100
,
0002
0023
0200
0030
,
0310
0100
1000
0001
1000
0010
0100
0001
,
0010
0001
1000
0100
2000
0000
0000
0000
,
3100
0010
0001
1000
0100
0010
0001
1000
,
0001
0100
0010
1000
0001
0100
0010
0100
,
0002
0010
1000
0013
,
2000
0100
0001
3100
,
0011
0110
1100
1001
,
0110
0011
1010
0101
,
0220
0030
0020
0300
,
2000
3000
2000
3000
,
0230
0000
0001
0000
0320
0000
0000
2030
,
0000
0100
0000
3100
0000
2000
0000
0000
,
3200
1300
0200
0301
,
0200
1300
0200
2300
,
3010
0100
0001
0020
,
0100
0100
0002
0033
,
1100
0000
0000
1000
0000
0000
0010
0000
,
0100
0000
0000
0001
0000
0000
1000
0100
,
1000
0001
1000
0200
,
0010
0000
0010
0000
1300
0000
0001
1000
,
0001
1000
0010
1000
0001
1000
0010
0100
,
0001
0010
0001
0010
0100
0010
0001
0010
,
0100
1000
0001
0010
0100
1000
0010
0100
,
0001
1000
0001
1000
0001
1000
0001
0100
,
0010
1000
0100
0010
0100
1000
0010
0100
,
0001
0010
0100
1000
0001
0010
0100
1000
,
0010
1000
0010
1000
0001
0100
0001
0100
,
0010
0100
0010
0100
0001
1000
0001
1000
,
0001
0010
0001
0100
0010
1000
0100
1000
,
0010
0100
0001
0010
0001
1000
0100
1000
,
0001
0200
1300
0200
,
0301
0000
0200
0000
2000
3300
0000
0000
,
0011
0010
0001
0010
0100
1000
0001
0010
,
0100
1000
0001
1000
0010
0100
0001
1000
,
0010
0100
0001
1000
0100
0010
0100
1000
,
0001
0010
0001
0010
0100
1000
0100
1000
,
0200
0000
0020
0030
,
2000
3300
0022
0003
,
0130
1000
0100
0010
0001
0100
0010
0000
,
1100
0110
0022
0033
,
1000
0010
1000
0010
0100
0001
0100
0010
,
0100
0001
1000
0200
2000
0000
3300
0000
,
0001
0100
0010
1000
0001
0100
0001
1000
,
0001
0010
0001
0100
0010
1000
0100
1000
,
0001
1000
0001
0100
0010
0100
0001
0100
,
0010
0100
0002
0020
0000
0000
0033
0000
,
1000
0010
0100
0001
1000
0010
0100
0001
,
0200
1300
0200
0302
,
0013
0001
0010
0100
0010
0001
0010
0100
,
0010
0001
1000
0020
2000
0000
3030
0000
,
0101
0110
1001
1100
,
0110
0021
0200
0330
,
1002
0000
0203
0000
,
0320
0000
2030
0000
,
3100
1000
0010
0200
,
0001
0010
0002
0303
,
1000
0100
0010
0001
0010
0100
0010
0001
,
1000
0100
0010
0100
1000
0001
0010
0100
,
1000
0001
0100
0001
1000
0001
0100
0010
,
1000
0001
1000
0010
1000
0001
0100
0010
,
0100
0001
0010
0100
1000
0001
0010
0100
,
1000
0001
1000
0001
0010
0100
0010
0100
,
1000
0100
2000
0000
0001
0000
3020
0000
,
0100
2030
0200
3000
,
0310
0001
0010
0100
0010
0100
0010
0001
,
0100
0010
1000
0100
1000
0010
0100
0001
,
0010
0001
1000
0010
0100
0001
1000
0010
,
0100
0010
1000
0100
0010
0100
1000
0100
,
0020
0000
0031
0020
,
1030
0020
0031
0020
,
0031
0010
0001
0010
0100
1000
0001
0010
,
0100
1000
0001
0100
0010
1000
0001
0100
,
0001
0000
0010
0000
0100
0000
0000
0001
,
0010
0001
0100
0000
0010
0000
0000
0000
,
1000
0000
0100
0000
0010
0000
0000
1000
,
0010
1000
0010
1000
0001
0000
0000
0000
,
0100
0010
0100
0001
0000
1000
0001
0000
,
1000
0010
0100
0010
1000
0000
0100
0000
,
0020
0031
0020
1030
,
0010
0002
0200
0303
,
1000
0010
0000
0010
1000
0000
0001
0100
,
0000
0100
0001
0000
0100
0001
0000
0100
,
0001
0000
2000
0000
0100
0000
3000
0010
,
1000
0010
0100
0001
0100
0000
0010
0000
,
1000
0001
0100
0010
0000
0100
0010
1000
,
0001
1000
0100
0000
0010
0000
0100
0000
,
0001
0100
0010
1000
,
0200
0010
2000
3300
,
0001
1000
0001
0000
0010
0000
0100
0000
,
1000
0010
1000
0000
0001
0000
0100
0000
,
0021
0000
0130
0000
0010
0000
0000
0001
,
0000
0020
0000
0100
0000
0031
0000
0000
,
2020
0000
3030
0000
0001
0100
0001
0000
,
1000
0000
0010
0000
0100
0010
0100
0000
,
1200
0010
1000
0310
,
0001
2000
0020
3000
,
0230
0000
0001
0000
,
0002
0000
0300
0000
0103
0000
0100
0010
,
2000
0010
3010
1000
,
0020
0100
2000
3030
,
0001
1000
0001
1000
0010
0100
0010
0100
,
0001
1000
0001
1000
0010
1000
0010
1000
,
0001
0010
0001
0010
0100
1000
0001
0010
,
0001
0100
0020
0000
0200
0000
0330
0000
,
0001
0010
0100
1000
0200
0000
2300
0000
,
3001
1000
0001
0100
0010
1000
0100
0010
,
0001
0010
0001
1000
0200
0000
0010
0300
,
0010
0001
0010
0100
1000
0010
1000
0001
,
1000
0100
1000
0100
0020
0000
0001
0030
,
0100
1000
0100
1000
0002
0000
0203
0300
,
0010
0100
0020
0000
0100
0000
1000
0000
,
0130
0002
0020
0033
,
1000
0100
0010
0100
0020
0000
0032
0003
,
0100
0010
0100
0001
1000
0001
1000
0100
,
1000
0010
0100
0010
2000
0000
0001
0000
,
3001
0010
0001
1000
0100
1000
0100
0010
,
0001
1000
0001
1000
0001
1000
0010
1000
,
0010
0100
0001
0100
0001
0100
0010
0100
,
0010
1100
1001
0110
,
1100
0011
0220
0330
,
1000
0001
0010
0100
0010
0001
0100
0010
,
1000
0100
0010
0001
1000
0100
0010
0001
,
0100
0001
0100
0001
1000
0010
1000
0010
,
0100
0010
0100
0010
1000
0001
1000
0001
,
1000
0100
1000
0010
0100
0001
0010
0001
,
0100
0010
1000
0100
1000
0001
0010
0001
,
2000
3020
0031
0020
,
1030
0000
0020
0000
0002
0033
0000
0000
,
1100
0100
1000
0100
0010
0001
1000
0100
,
0010
0001
1000
0001
0100
0010
1000
0001
,
0100
0010
1000
0001
0010
0100
0010
0001
,
1000
0100
1000
0100
0010
0001
0010
0001
,
0020
0000
0200
0300
,
0002
0033
2200
3000
,
0310
0001
0010
0100
1000
0010
0100
0000
,
0011
0110
2200
3300
,
1000
0000
0100
0000
0010
0000
0000
1000
,
0100
1000
0010
0000
0100
0000
0000
0000
,
0001
0000
0010
0000
0100
0000
0000
0001
,
0100
0001
0100
0001
1000
0000
0000
0000
,
0010
0100
0010
1000
0000
0001
1000
0000
,
0001
0100
0010
0100
0001
0000
0010
0000
,
0200
1300
0200
0301
,
0100
2000
0020
3030
,
0001
0000
0100
0000
0010
0000
0000
0001
,
0100
0001
0010
0000
0100
0000
0000
0000
,
1000
0000
0010
0000
0100
0000
0000
1000
,
0100
1000
0100
1000
0001
0000
0000
0000
,
0010
0100
0010
0001
0000
1000
0001
0000
,
1000
0100
0010
0100
1000
0000
0010
0000
,
0200
0301
0200
1300
,
0100
0002
0020
0033
,
1000
0000
0010
0000
0100
0000
0000
1000
,
0010
1000
0100
0000
0010
0000
0000
0000
,
0001
0000
0100
0000
0010
0000
0000
0001
,
0010
0001
0010
0001
1000
0000
0000
0000
,
0100
0010
0100
1000
0000
0001
1000
0000
,
0001
1000
0000
0010
0100
0000
0010
0100
;
