#TITLE:Secretive!;
#SUBTITLE:;
#ARTIST:Ninajirachi & Kota Banks;
#TITLETRANSLIT:;
#SUBTITLETRANSLIT:;
#ARTISTTRANSLIT:;
#GENRE:;
#CREDIT:RxSteps;
#MUSIC:Secretive!.ogg;
#BANNER:Secretive!.png;
#BACKGROUND:Secretive!-bg.png;
#CDTITLE:cdtitle.png;
#SAMPLESTART:27.079;
#SAMPLELENGTH:24.000;
#SELECTABLE:YES;
#OFFSET:0.613;
#BPMS:0.000=130.000;
#STOPS:;
#BGCHANGES:;
#FGCHANGES:;

//--------------- dance-single - RxSteps ----------------
#NOTES:
     dance-single:
     RxSteps:
     Beginner:
     3:
     0,0,0,0,0:
0000
0000
1000
0000
,
0001
0000
0000
0000
,
0000
0100
0000
0000
,
0001
0000
0000
0010
,
0000
0001
0000
0000
,
1000
0000
0000
0000
,
0000
0010
0000
0000
,
0100
0000
0000
0010
,
0000
1000
0000
0000
,
0100
0000
0000
0010
,
0000
0001
0000
0000
,
2000
3000
0000
0000
,
0000
0001
0000
0000
,
0001
0000
0000
0010
,
0000
0100
0000
0000
,
2000
3000
0000
0000
,
0000
0001
0000
0000
,
0100
0000
0001
0000
,
0010
0000
0001
0000
,
1000
0000
0010
0000
,
0100
0000
0010
0000
,
1000
0000
1000
0000
,
0001
0000
0100
0000
,
0010
0000
1000
0000
,
0010
0000
0010
0000
,
0200
0300
0000
0000
,
0001
0000
0000
0000
,
0000
1000
0000
0000
,
0100
0000
0000
0010
,
0000
0001
0000
0000
,
0002
0003
0000
0000
,
0000
1000
0000
0000
,
0100
0000
0000
0100
,
0000
0010
0000
0010
,
0000
0001
0000
1000
,
0000
0010
0000
0000
,
2000
3000
0000
0000
,
0000
0001
0000
0000
,
0100
0000
0000
0010
,
0000
0010
0000
0000
,
2000
3000
0000
0000
,
0000
0001
0000
0000
,
1000
0000
0100
0000
,
0010
0000
0001
0000
,
0001
0000
1000
0000
,
0001
0000
0010
0000
,
0010
0000
0100
0000
,
0100
0000
1000
0000
,
0001
0000
0010
0000
,
0010
0000
0001
0000
,
2000
3000
0000
0000
,
0001
0000
0100
0000
,
0010
0000
0010
0000
,
0100
0000
0100
0000
,
0001
0000
1000
0000
,
1000
0000
0010
0000
,
0100
0000
0001
0000
,
1000
0000
1000
0000
,
0001
0000
0010
0000
,
0010
0000
0001
0000
,
1000
0000
0100
0000
,
0010
0000
0010
0000
,
0001
0000
0010
0000
,
0100
0000
0100
0000
,
1000
0000
0001
0000
,
1000
0000
1000
0000
,
0010
0000
0100
0000
,
0001
0000
0000
0000
,
1000
0000
0000
0000
,
0020
0030
0000
0000
,
0000
0010
0000
0100
,
0000
0100
0000
0000
,
0000
0001
0000
0000
,
1000
0000
0000
0000
,
0020
0000
0000
0000
,
0030
0000
0000
0000
;

//--------------- dance-single - RxSteps ----------------
#NOTES:
     dance-single:
     RxSteps:
     Easy:
     6:
     0,0,0,0,0:
0000
0000
0001
0000
,
1000
0000
0010
0000
0100
0010
0100
0000
,
0000
0000
0001
0000
0010
0001
0010
0000
,
0001
1000
0010
0100
,
0010
1000
0001
1000
,
1000
0000
0010
0000
0100
0001
0100
0000
,
0000
0000
0010
0000
1000
0010
1000
0000
,
0001
0010
0100
1000
,
0001
1000
0100
0010
,
0100
0200
0300
2000
,
3000
0001
0100
0000
,
0010
1000
0010
0000
0100
0000
0001
0000
,
1000
0100
1000
0000
0100
0000
0010
0000
,
0001
0002
0003
0020
,
0030
0100
2000
3000
,
0001
0010
0001
0000
1000
0000
0001
0000
,
0100
0010
0100
0000
0001
0000
1000
0000
,
0100
0010
0001
1000
,
0001
0010
0100
1000
,
0010
0000
1000
0000
0001
0100
0001
0000
,
1000
0010
0200
0300
,
0100
0010
1000
0001
,
0001
0100
0010
1000
,
0001
0010
0100
0100
,
1000
0100
0010
0001
,
2000
3000
0020
0030
,
1000
0000
0100
0000
0010
0001
0010
0000
,
0000
0000
0001
0000
0100
0010
0100
0000
,
0010
1000
0001
0100
,
0010
1000
0010
0100
,
0100
0000
0010
0000
1000
0010
1000
0000
,
0001
0000
0100
0000
0010
0100
0010
0000
,
1000
0010
0100
0001
,
1000
0100
0010
0010
,
0001
0020
0030
0200
,
0300
1000
0001
0000
,
1000
0001
0100
0000
0100
0001
1000
0000
,
0010
0100
0010
0000
1000
0000
0001
0000
,
1000
0020
0030
0100
,
0100
0001
0020
0030
,
0010
0001
0010
0000
0001
0000
1000
0000
,
0001
0000
1000
0100
1000
0000
0001
0000
,
0100
0010
0100
0001
,
1000
0100
0010
0001
,
0100
0000
0001
0000
1000
0010
1000
0000
,
0001
0100
0020
0030
,
0010
0100
0001
1000
,
1000
0010
0100
0001
,
1000
0100
0010
0010
,
0001
0010
0100
1000
,
0002
0003
0200
0300
,
0001
0010
0010
0100
,
1000
1000
0001
1000
,
0010
0010
0010
1000
,
0001
0100
0010
0010
,
1000
0100
0100
0010
,
0001
0001
0010
0100
,
1000
1000
1000
0100
,
0010
0001
1000
1000
,
0001
0100
0100
0010
,
1000
1000
0001
1000
,
0100
0100
0100
1000
,
0001
0010
0100
0100
,
1000
0010
0010
0100
,
0001
0001
0100
0010
,
1000
1000
1000
0010
,
0100
0001
1000
0001
,
0100
0000
0010
0000
,
1000
0000
0000
0000
0000
0000
0000
0000
0010
0000
0000
0100
0000
0000
0010
0000
,
0100
0000
0001
0000
,
1000
0010
0000
0100
,
0000
0100
0002
0003
,
0000
0000
0000
0000
1000
0000
0000
0000
0001
0000
0000
0010
0000
0000
0001
0000
,
0010
0000
0001
1000
,
2000
0020
0000
0000
,
3030
0000
0000
0000
;

//--------------- dance-single - RxSteps ----------------
#NOTES:
     dance-single:
     RxSteps:
     Medium:
     8:
     0,0,0,0,0:
0000
0000
0000
0000
0000
0000
0000
0000
0001
0000
0100
0010
0000
0000
1000
0000
,
0001
0000
1000
0100
0010
0000
0100
0000
1000
0000
0020
0000
0100
0000
0000
0000
,
0030
0000
0100
0010
1000
0000
0001
0000
0010
0000
0100
0000
0020
0000
0030
0000
,
0001
1000
0100
0010
0100
1000
0001
0100
,
0001
1000
0100
0010
0001
0000
1000
0000
,
0100
0000
0010
0001
1000
0000
0010
0000
0100
0000
0002
0000
0010
0000
0000
0003
,
0000
0000
0010
0100
1000
0000
0100
0000
0010
0000
0001
0000
0200
0000
0300
0000
,
0010
1000
0001
0100
0010
0100
0001
1000
,
0100
1000
0001
0010
0100
1000
0010
0200
,
0001
0000
0300
0000
0002
0000
0010
0000
0000
0003
0000
0000
0020
0000
0100
0000
,
0000
0030
0000
0000
0100
0000
0000
1000
0001
0000
0200
0000
0000
0000
0300
0000
,
0001
0000
1000
0010
0100
0000
0001
0000
1000
0000
0000
0010
0100
0000
0001
0000
,
1000
0000
0010
0100
0001
0000
0010
0000
0200
0000
0300
0000
2000
0000
3000
0000
,
0002
0000
0003
0000
0200
0000
0010
0000
0000
0300
0000
0000
0010
0000
2000
0000
,
0000
0000
3000
0000
0001
0000
0000
0010
0100
0000
2000
0000
0000
0000
3000
0000
,
0001
0000
1000
0100
0010
0000
0001
0000
0100
0000
0000
0010
1000
0000
0001
0000
,
0100
0000
0010
1000
0001
0000
0100
0000
0020
0000
0000
0000
1030
0000
0000
0000
,
0201
0300
0010
0000
1000
0000
0200
0000
0010
0000
0300
0000
1000
0000
0000
0000
,
0102
0003
1000
0000
0100
0000
0020
0000
0001
0000
0030
0000
0100
0000
0000
1000
,
0100
0010
0001
1000
0010
0100
0001
1000
,
0100
0000
0010
0000
0001
0000
2000
0000
0100
3000
0000
0200
0010
0300
0000
0010
,
0001
1000
0010
0100
0001
1000
0010
1000
,
0001
0010
0100
1000
0001
0100
0010
0100
,
0001
0010
0100
1000
0001
1000
0010
0100
,
0010
1000
0100
0010
0001
0100
0010
0100
,
0002
0000
0000
0000
0000
0000
0003
0000
0010
0000
0100
1000
0000
0000
0100
0000
,
0010
0000
0100
1000
0001
0000
0100
0000
0010
0000
2000
0000
0100
0000
0000
3000
,
0000
0000
0100
1000
0001
0000
0010
0000
0100
0000
0010
0000
0001
0000
0000
0000
,
1000
0010
0100
0010
1000
0001
0010
0100
,
0010
0001
0010
0100
2000
3000
0020
0030
,
0100
0000
0010
1000
0001
0000
0100
0000
0010
0000
2000
0000
0100
0000
3000
0000
,
0000
0000
0100
0010
0001
0000
0010
0000
0100
0000
1000
0000
0010
0000
0000
0000
,
0100
0001
0010
0100
1000
0100
0010
0001
,
0010
0100
0010
0001
0010
0100
1000
0002
,
0000
0000
0003
0000
0100
0000
0020
0000
0000
0030
0000
0000
1000
0000
0002
0000
,
0003
0000
0000
0000
0100
0000
0000
0010
1000
0000
0002
0000
0000
0003
0000
0000
,
1000
0000
0001
0100
0010
0000
1000
0000
0100
0000
1000
0100
0020
0000
0001
0000
,
0030
0000
0001
0010
0100
0000
1000
0000
0010
0000
0000
0000
0100
0000
0000
0000
,
0001
0000
0020
0002
0033
0000
1100
0000
,
0101
0000
2010
0000
3200
0000
0010
0300
,
1000
0000
0001
0010
0100
0000
1000
0000
0010
0000
0000
0100
0001
0000
1000
0000
,
0010
0000
0100
0001
1000
0000
0010
0000
0200
0000
0000
0000
0301
0000
0000
0000
,
1020
0030
0100
0000
0001
0000
0020
0000
0100
0000
0030
0000
0001
0000
0000
0000
,
2010
3000
0001
0000
0010
0000
0200
0000
1000
0000
0300
0000
0010
0000
0000
0001
,
0010
0100
1000
0100
0010
0100
1000
0001
,
0010
0000
0100
0000
1000
0000
0002
0000
0010
0003
0000
0020
0100
0030
0000
0100
,
1000
0001
0100
0010
1000
0001
0100
0001
,
1000
0100
0010
0001
1000
0010
0100
0010
,
1000
0001
0010
0100
1000
0001
1000
0010
,
0100
0001
0010
0100
1000
0010
0100
0010
,
2000
0000
0002
3003
,
0110
1001
0101
1200
,
0010
0300
1000
0000
0001
0020
0130
0000
,
1010
0000
0110
0000
0021
0000
0130
1000
,
0001
0200
0310
0000
1001
0000
1200
0000
,
0310
0001
1000
0100
0010
0100
1000
0001
,
0100
0001
1000
0010
0100
0010
2000
3000
,
0001
0010
0100
0010
0001
0010
0100
0010
,
0001
0100
0010
0100
0001
1000
0010
0100
,
0001
1000
0001
0010
0100
0010
0001
1000
,
0010
0100
0010
1000
0001
0100
0020
0030
,
1000
0100
0010
0100
1000
0100
0010
0100
,
1000
0020
0100
0030
0100
0001
1000
0010
,
0100
0001
1000
0010
1000
0100
1000
0001
,
0010
0100
0010
0001
0010
0100
0020
0030
,
0001
1000
0100
0010
0001
0100
0010
0100
,
0001
0000
0010
0000
0200
0000
0000
0000
1000
0000
0000
0300
0010
0000
0000
0000
,
0202
0000
0303
0000
1200
0000
0300
0010
,
0100
0000
1000
0000
0100
0000
0010
0000
0001
0000
0000
0100
0000
0000
0010
0000
,
2000
0000
0100
0000
0000
3000
0000
0000
0200
0000
0010
0000
0000
0300
0000
0000
,
0010
0000
0001
0000
2000
0000
0010
0000
0000
3000
0000
0000
0010
0000
0200
0000
,
0000
0000
0300
0000
0001
0000
0000
0100
0010
0000
2000
0000
0000
0000
0000
0000
,
0000
3000
0000
0000
0001
0000
0000
0000
0010
0000
0000
0100
0000
0000
1000
0100
,
0010
0000
0000
0001
0000
0000
0100
0000
0010
0000
1000
0000
0010
0000
0100
0000
,
0001
0010
0200
2000
0000
0000
0000
0000
,
3300
0000
0000
0000
;

//--------------- dance-single - RxSteps ----------------
#NOTES:
     dance-single:
     RxSteps:
     Hard:
     9:
     0,0,0,0,0:
0000
0000
0000
0000
0000
0000
0000
0000
0001
0000
0100
0010
0000
0000
1000
0000
,
0001
0000
1000
0100
0010
0000
0100
0000
1000
0000
0020
0000
0100
0000
0000
0000
,
0030
0000
0100
0010
1000
0000
0001
0000
0010
0000
0100
0000
0020
0000
0030
0000
,
0001
0000
1000
0000
0200
0300
0001
0000
0100
0000
1000
0000
0020
0030
0001
0000
,
0010
1000
0100
0010
0001
0000
1000
0000
,
0100
0000
0010
0001
1000
0000
0010
0000
0100
0000
0002
0000
0010
0000
0000
0003
,
0000
0000
0010
0100
1000
0000
0100
0000
0010
0000
0001
0000
0200
0000
0300
0000
,
0010
0000
1000
0000
0001
0000
0200
0300
1000
0000
0100
0000
0001
0000
0020
0030
,
1000
0010
0001
0010
0100
1000
0010
0200
,
0001
0000
0300
0000
0002
0000
0010
0000
0000
0003
0000
0000
0020
0000
0100
0000
,
0000
0030
0000
0000
0100
0000
0000
1000
0001
0000
0200
0000
0000
0000
0300
0000
,
0001
0000
1000
0010
0100
0000
0001
0000
1000
0000
0000
0010
0100
0000
0001
0000
,
1000
0000
0010
0100
0001
0000
0010
0000
0200
0000
0300
0000
2000
0000
3000
0000
,
0002
0000
0003
0000
0200
0000
0010
0000
0000
0300
0000
0000
0010
0000
2000
0000
,
0000
0000
3000
0000
0001
0000
0000
0010
0100
0000
2000
0000
0000
0000
3000
0000
,
0001
0000
1000
0100
0010
0000
0001
0000
0100
0000
0000
0010
1000
0000
0001
0000
,
0100
0000
0010
1000
0001
0000
0100
0000
0020
0000
0000
0000
1030
0000
0000
0000
,
0201
0300
0010
0000
1000
0000
0200
0000
0010
0000
0300
0000
1000
0000
0000
0000
,
0102
0003
1000
0000
0100
0000
0020
0000
0001
0000
0030
0000
0100
0000
0000
1000
,
0100
0000
0010
0000
0001
0000
0200
0300
1000
0000
0001
0000
0010
0000
1000
0000
,
0100
0000
0010
0000
0001
0000
2000
0000
0100
3000
0000
0200
0010
0300
0000
0010
,
0001
0000
1000
0000
0010
0000
0100
0000
0001
0000
0200
0300
1000
0000
0100
0000
,
0001
0010
0100
1000
0001
0100
0010
0100
,
0001
0000
1000
0000
0200
0300
0001
0000
1000
0000
0010
0000
0001
0000
0100
0000
,
0010
1000
0100
0010
0001
0100
0010
0100
,
0002
0000
0000
0000
0000
0000
0003
0000
0010
0000
0100
1000
0000
0000
0100
0000
,
0010
0000
0100
1000
0001
0000
0100
0000
0010
0000
2000
0000
0100
0000
0000
3000
,
0000
0000
0100
1000
0001
0000
0010
0000
0100
0000
0010
0000
0001
0000
0000
0000
,
1000
0000
0010
0000
0100
0000
0010
0000
1000
0000
0001
0000
0200
0300
1000
0000
,
0100
0001
0010
0100
2000
3000
0020
0030
,
0100
0000
0010
1000
0001
0000
0100
0000
0010
0000
2000
0000
0100
0000
3000
0000
,
0000
0000
0100
0010
0001
0000
0010
0000
0100
0000
1000
0000
0010
0000
0000
0000
,
0100
0000
0001
0000
0010
0000
0100
0000
1000
0000
0020
0030
0001
0000
1000
0000
,
0100
0000
0001
0000
0020
0030
1000
0000
0001
0000
0100
0000
1000
0000
0002
0000
,
0000
0000
0003
0000
0100
0000
0020
0000
0000
0030
0000
0000
1000
0000
0002
0000
,
0003
0000
0000
0000
0100
0000
0000
0010
1000
0000
0002
0000
0000
0003
0000
0000
,
1000
0000
0001
0100
0010
0000
1000
0000
0100
0000
1000
0100
0020
0000
0001
0000
,
0030
0000
0001
0010
0100
0000
1000
0000
0010
0000
0000
0000
0100
0000
0000
0000
,
0001
0000
0020
0002
0033
0000
1100
0000
,
0101
0000
2010
0000
3200
0000
0010
0300
,
1000
0000
0001
0010
0100
0000
1000
0000
0010
0000
0000
0100
0001
0000
1000
0000
,
0010
0000
0100
0001
1000
0000
0010
0000
0200
0000
0000
0000
0301
0000
0000
0000
,
1020
0030
0100
0000
0001
0000
0020
0000
0100
0000
0030
0000
0001
0000
0000
0000
,
2010
3000
0001
0000
0010
0000
0200
0000
1000
0000
0300
0000
0010
0000
0000
0001
,
0010
0000
0100
0000
1000
0000
0020
0030
0001
0000
1000
0000
0100
0000
0001
0000
,
0010
0000
0100
0000
1000
0000
0002
0000
0010
0003
0000
0020
0100
0030
0000
0100
,
1000
0000
0001
0000
0100
0000
0010
0000
1000
0000
0020
0030
0001
0000
0010
0000
,
1000
0100
0010
0001
1000
0010
0100
0010
,
1000
0000
0001
0000
0020
0030
1000
0000
0001
0000
0100
0000
1000
0000
0010
0000
,
0100
0001
0010
0100
1000
0010
0100
0010
,
2000
0000
0002
3003
,
0110
1001
0101
1200
,
0010
0300
1000
0000
0001
0020
0130
0000
,
1010
0000
0110
0000
0021
0000
0130
1000
,
0001
0200
0310
0000
1001
0000
1200
0000
,
0310
0000
0001
0000
1000
0000
0200
0300
0001
0000
0100
0000
1000
0000
0020
0030
,
0001
0010
1000
0010
0001
0010
0200
0300
,
0001
0000
0020
0030
1000
0000
0010
0000
0001
0000
0020
0030
1000
0000
0010
0000
,
0001
0000
0100
0000
0010
0000
0100
0000
0001
0000
0200
0300
1000
0000
0100
0000
,
0001
0000
1000
0000
0001
0000
0020
0030
1000
0000
0010
0000
0001
0000
0200
0300
,
1000
0000
0100
0000
0001
0000
0200
0300
1000
0000
0100
0000
0020
0000
0030
0000
,
1000
0000
0200
0300
0001
0000
0100
0000
1000
0000
0200
0300
0001
0000
0100
0000
,
1000
0020
0100
0030
0100
0001
1000
0010
,
0100
0000
0001
0000
1000
0000
0020
0030
0001
0000
0010
0000
1000
0000
0200
0300
,
0001
0100
1000
0100
0001
0100
0020
0030
,
0001
0000
0200
0300
1000
0000
0100
0000
0001
0000
0200
0300
1000
0000
0100
0000
,
0001
0000
0010
0000
0200
0000
0000
0000
1000
0000
0000
0300
0010
0000
0000
0000
,
0202
0000
0303
0000
1200
0000
0300
0010
,
0100
0000
1000
0000
0100
0000
0010
0000
0001
0000
0000
0100
0000
0000
0010
0000
,
2000
0000
0100
0000
0000
3000
0000
0000
0200
0000
0010
0000
0000
0300
0000
0000
,
0010
0000
0001
0000
2000
0000
0010
0000
0000
3000
0000
0000
0010
0000
0200
0000
,
0000
0000
0300
0000
0001
0000
0000
0100
0010
0000
2000
0000
0000
0000
0000
0000
,
0000
3000
0000
0000
0001
0000
0000
0000
0010
0000
0000
0100
0000
0000
1000
0100
,
0010
0000
0000
0001
0000
0000
0100
0000
0010
0000
1000
0000
0020
0030
0001
0000
,
1000
0100
0002
2000
0000
0000
0000
0000
,
3003
0000
0000
0000
;
