#TITLE:SERPENTINE;
#SUBTITLE:;
#ARTIST:Vana;
#TITLETRANSLIT:;
#SUBTITLETRANSLIT:;
#ARTISTTRANSLIT:;
#GENRE:;
#CREDIT:RxSteps;
#MUSIC:SERPENTINE.ogg;
#BANNER:Serpentine.png;
#BACKGROUND:Serpentine-bg.png;
#CDTITLE:cdtitle.png;
#SAMPLESTART:34.479;
#SAMPLELENGTH:21.677;
#SELECTABLE:YES;
#OFFSET:-0.414;
#BPMS:0.000=155.000
,464.500=153.000
,465.000=151.000
,465.500=149.000
,466.000=147.000
,466.500=145.000
,467.000=140.000
,467.500=138.000
,468.000=136.000
,468.500=134.000
,469.000=132.000
,469.500=130.000
,470.000=128.000
,470.500=126.000
,471.000=124.000
,471.500=122.000
,472.000=120.000
,472.500=118.000
,473.000=114.000
,473.250=111.000
,473.500=108.000
,473.750=105.000
,474.000=102.000
,474.250=99.000
,474.500=96.000
,474.750=93.000
,475.000=90.000
,475.167=86.000
,475.333=82.000
,475.500=78.000
,475.667=74.000
,475.833=70.000
,476.000=66.000
;
#STOPS:;
#BGCHANGES:;
#FGCHANGES:;

//--------------- dance-single - RxSteps ----------------
#NOTES:
     dance-single:
     RxSteps:
     Beginner:
     4:
     0,0,0,0,0:
0000
0000
0000
0000
,
0002
0000
0000
0003
,
0100
0010
1000
0001
,
0100
0020
0030
0000
,
1001
0000
1000
0010
,
0000
1000
0001
0000
1000
0001
0000
0000
,
0100
0001
1000
0010
,
1000
0001
1000
0010
,
1000
0000
0000
0000
0001
1000
0001
0000
,
0000
0100
0001
0100
,
0000
0000
0001
1000
0001
1000
0001
0000
,
0000
0200
0000
0000
0300
0000
0000
0000
,
0001
0100
0010
1000
,
0000
0001
0001
0100
,
0000
0000
0001
0100
0001
0000
0100
0000
,
0000
0020
0000
0000
0000
0000
0000
0000
0000
0030
0000
0000
,
1000
0000
0010
1000
0010
0000
0000
0000
,
0100
0001
0100
0001
,
1000
0100
0010
0001
,
1000
0100
1000
0100
,
1000
0001
0100
0001
,
1000
0000
0010
0100
,
0000
0001
0000
0000
0100
0000
0001
0000
,
2000
0000
3000
0000
,
1001
0000
0001
0100
,
0010
0100
0001
1000
,
0010
0000
0100
0010
0100
0000
0010
0000
,
1000
0001
0010
0010
,
0001
0010
0100
1000
,
0001
1000
0100
0010
,
0001
0000
1000
0001
1000
0000
0010
0000
,
1000
0100
1000
0000
0001
0000
0100
0000
,
0001
1000
0010
0100
,
0001
1000
0010
0100
,
0001
0000
0000
0001
0000
0000
0001
0000
,
0000
1000
0000
0000
1000
0000
0000
0000
,
0001
0100
0010
1000
,
0100
0010
0001
0010
,
0001
0000
0000
1000
0000
0000
0010
0000
,
0000
0010
0000
0000
1000
0000
0000
0000
,
0001
0100
0001
0100
0001
0000
0100
0000
,
0100
0001
1000
0010
,
1000
0010
1000
0010
1000
0000
0010
0000
,
1000
0000
0001
1000
0001
0000
0100
0000
,
0020
0030
2000
3000
,
0002
0003
0200
0300
,
0020
0030
2000
3000
,
0020
0030
0200
0300
,
0001
0000
1000
0010
,
1000
1000
0001
0100
,
0001
1000
0000
0010
,
0000
1000
0100
0010
,
0001
0000
0100
0001
,
1000
0000
0001
0100
,
0010
1000
0010
0000
1000
0000
0000
0000
,
0002
0000
0003
0000
,
1001
0000
1000
0010
,
0100
0010
1000
0001
,
0100
0000
0010
0100
0010
0000
0100
0000
,
0001
1000
0100
0100
,
1000
0100
0010
0001
,
1000
0001
0010
0100
,
1000
0000
0001
1000
0001
0000
0100
0000
,
0001
0010
0001
0000
1000
0000
0010
0000
,
1000
0001
0100
0010
,
1000
0001
0100
0010
,
1000
0000
0000
1000
0000
0000
1000
0000
,
0000
0001
0000
0000
0001
0000
0000
0000
,
1000
0010
0100
0001
,
0010
0100
1000
0100
,
1000
0000
0000
0001
0000
0000
0100
0000
,
0000
0100
0000
0000
0001
0000
0000
0000
,
0001
1000
0001
1000
,
0010
0000
0020
0030
,
0000
1000
0010
0100
,
0001
1000
0010
1000
,
0001
1000
0010
0100
,
0001
0100
0001
0100
,
0001
1000
0010
0100
,
0010
1000
0001
1000
,
0010
0000
0200
0000
,
0300
0000
0020
0000
,
0030
1000
0001
0100
,
0001
1000
0020
0000
,
0030
0000
0200
0000
,
0300
0000
0002
0000
,
0003
1000
0010
0100
,
0001
1000
0001
0000
,
0110
0000
1000
1000
,
0001
0000
0100
0000
,
0001
0000
0001
0000
1000
0001
1000
0000
,
0010
0100
0010
1000
,
0001
0000
1000
1000
,
0001
0100
0001
1000
,
0010
0010
1000
0000
,
0001
0010
0001
0010
,
0002
0003
1000
0002
,
0003
0000
0100
0010
,
2000
3000
0010
0200
,
0300
0000
0001
0000
,
0110
0000
0001
2000
,
3000
0000
0010
0100
,
0002
0003
0100
0020
,
0030
0000
1000
1000
,
1000
0000
0001
0010
,
0100
0010
0001
1000
,
0100
0000
0010
0100
0010
0000
0100
0000
,
1000
0001
0100
0100
,
0001
0100
0010
1000
,
0001
1000
0010
0100
,
0001
0000
1000
0001
1000
0000
0100
0000
,
1000
0010
1000
0000
0001
0000
0010
0000
,
0001
1000
0100
0010
,
0001
1000
0100
0010
,
0001
0000
0000
0001
0000
0000
0001
0000
,
0000
1000
0000
0000
1000
0000
0000
0000
,
0001
0010
0100
1000
,
0010
0100
0001
0100
,
0000
0001
0000
0000
0010
0000
0100
0000
,
2000
0002
0000
0000
,
0000
0000
3003
0000
;

//--------------- dance-single - RxSteps ----------------
#NOTES:
     dance-single:
     RxSteps:
     Easy:
     6:
     0,0,0,0,0:
0000
0000
0000
0000
,
0002
0000
0000
0003
,
0100
0010
1000
0001
,
0100
0000
0010
0100
0010
1000
0001
0000
,
0110
1001
1000
0010
,
0100
0000
0010
1000
0010
1000
0000
0001
,
0100
0010
1000
0100
,
1000
0000
0001
0100
0001
0000
1000
0010
,
1000
0010
0100
0001
0100
0001
1000
0000
,
0000
0000
0010
1000
0001
0000
0100
0000
,
0001
0000
0010
0001
0010
0001
1000
0000
,
0000
0010
1000
0001
0100
0010
1000
0000
,
0001
1000
0001
1000
0001
0100
0010
0000
,
0000
1000
0010
0100
0001
0010
0001
0000
,
1000
0000
0010
1000
0100
0000
0010
0000
,
0000
0000
0001
0000
0000
0000
0010
0000
0000
0100
0000
0000
1000
0000
0000
0100
0000
0000
0010
0000
0000
0000
0000
0000
,
0001
0000
0100
0001
0100
0000
0001
0200
,
0010
0001
0010
0301
,
0100
0010
0100
0001
0100
0001
1000
0020
,
0100
1000
0100
1030
,
0010
0100
0010
0100
0001
0100
0001
1000
,
0010
0100
0001
1000
,
0000
0010
1000
0001
0100
0010
1000
0001
,
1000
0001
0100
0010
,
1001
1000
0200
0010
,
1300
0001
0100
0001
,
1100
0000
1000
0001
0100
0000
0010
0000
,
1000
0001
0010
0000
0100
0000
1000
0000
,
0101
0001
0020
0100
,
0031
1000
0100
0010
,
0001
0000
1000
0010
0100
0000
0001
0000
,
1000
0100
0010
0000
0001
0000
0010
0000
,
1010
0001
0200
0010
,
0301
1000
0010
0100
,
0001
0100
0000
0010
1000
0000
0001
0100
,
0000
0010
0100
0010
0100
0000
0001
0000
,
1000
0100
0010
0001
,
0100
0010
1000
0002
,
0100
0000
0000
0203
0000
0000
0010
0000
,
0000
0310
0000
0000
1000
0000
0000
0000
,
0001
0100
0001
0100
0001
0000
1100
0000
,
0000
1000
0001
0100
0010
1000
0001
0100
,
0001
0100
0001
0000
0110
0000
0001
0100
,
0001
0000
1000
0001
1000
0000
0010
0000
,
0100
0000
0001
0000
0100
0000
0001
0000
1000
0000
0010
0000
,
1000
0000
0010
0000
0100
0000
0001
0000
1000
0000
0100
0000
,
0010
0000
0001
0000
0010
0000
0001
0000
1000
0000
0010
0000
,
1000
0000
0000
0000
0001
0000
0000
0000
0100
0000
0000
0000
0010
0000
0000
0000
0000
0000
0000
0000
0000
1000
0000
0000
,
0000
0001
0000
0100
0010
0100
0010
1000
,
0000
0001
0000
0100
0001
1000
0000
0010
,
0000
1000
0100
0010
0001
1000
0100
0010
,
0000
0001
0010
0000
0001
0000
0010
0000
,
0001
1000
0001
0000
0010
0000
0100
0000
,
1000
0000
0001
0100
0001
0000
1000
0000
,
0010
1000
0100
1000
0100
0000
1000
0000
,
0001
0010
0001
0000
0100
0000
0010
0000
,
1001
0001
0020
0100
,
0031
1000
0010
1000
,
0011
0000
0001
1000
0010
0000
0100
0000
,
0001
1000
0100
0000
0010
0000
0001
0000
,
1010
1000
0200
0010
,
1300
0001
0010
0100
,
1000
0000
0001
0100
0010
0000
1000
0000
,
0001
0010
0100
0000
1000
0000
0100
0000
,
0101
1000
0020
0100
,
1030
0001
0100
0010
,
1000
0010
0000
0100
0001
0000
1000
0010
,
0000
0100
0010
0100
0010
0000
1000
0000
,
0001
0010
0100
1000
,
0010
0100
0001
2000
,
0010
0000
0000
3020
0000
0000
0100
0000
,
0000
0130
0000
0000
0001
0000
1000
0000
,
0001
0100
0001
0020
,
0001
0000
0002
0030
,
0003
1000
0010
0100
,
0001
1000
0010
1000
,
0100
1000
0000
0001
0100
0000
0001
1000
,
0001
0010
0100
0010
,
0001
1000
0010
0100
,
0010
1000
0001
0100
,
0010
1000
0000
0001
0100
0000
0010
1000
,
0000
0001
1000
0000
0010
0000
0100
0000
,
0000
0000
0001
1000
0000
0001
0000
0001
,
0000
0100
0010
0000
1000
0000
0000
0000
,
1000
0010
0000
0100
0001
0000
1000
0010
,
0000
0100
0010
0100
0010
0000
2000
0000
,
0000
3002
0003
0100
,
0010
0100
0001
0000
,
1010
0000
0000
0000
1000
0010
1000
0010
,
0100
0000
0001
0100
0001
0000
1000
0000
,
0010
0000
0010
0000
0100
0001
0100
0001
,
1000
0010
0100
0010
1000
0001
1000
0000
,
0020
0000
0100
0130
,
0001
0000
0010
0001
0010
0000
0200
0000
,
1000
1300
0001
0100
,
0001
1000
0010
0100
0010
1000
0001
0000
,
0200
0000
0000
0000
0000
0000
0301
0000
0000
1000
0000
0002
,
0000
0003
0200
0310
,
1000
0000
0010
0000
0000
1000
0010
0000
0000
0100
0000
0002
,
0000
0000
2003
3000
,
0110
0000
0000
0000
0000
0000
1001
0000
0000
0001
0000
2000
,
0000
3000
0020
0130
,
0001
0000
0100
0000
0000
0001
0100
0000
0000
0010
0000
1000
,
0000
0010
0100
0100
,
1001
1000
0020
0100
,
1030
0001
0010
0001
,
1010
0000
1000
0001
0010
0000
0100
0000
,
1000
0001
0100
0000
0010
0000
1000
0000
,
0011
0001
0200
0010
,
0301
1000
0010
0100
,
0001
0000
1000
0100
0010
0000
0001
0000
,
1000
0010
0100
0000
0001
0000
0100
0000
,
1100
0001
0020
0100
,
0031
1000
0100
0010
,
0001
0010
0000
0100
1000
0000
0001
0010
,
0000
0100
0010
0100
0010
0000
0001
0000
,
1000
0010
0100
0001
,
0010
0100
1000
0002
,
0000
0023
0000
0000
0230
0000
2300
0000
,
3002
0200
0000
0000
,
0000
0000
0303
0000
;

//--------------- dance-single - RxSteps ----------------
#NOTES:
     dance-single:
     RxSteps:
     Medium:
     8:
     0,0,0,0,0:
0000
0000
0000
0000
,
0002
0000
0000
0003
,
1000
0010
1000
0100
,
0010
0000
0001
0100
0010
1000
0100
0000
,
0201
0000
0010
0300
0001
0010
0100
0000
,
0010
0000
0000
0000
0001
1000
0000
0000
0010
0000
0100
0010
0000
0000
1000
0000
,
0001
0010
0100
0000
1020
0000
0100
0030
,
1000
0001
0100
0010
0100
0010
1000
0100
,
0010
0100
1000
0010
0100
0001
1000
0000
,
0100
0000
1000
0100
0010
0000
0001
0000
,
1000
0000
0100
1000
0010
0100
0002
0010
,
0000
0003
0010
0000
0001
0000
0100
0000
0010
0000
1000
0000
0200
0000
0300
0000
,
0010
0100
1000
0010
0100
0001
2000
0000
,
3000
0100
0010
0100
1000
0100
0010
0000
,
0201
0300
0010
1000
0001
0100
0010
2000
,
3000
0001
0010
0100
1000
0100
0010
0000
,
0102
0003
0010
0100
1000
0000
0001
0020
,
0100
0001
0100
0031
,
1000
0100
1000
0010
0100
0010
1000
0200
,
0010
1000
0010
1300
,
0001
0100
0010
0100
0001
1000
0010
0100
,
0020
0000
2030
0000
3200
0000
0320
0030
,
0001
0010
0001
0100
0010
0100
0001
1000
,
0020
2030
3200
1300
,
0201
0310
1000
0100
0010
0100
1000
0010
,
1000
0100
0010
0001
0100
0010
0100
0000
,
1100
0000
0001
0010
0100
0000
0201
0300
,
0010
1000
0200
0000
0010
0000
1300
0000
,
0021
0130
1000
0100
0010
0100
1000
0001
,
0100
0010
1000
0100
0010
0100
1000
0000
,
0011
0000
1000
0010
0100
0000
2100
3000
,
0010
0100
0002
0000
2003
0000
3100
0000
,
0101
1000
0010
0100
0001
0010
0001
1000
,
0100
1000
0010
0100
0001
1000
0010
0000
,
0200
0001
0000
0000
0300
0000
0010
1000
0000
0000
0000
0000
0001
0200
0000
0000
,
0300
0010
1000
0100
0010
0001
0100
0010
,
1000
0001
0100
0010
1000
0001
1000
0100
,
0010
0100
1000
0010
0100
0010
1000
0010
,
0200
0000
0000
0302
0000
0000
2003
0000
,
0000
3020
0000
0000
0230
0000
0300
0000
,
0001
1000
0010
0100
0001
0000
1200
0320
,
0030
0001
1000
0001
0100
0010
1000
0010
,
0100
0001
0100
0010
1000
0000
0021
0130
,
1000
0000
0001
1000
0001
0000
0100
0001
,
1000
0000
0010
0000
1000
0000
0100
0000
0010
0000
0001
0000
,
0100
0000
0010
0000
0100
0000
0001
0000
1000
0000
0100
0000
,
1000
0000
0010
0000
0100
0000
0010
0000
0100
0000
0001
0000
,
0010
0000
0000
0000
0100
0000
0000
0000
2000
0000
0000
0000
0001
0000
0000
0000
0000
0000
3000
0000
0000
0001
0000
0000
,
0100
0010
1000
0010
0100
0010
1000
0001
,
0100
0001
1000
0100
0010
0100
0000
0101
,
0000
1000
0010
0100
0001
0010
0100
0010
,
0001
0010
0200
0000
2300
0000
3020
0030
,
0100
0010
2000
0000
0001
0000
3200
0000
,
0010
0300
0100
0010
0002
0000
2003
3000
,
0010
0100
0001
0020
0100
0000
0031
0000
,
1000
0010
0100
0000
1001
0000
0110
0000
,
1020
0130
0001
0010
0100
0010
0001
0100
,
0001
0010
0100
1000
0010
0100
0010
0000
,
0011
0000
1000
0100
0010
0000
1020
0030
,
0100
0001
0020
0000
0100
0000
0031
0000
,
1200
0310
0001
0010
0100
1000
0001
0100
,
0010
0100
0001
0010
0100
0010
0001
0000
,
1100
0000
0001
0100
0010
0000
0012
0003
,
0100
0010
2000
0000
3002
0000
0013
0000
,
1010
0001
0100
0010
1000
0001
1000
0100
,
0010
0001
0100
0010
1000
0001
0100
0000
,
0020
1000
0000
0000
0030
0000
0100
0001
0000
0000
0000
0000
1000
0020
0000
0000
,
0030
0100
0001
0010
0100
1000
0010
0100
,
0001
1000
0010
0100
0001
1000
0001
0010
,
0100
0010
0001
1000
0100
1000
0001
0100
,
0020
0000
0000
2030
0000
0000
3002
0000
,
0000
0203
0000
0000
0320
0000
0030
0000
,
1000
0110
1100
0011
,
2000
0100
3100
1000
,
0001
0000
0100
0001
0010
0000
0010
0001
,
2000
3020
0230
0301
,
0010
0001
0000
0000
0000
0000
0100
0010
0000
0000
0000
0000
1000
0100
0000
0000
,
0020
0001
0100
0031
,
2000
3020
0230
0302
,
2003
3020
0230
0301
,
1000
0001
0000
2000
0100
3000
0001
0200
,
0300
0010
1000
0001
0100
0001
1000
0000
,
0010
0100
0002
0000
1000
0000
0023
0000
,
0130
1000
0001
0100
0010
0100
0001
0010
,
0100
1000
0000
0010
1000
0000
0001
0100
,
0000
0010
1000
0010
0100
0001
0010
0100
,
2000
3002
0203
0320
,
2030
3002
0020
0033
,
1200
0310
0101
1100
,
0001
0000
0010
0100
0000
1000
0010
0000
,
0011
0000
1020
0030
0100
0001
0010
0100
,
2000
0000
0000
3000
0001
0000
0200
0000
0000
0300
0001
0000
0010
0000
0000
0000
,
0001
0000
2000
0000
0000
0000
0010
0000
0000
3010
0000
0000
,
0102
0003
0100
0010
1000
0001
1000
0010
,
0100
0000
1100
0000
0001
0100
0010
0100
,
0001
1000
0001
1000
0100
1000
0001
0100
,
0010
0000
0000
0000
2000
0000
0000
0000
0000
3000
0000
0000
0001
0000
0000
0000
0000
0000
0100
0000
0000
0000
0001
0000
,
0000
1000
0001
1000
0000
0000
0020
0000
0000
0230
0000
0000
,
0301
0000
1000
0000
0001
0100
0001
0000
0000
1000
0000
0001
,
0000
1000
0010
1000
0000
0002
2000
0000
0000
3003
0000
0000
,
0220
0000
0000
0330
0000
0000
1001
0000
0000
0001
0000
1000
,
0000
0001
1000
0001
0000
0000
0200
0000
0000
0320
0000
0000
,
1030
0000
0001
0000
1000
0010
1000
0000
0000
0001
0000
0100
,
0000
0001
0100
0002
0000
0000
1000
0000
0000
1003
0000
0000
,
0110
1002
0103
0001
,
0010
0100
0010
0001
,
1010
0000
0001
0100
0010
0000
0021
0030
,
0100
1000
0020
0000
0100
0000
1030
0000
,
0201
0310
1000
0010
0100
0001
1000
0010
,
0100
0010
1000
0001
0100
0010
1000
0000
,
0101
0000
1000
0100
0010
0000
2010
3000
,
0100
0010
0002
0000
2003
0000
3010
0000
,
0011
1000
0100
0010
0001
0010
0100
1000
,
0001
1000
0100
0010
0001
1000
0100
0000
,
0020
0001
0000
0000
0030
0000
0100
1000
0000
0000
0000
0000
0001
0020
0000
0000
,
0030
0100
1000
0010
0100
0001
0010
0100
,
1000
0001
0010
0100
1000
0001
1000
0010
,
0100
0010
1000
0001
0100
0001
1000
0100
,
0000
0020
0000
0000
0032
0000
2003
0000
,
3200
0020
0000
0000
,
0000
0000
0330
0000
;

//--------------- dance-single - RxSteps ----------------
#NOTES:
     dance-single:
     RxSteps:
     Hard:
     9:
     0,0,0,0,0:
0000
0000
0000
0000
,
0002
0000
0000
0003
,
1000
0010
1000
0100
,
0010
0000
0001
0100
0010
1000
0100
0000
,
0201
0000
0010
0300
0001
0010
0100
0000
,
0010
0000
0000
0000
0001
1000
0000
0000
0010
0000
0100
0010
0000
0000
1000
0000
,
0001
0010
0100
0000
1020
0000
0100
0030
,
1000
0001
0100
0010
0100
0010
1000
0100
,
0010
0100
1000
0010
0100
0001
1000
0000
,
0100
0000
1000
0100
0020
0000
2030
0000
,
3001
0000
0100
1000
0010
0100
0002
0010
,
0000
0003
0010
0000
0001
0000
0100
0000
0010
0000
1000
0000
0200
0000
0300
0000
,
0010
0100
1000
0010
0100
0001
2000
0000
,
3000
0200
0301
0100
1000
0200
0301
0000
,
0201
0300
0010
1000
0001
0100
0010
2000
,
3000
0001
0010
0100
1000
0100
0010
0000
,
0102
0003
0010
0100
1000
0000
0001
0020
,
0100
0001
0100
0031
,
1000
0100
1000
0010
0100
0010
1000
0200
,
0010
1000
0010
1300
,
0001
0100
0010
0100
0001
1000
0010
0100
,
0020
0000
2030
0000
3200
0000
0320
0030
,
0001
0010
0001
0100
0010
0100
0001
0020
,
2030
3002
0203
1300
,
0201
0310
1000
0100
0010
0100
1000
0010
,
1000
0100
0010
0001
0100
0010
0100
0000
,
1100
0000
0001
0010
0100
0000
0201
0300
,
0010
1000
0200
0000
0010
0000
1300
0000
,
0021
0230
1300
0200
0301
0100
1000
0020
,
0031
0010
1000
0100
0010
0100
1000
0000
,
0011
0000
1000
0010
0100
0000
2100
3000
,
0010
0100
0002
0000
2003
0000
3100
0000
,
0101
1000
0010
0100
0001
0020
1030
0001
,
0100
1000
0010
0100
0001
1000
0010
0000
,
0200
0001
0000
0000
0300
0000
0010
1000
0000
0000
0000
0000
0001
0200
0000
0000
,
0300
0010
1000
0100
0010
0001
0100
0010
,
1000
0001
0100
0010
1000
0001
1000
0100
,
0010
0100
1000
0200
0301
0100
1000
0010
,
0200
0000
0000
2300
0000
0000
3002
0000
,
0000
0023
0000
0000
2030
0000
3000
0000
,
0001
1000
0010
0100
0001
0000
1200
0320
,
0030
0100
1000
0010
0200
1300
0001
0010
,
1000
0001
0100
0010
1000
0000
0021
0130
,
1000
0000
0200
0301
0100
0000
1000
0001
,
0100
0000
0010
0000
1000
0000
0100
0000
0010
0000
0001
0000
,
0100
0000
0010
0000
0100
0000
0001
0000
1000
0000
0100
0000
,
1000
0000
0010
0000
0100
0000
0010
0000
0100
0000
0001
0000
,
0010
0000
0000
0000
0100
0000
0000
0000
2000
0000
0000
0000
0001
0000
0000
0000
0000
0000
3000
0000
0000
0001
0000
0000
,
0100
0010
1000
0010
0100
0010
1000
0200
,
0301
0100
1000
0100
0010
0100
0000
0101
,
0000
1000
0010
0100
0001
0020
1030
0010
,
0001
0010
0200
0000
2300
0000
3020
0030
,
0100
0010
2000
0000
0001
0000
3200
0000
,
0010
0300
0100
0010
0002
0000
2003
3000
,
0010
0100
0001
0020
0100
0000
0031
0000
,
1000
0010
0100
0000
1001
0000
0110
0000
,
1020
0130
0001
0010
0100
0010
0001
0100
,
0001
0010
0100
1000
0010
0100
0010
0000
,
0011
0000
1000
0100
0010
0000
1020
0030
,
0100
0001
0020
0000
0100
0000
0031
0000
,
1200
0320
0031
0020
1030
0010
0001
0200
,
1300
0100
0001
0010
0100
0010
0001
0000
,
1100
0000
0001
0100
0010
0000
0012
0003
,
0100
0010
2000
0000
3002
0000
0013
0000
,
1010
0001
0100
0010
1000
0200
0301
1000
,
0010
0001
0100
0010
1000
0001
0100
0000
,
0020
1000
0000
0000
0030
0000
0100
0001
0000
0000
0000
0000
1000
0020
0000
0000
,
0030
0100
0001
0010
0100
1000
0010
0100
,
0001
1000
0010
0100
0001
1000
0001
0010
,
0100
0010
0001
0020
1030
0010
0001
0100
,
0020
0000
0000
0032
0000
0000
2003
0000
,
0000
3200
0000
0000
0302
0000
0003
0000
,
1000
0110
1100
0011
,
2000
0100
3100
1000
,
0001
0000
0100
0001
0010
0000
0010
0001
,
2000
0000
3200
0000
0320
0000
1000
0030
,
0010
0001
0000
0000
0000
0000
0100
0010
0000
0000
0000
0000
1000
0100
0000
0000
,
0020
0001
0100
0031
,
2000
3020
0032
2003
,
3200
0000
0301
0000
0020
0000
1000
0030
,
0010
0001
0000
2000
0100
3000
0001
0200
,
0300
0010
1000
0200
0301
0100
1000
0000
,
0010
0100
0002
0000
1000
0000
0023
0000
,
0130
1000
0001
0100
0010
0100
0001
0010
,
0100
1000
0000
0010
1000
0000
0001
0100
,
0000
0010
1000
0010
0100
0001
0010
0100
,
2000
3020
0032
2003
,
3200
0302
0020
0033
,
1200
0310
0101
1100
,
0001
0000
0010
0100
0000
1000
0010
0000
,
0011
0000
1020
0030
0100
0001
0010
0100
,
2000
0000
0000
3000
0001
0000
0200
0000
0000
0300
0001
0000
0010
0000
0000
0000
,
0001
0000
0000
0000
0010
0000
0000
0000
0100
0000
0000
0000
1000
0000
0000
0000
0000
0000
0000
0000
0000
0000
0000
0000
0100
0000
0000
1000
0000
0000
0000
0000
0000
1000
0000
0000
0100
0000
0000
0000
0000
0000
0000
0000
0000
0000
0000
0000
,
0102
0003
0100
0010
1000
0001
1000
0010
,
0100
0000
1100
0000
0001
0100
0010
0100
,
0001
1000
0001
1000
0100
1000
0001
0100
,
0010
0000
1000
0000
0100
0010
0001
0000
0000
0100
0000
0001
,
0000
1000
0010
1000
0000
0001
0100
0010
0000
0010
0100
0001
,
1000
0000
0001
0000
1000
0010
1000
0000
0000
0001
0000
1000
,
0000
0001
0100
0010
0000
1000
0001
0000
1000
0000
0001
0100
,
0020
0000
0000
0030
0000
0000
1001
0000
0000
1000
0000
0001
,
0000
1000
0100
1000
0000
0001
0010
0100
0000
0100
0010
0001
,
1000
0000
0001
0000
1000
0100
1000
0000
0000
0001
0000
1000
,
0000
0001
0010
0100
0000
2000
0001
0000
0000
3001
0000
0000
,
0110
1002
0103
0001
,
0020
1030
0010
0001
,
1010
0000
0001
0100
0010
0000
0021
0030
,
0100
1000
0020
0000
0100
0000
1030
0000
,
0201
0320
1030
0020
0031
0010
1000
0200
,
0301
0100
1000
0010
0100
0010
1000
0000
,
0101
0000
1000
0100
0010
0000
2010
3000
,
0100
0010
0002
0000
2003
0000
3010
0000
,
0011
1000
0100
0010
0001
0200
1300
0001
,
0010
1000
0100
0010
0001
1000
0100
0000
,
0020
0001
0000
0000
0030
0000
0100
1000
0000
0000
0000
0000
0001
0020
0000
0000
,
0030
0100
1000
0010
0100
0001
0010
0100
,
1000
0001
0010
0100
1000
0001
1000
0010
,
0100
0010
1000
0020
0031
0010
1000
0100
,
0000
0020
0000
0000
0032
0000
2003
0000
,
3200
0020
0000
0000
,
0000
0000
0330
0000
;
