#TITLE:Run Rabbit;
#SUBTITLE:;
#ARTIST:ALT BLK ERA;
#TITLETRANSLIT:;
#SUBTITLETRANSLIT:;
#ARTISTTRANSLIT:;
#GENRE:;
#CREDIT:RxSteps;
#MUSIC:Run Rabbit.ogg;
#BANNER:Run Rabbit.png;
#BACKGROUND:Run Rabbit-bg.png;
#CDTITLE:cdtitle.png;
#SAMPLESTART:85.705;
#SAMPLELENGTH:16.552;
#SELECTABLE:YES;
#OFFSET:1.192;
#BPMS:0.000=174.000;
#STOPS:;
#BGCHANGES:;
#FGCHANGES:;

//--------------- dance-single - RxSteps ----------------
#NOTES:
     dance-single:
     RxSteps:
     Beginner:
     4:
     0,0,0,0,0:
0000
0000
0000
0000
,
2000
0000
3000
0010
,
0200
0000
0300
0000
,
0001
0000
0010
0100
,
2000
0000
3000
0000
,
1000
0000
0010
0100
,
0020
0000
0030
0000
,
1000
0000
0001
0100
,
0010
0000
0000
0100
,
0000
0000
0001
0100
0001
0000
0100
0001
,
0100
0001
1000
0000
,
0010
0000
1000
0000
,
0001
1000
0001
0100
,
0010
0000
0100
0000
,
0001
0010
0100
0010
,
0100
0000
1000
0000
,
0001
0100
0001
1000
,
0100
0000
0010
0000
,
0001
1000
0100
0000
,
1000
0000
0000
0010
,
0100
0000
0001
0100
,
0010
0000
0000
0010
,
1000
0000
0100
0010
,
0001
0000
0000
1000
,
0010
0000
0000
1000
,
0100
0000
1000
0100
1000
0000
0100
1000
,
0100
0010
0001
0000
,
2000
3000
0000
0010
,
0200
0300
0020
0030
,
2000
3000
0000
0001
,
0020
0000
0030
0000
,
0020
0030
0000
0001
,
0200
0000
0300
0000
,
0020
0000
0030
1000
,
0002
0000
0003
0000
,
1000
0010
0000
0100
,
0001
0100
0001
0100
,
0010
1000
0000
0001
,
1000
0100
1000
0001
,
0100
0001
0000
0001
,
0100
0010
0100
0001
,
1000
0010
0000
1000
,
0001
0100
0001
0000
,
0100
0000
0000
0001
0000
0000
1000
0000
,
0000
0010
0000
0000
1000
0000
0001
0000
,
1000
0000
0000
0010
0000
0000
0100
0000
,
0000
0010
0000
0000
0100
0000
0001
0000
,
0100
0000
0000
0010
0000
0000
1000
0000
,
0000
0100
0000
0000
1000
0000
0100
0000
,
1000
0000
0000
0100
0000
0000
0010
0000
,
0000
0001
0000
0000
0010
0000
0001
0000
,
0010
0000
0000
0001
,
1000
0000
0010
0100
,
0010
0000
0000
1000
,
0100
0000
0100
1000
,
0100
0000
0000
0010
,
0001
0000
0000
0100
,
0001
0000
1000
0001
1000
0000
0001
1000
,
0001
0100
0010
0000
,
0100
0000
0001
0000
,
1000
0001
1000
0010
,
0100
0000
0010
0000
,
1000
0100
0010
0100
,
0010
0000
0001
0000
,
1000
0010
1000
0001
,
0010
0000
0100
0000
,
1000
0001
0010
0000
,
0001
0010
0000
0010
,
0001
0000
1000
0010
,
0100
0000
0100
0010
,
1000
0001
0100
0010
,
1000
0000
1000
0010
,
0100
0010
1000
0000
,
0010
0000
0100
0010
0100
0000
0010
0100
,
0010
0100
0001
0000
,
2000
3000
0000
0100
,
0020
0030
0200
0300
,
2000
3000
0000
0001
,
0200
0000
0300
0000
,
0200
0300
0000
0001
,
0020
0000
0030
0000
,
0200
0000
0300
1000
,
0002
0000
0003
0000
,
1000
0100
0000
0010
,
0001
0010
0001
0010
,
0100
1000
0000
0001
,
1000
0010
1000
0001
,
0010
0001
0000
0001
,
0010
0100
0010
0001
,
1000
0100
0000
1000
,
0001
0010
0001
0000
,
0010
0000
0000
0001
0000
0000
1000
0000
,
0000
0100
0000
0000
1000
0000
0001
0000
,
1000
0000
0000
0100
0000
0000
0010
0000
,
0000
0100
0000
0000
0010
0000
0001
0000
,
0010
0000
0000
0100
0000
0000
1000
0000
,
0000
0010
0000
0000
1000
0000
0010
0000
,
1000
0000
0000
0010
0000
0000
0100
0000
,
0000
0001
0000
0000
0100
0000
0001
0000
,
0100
0000
0000
0001
,
1000
0000
0100
0010
,
0100
0000
0000
1000
,
0010
0000
0010
1000
,
0010
0000
0000
0100
,
0001
0000
0000
0010
,
0001
0000
1000
0001
1000
0000
0001
1000
,
0001
0010
0100
0000
,
0010
0000
0001
0000
,
1000
0001
1000
0100
,
0010
0000
0100
0000
,
1000
0010
0100
0010
,
0100
0000
0001
0000
,
1000
0100
1000
0001
,
0100
0000
0010
0000
,
1000
0001
0100
0000
,
0001
0100
0000
0100
,
0001
0000
1000
0100
,
0010
0000
0010
0100
,
1000
0001
0010
0100
,
1000
0000
1000
0100
,
0010
0100
1000
0000
,
0100
0000
0010
0100
0010
0000
0100
0010
,
0100
0010
0001
0000
,
1000
0000
0100
0000
,
1000
0100
1000
0000
,
0001
0000
0010
0000
,
0100
0010
0100
0000
,
0010
0000
0001
0000
,
1000
0001
1000
0000
,
0010
0000
0100
0000
,
0001
0100
0001
2000
,
3000
0000
0000
0000
;

//--------------- dance-single - RxSteps ----------------
#NOTES:
     dance-single:
     RxSteps:
     Easy:
     6:
     0,0,0,0,0:
0000
0000
0000
0000
,
1000
0001
0010
0001
,
0100
0010
0100
0001
,
1000
0000
0100
0000
0010
0001
0010
0001
,
0010
0100
1000
0001
,
0100
0000
0001
0000
1000
0010
1000
0010
,
1000
0001
0100
0010
,
0100
0000
0001
0000
1000
0001
1000
0001
,
1000
0010
1000
0001
,
0010
0000
0001
1000
0001
0000
0100
0010
,
0100
0001
0010
0000
,
0001
0000
0100
0010
0100
0000
0010
1000
,
0010
0000
0100
0000
0001
0000
1000
0010
,
1000
0000
0001
0100
0001
0000
1000
0100
,
1000
0000
0100
0000
0010
0000
0001
0010
,
0001
0000
0100
0001
0100
0000
0010
0100
,
0010
0000
1000
0000
0001
0000
1000
0100
,
1000
0000
0001
0100
0001
0000
1000
0001
,
1000
0010
0200
0300
,
0001
0010
0100
0010
,
0100
0000
1000
0000
0100
0010
0100
0010
,
0100
0010
0001
1000
,
0010
0000
1000
0000
0100
1000
0100
1000
,
0100
1000
0001
0100
,
0010
0000
0100
0000
0001
1000
0001
0000
,
0010
0000
0100
1000
0100
0000
0010
0001
,
0010
0100
1000
0001
,
0100
0010
0100
0001
,
0010
0100
2000
0000
,
3001
1000
0010
0100
,
0010
1000
0200
0000
,
0310
0001
0010
0100
,
0010
0001
1000
0010
,
1000
0001
0100
0010
,
0100
0001
1000
0100
,
1000
0010
0100
0002
,
0010
1003
0001
0200
,
0010
0301
0100
0020
,
1000
0130
0001
2000
,
0010
3100
1000
0100
,
0010
0100
1000
0001
,
0100
0001
0100
0000
0010
0000
1000
0000
,
0100
1000
0100
0000
0010
0000
0001
0000
,
0200
0000
0300
0020
0000
0030
2000
0000
,
3000
0001
0000
0000
0100
0001
0100
0001
,
0200
0000
0300
0020
0000
0030
2000
0000
,
3000
0200
0000
0300
1000
0100
1000
0100
,
2000
0000
3000
0002
0000
0003
0200
0000
,
0300
0020
0000
0030
0100
0010
0100
0010
,
0200
0000
0300
0001
0000
0000
1000
0000
,
0000
0001
0000
0000
0100
0001
0100
0001
,
0200
0000
0300
0010
,
2000
0000
3000
0000
0001
1000
0001
1000
,
0002
0000
0003
0100
,
0010
0000
0000
0000
1000
0010
1000
0010
,
2000
0000
3000
0001
,
0200
0000
0000
0300
,
0010
0000
1000
0010
1000
0000
0001
0100
,
0001
1000
0100
0000
,
1000
0000
0010
0100
0010
0000
0100
0001
,
0100
0000
0010
0000
1000
0000
0001
0100
,
0001
0000
1000
0010
1000
0000
0001
0010
,
0001
0000
0010
0000
0100
0000
1000
0100
,
1000
0000
0010
1000
0010
0000
0100
0010
,
0100
0000
0001
0000
1000
0000
0001
0010
,
0001
0000
1000
0010
1000
0000
0001
1000
,
0001
0100
0020
0030
,
1000
0000
0000
0000
0100
0000
0000
1000
0100
0000
0000
0000
0000
0000
0000
0000
,
1000
0000
0001
0000
0010
0001
0010
0001
,
0010
0000
0000
0000
0001
0000
0000
1000
0000
0000
0000
0000
0001
0000
0000
0000
,
0100
0010
0100
0001
,
1000
0000
0000
0000
0010
0000
0000
1000
0010
0000
0000
0000
1000
0000
0000
0000
,
0010
0100
0001
1000
,
0100
0000
1000
0100
1000
0000
0001
1000
,
0001
0010
0100
0000
,
1000
0100
0010
0001
,
0100
0001
2000
0000
,
3001
1000
0010
0100
,
0010
1000
0002
0000
,
0103
0001
1000
0010
,
1000
0100
1000
0001
,
0100
0010
0100
0001
,
1000
0100
0010
0001
,
1000
0100
0010
0002
,
0100
1003
0001
0020
,
0100
0031
0010
0200
,
1000
0310
0001
2000
,
0100
3010
1000
0010
,
0100
0010
1000
0001
,
0010
0001
0010
0000
0100
0000
1000
0000
,
0010
1000
0010
0000
0100
0000
0001
0000
,
0020
0000
0030
0200
0000
0300
2000
0000
,
3000
0001
0000
0000
0010
0001
0010
0001
,
0020
0000
0030
0200
0000
0300
2000
0000
,
3000
0020
0000
0030
1000
0010
1000
0010
,
2000
0000
3000
0002
0000
0003
0020
0000
,
0030
0200
0000
0300
0010
0100
0010
0100
,
0020
0000
0030
0001
0000
0000
1000
0000
,
0000
0001
0000
0000
0010
0001
0010
0001
,
0020
0000
0030
0100
,
2000
0000
3000
0000
0001
1000
0001
1000
,
0002
0000
0003
0010
,
0100
0000
0000
0000
1000
0100
1000
0100
,
2000
0000
3000
0001
,
0020
0000
0000
0030
,
0100
0000
1000
0100
1000
0000
0001
0010
,
0001
1000
0010
0000
,
1000
0000
0100
0010
0100
0000
0010
0001
,
0010
0000
0100
0000
1000
0000
0001
0010
,
0001
0000
1000
0100
1000
0000
0001
0100
,
0001
0000
0100
0000
0010
0000
1000
0010
,
1000
0000
0100
1000
0100
0000
0010
0100
,
0010
0000
0001
0000
1000
0000
0001
0100
,
0001
0000
1000
0100
1000
0000
0001
1000
,
0001
0010
0200
0300
,
1000
0000
0000
0000
0010
0000
0000
1000
0010
0000
0000
0000
0000
0000
0000
0000
,
1000
0000
0001
0000
0100
0001
0100
0001
,
0100
0000
0000
0000
0001
0000
0000
1000
0000
0000
0000
0000
0001
0000
0000
0000
,
0010
0100
0010
0001
,
1000
0000
0000
0000
0100
0000
0000
1000
0100
0000
0000
0000
1000
0000
0000
0000
,
0100
0010
0001
1000
,
0010
0000
1000
0010
1000
0000
0001
1000
,
0001
0100
0010
0100
,
0001
0010
0100
1000
,
0100
1000
0100
1000
,
0001
0100
0010
1000
,
0001
0100
0001
0100
,
0010
1000
0100
0010
,
0001
0010
0001
1000
,
0010
0100
0001
1000
,
0010
0100
0010
2002
,
3003
0000
0000
0000
;

//--------------- dance-single - RxSteps ----------------
#NOTES:
     dance-single:
     RxSteps:
     Medium:
     8:
     0,0,0,0,0:
0000
0000
0000
0000
,
1000
0100
0010
0001
1000
0100
0010
0100
,
1000
0010
0100
0001
1000
0010
0100
0001
,
1000
0001
0100
0010
0100
0001
0100
0010
,
1000
0100
0010
0001
0010
0100
1000
0001
,
0010
0001
1000
0010
0100
0001
0100
0010
,
1000
0010
0100
0001
0010
0100
1000
0100
,
0010
0001
0010
0001
0010
0001
0010
0001
,
1000
0010
1000
0010
1000
0010
0100
0001
,
0020
0030
0000
0000
0001
0000
0100
0000
0020
0030
0000
0000
0010
0000
0100
0000
,
0001
0100
0010
1000
0100
0000
0000
0000
,
0021
0030
0100
2000
0010
3000
0010
0100
,
0001
1000
0010
1000
0001
0010
0100
0000
,
1020
0030
0000
0000
0100
0000
0002
0000
0010
0000
0003
0000
0010
0000
0100
0000
,
1000
0100
0010
0100
1000
0100
0010
0000
,
0101
0000
1000
0020
0100
0030
0100
0001
,
0010
0100
0010
0001
0010
0000
1010
0000
,
0011
0000
1010
0000
0101
0000
1200
0300
,
0010
0100
1000
0100
0010
0001
0010
0001
,
1000
0010
0100
0001
0010
0001
1000
0001
,
1000
0010
0100
0001
1000
0100
0010
0001
,
0010
0100
0010
0001
1000
0100
0010
0100
,
0010
0001
0010
0100
1000
0001
0100
0010
,
1000
0010
0100
0001
1000
0010
0100
0010
,
1000
0001
0100
0010
0100
0001
0010
0001
,
2000
0000
3000
0000
0010
0000
0200
0000
0001
0300
0000
0000
0001
0000
0010
0000
,
0100
0010
0001
1000
0010
0100
0010
1000
,
0001
0010
0200
1000
,
0310
0001
0100
0010
,
1000
0100
0010
0100
,
1000
0001
0100
0001
,
1000
0100
0010
0100
,
1000
0010
0100
0001
,
0010
0001
0010
0100
,
1000
0100
0010
0001
,
1000
0010
0100
0000
0001
0000
0010
0001
,
0100
0010
0100
0001
1000
0100
0010
0100
,
1000
0001
0100
0000
0010
0000
0100
0001
,
1000
0010
0100
0001
1000
0010
0100
0001
,
1000
0100
1000
0000
0100
0000
0010
0001
,
0010
0100
1000
0010
0100
0001
0010
0001
,
1000
0001
1000
0000
0010
0000
0100
0010
,
1000
0002
0010
0003
0010
0001
0010
0100
,
2000
0000
3000
0020
0000
0030
0200
0000
,
0300
0002
0000
0003
0100
0010
1000
0100
,
0020
0000
0030
0002
0000
0003
0200
0000
,
0000
0010
0300
0000
0100
0001
0010
0100
,
2000
0000
3000
0200
0000
0000
0010
0000
,
0300
1000
0000
0000
0001
1000
0010
0100
,
0020
0000
0030
2000
0000
3000
0200
0000
,
0000
0010
0300
0000
0100
1000
0010
0100
,
0001
0020
0000
0000
0000
0000
0100
0000
,
0032
0000
0000
0003
1000
0001
0100
0010
,
1000
0200
0000
0000
0000
0000
0010
0000
,
2000
0000
0300
3000
0100
0010
0001
1000
,
0001
1000
0010
1000
0010
1000
0010
0100
,
0001
0010
0001
0010
0001
0010
0100
1000
,
0020
0030
0100
0010
2000
3000
0100
0010
,
0001
0100
0010
1000
0100
0000
0000
0000
,
1020
0030
0100
0001
1000
0000
0100
0010
,
0001
0000
0000
0000
1000
0010
0000
0000
0001
0010
0000
0000
1000
0000
0200
0000
,
0010
0300
0010
0100
1000
0000
0001
1000
,
0010
0000
0000
0000
0001
0010
0000
0000
1000
0010
0000
0000
0001
0000
0200
0000
,
0010
0300
0010
0100
0001
0000
1000
0001
,
0100
0000
0000
0000
1000
0100
0000
0000
0001
0100
0000
0000
1000
0000
0020
0000
,
0100
0030
0000
0000
0100
0000
0010
0000
1000
0000
0000
0000
0001
0000
1000
0000
,
0100
0000
0000
0000
0001
0100
0000
0000
1000
0000
0100
0000
1000
0000
0001
0000
,
0010
0000
0100
0000
2000
3000
0000
0100
1000
0000
0001
0000
0100
0000
0010
0000
,
0100
0001
1000
0001
1000
0100
0010
0001
,
1000
0000
0010
0000
0200
0300
0000
0001
0100
0000
0010
0000
1000
0000
0200
0000
,
0010
0000
1000
0300
0010
0001
0010
0100
,
1000
0000
0001
0000
0200
0300
0000
0010
0100
0000
0001
0000
1000
0000
0010
0000
,
1000
0100
0010
0001
0010
0100
1000
0100
,
1000
0000
0001
0200
0010
0300
0010
0100
,
0001
1000
0010
1000
0002
0000
0000
0003
,
1000
0100
0020
0001
,
0130
1000
0010
0100
,
0001
1000
0010
0100
,
0001
0100
0010
0100
,
0001
0010
0100
0010
,
0001
1000
0100
0010
,
0001
1000
0010
0100
,
0001
0000
0010
0000
0100
0000
1000
0100
,
0010
0100
1000
0000
0001
0000
0100
0010
,
0100
0001
0010
0100
1000
0001
1000
0010
,
0100
0001
0010
0000
0100
0000
1000
0010
,
0100
0001
1000
0010
0100
0001
1000
0010
,
0100
0001
0010
0000
0100
0000
0010
0001
,
1000
0020
0100
0030
0100
0001
0010
0100
,
1000
0001
1000
0000
0100
0000
0010
0001
,
0100
0010
0100
0000
0001
1000
0010
0100
,
0002
0000
0003
0200
0000
0300
0020
0000
,
0030
2000
0000
3000
0010
0100
0001
0010
,
0200
0000
0300
2000
0000
3000
0020
0000
,
0000
0200
0030
0300
0010
1000
0100
0010
,
0002
0000
0003
0020
0000
0000
0100
0000
,
0030
0001
0000
0000
1000
0001
0100
0010
,
0200
0000
0300
0002
0000
0003
0020
0000
,
0000
0100
0030
0000
0010
0001
0100
0010
,
1000
0200
0000
0000
0000
0000
0010
0000
,
2300
0000
0000
3000
0001
1000
0010
0100
,
0001
0020
0000
0000
0000
0000
0100
0000
,
0002
0000
0030
0003
0010
0100
1000
0001
,
1000
0001
0100
0001
0100
0001
0100
0010
,
1000
0100
1000
0100
1000
0100
0010
0001
,
0200
0300
0010
1000
0002
0003
0100
0010
,
1000
0010
0100
0001
0010
0000
0000
0000
,
1200
0300
0010
0002
0100
0003
0100
0010
,
1000
0001
0100
0001
1000
0100
0010
0000
,
0201
0300
0000
0000
0010
0000
2000
0000
0100
0000
3000
0000
0100
0000
0010
0000
,
0001
0010
0100
0010
0001
0010
0100
0000
,
1010
0000
0001
0200
0010
0300
0010
1000
,
0100
0010
0100
1000
0100
0000
0101
0000
,
1100
0000
0101
0000
1010
0000
0021
0030
,
0100
1000
0100
0010
0001
0010
0001
1000
,
0100
0000
0010
0000
0002
0003
0000
0010
0001
0000
1000
0000
0010
0000
0100
0000
,
0010
1000
0001
1000
0001
0010
0100
1000
,
0001
0000
0100
0000
0020
0030
0000
1000
0010
0000
0100
0000
0001
0000
0020
0000
,
0100
0000
0001
0030
0100
1000
0100
0010
,
0001
0000
1000
0000
0020
0030
0000
0100
0010
0000
1000
0000
0001
0000
0100
0000
,
0001
0010
0100
1000
0100
0010
0001
0010
,
0001
0000
1000
0020
0100
0030
0100
0010
,
1000
0001
0100
0001
2000
0000
0000
3000
,
0001
0100
0010
0100
,
0001
0010
0001
0010
0001
0000
1000
0000
,
0010
0100
0010
1000
,
0100
1000
0100
1000
0100
0000
0010
0000
,
0001
0100
0010
0100
,
0001
1000
0001
1000
0001
0000
0100
0000
,
0001
0010
0100
0010
,
0001
0010
0001
0010
0001
0000
2020
0000
,
3030
0000
0000
0000
;

//--------------- dance-single - RxSteps ----------------
#NOTES:
     dance-single:
     RxSteps:
     Hard:
     9:
     0,0,0,0,0:
0000
0000
0000
0000
,
1000
0100
0010
0001
1000
0100
0010
0100
,
1000
0010
0100
0001
1000
0010
0100
0001
,
1000
0001
0100
0010
0100
0001
0100
0010
,
1000
0100
0010
0001
0010
0100
1000
0001
,
0010
0001
1000
0010
0100
0001
0100
0010
,
1000
0010
0100
0001
0010
0100
1000
0100
,
0010
0001
0010
0001
0010
0001
0010
0001
,
1000
0010
1000
0010
1000
0010
0100
0001
,
0020
0030
0000
0000
0001
0000
0100
0000
0020
0030
0000
0000
0010
0000
0100
0000
,
1000
0200
0301
0100
1000
0000
0000
0000
,
0021
0030
0100
2000
0010
3000
0010
0100
,
0001
0000
0200
0300
1000
0000
0100
0000
0001
0000
0010
0000
0100
0000
0000
0000
,
1020
0030
0000
0000
0100
0000
0002
0000
0010
0000
0003
0000
0010
0000
0100
0000
,
1000
0000
0200
0300
0001
0000
0100
0000
1000
0000
0100
0000
0010
0000
0000
0000
,
0101
0000
1000
0020
0100
0030
0100
0001
,
0010
0100
0010
0001
0010
0000
1010
0000
,
0011
0000
1010
0000
0101
0000
1200
0300
,
0010
0100
1000
0100
0010
0001
0010
0001
,
1000
0010
0100
0001
0010
0001
1000
0001
,
1000
0010
0100
0001
1000
0100
0010
0001
,
0010
0100
0010
0001
1000
0100
0010
0100
,
0010
0001
0010
0100
1000
0001
0100
0010
,
1000
0010
0100
0001
1000
0010
0100
0010
,
1000
0001
0100
0010
0100
0001
0010
0001
,
2000
0000
3000
0000
0010
0000
0200
0000
0001
0300
0000
0000
0001
0000
0010
0000
,
0100
0000
0010
0000
0001
0000
0200
0300
1000
0000
0001
0000
0010
0000
0100
0000
,
0001
0010
0200
1000
,
0310
0001
0100
0010
,
1000
0000
0200
0300
0001
0000
0100
0000
,
1000
0000
0020
0030
0001
0000
0010
0000
,
1000
0100
0010
0100
,
1000
0000
0020
0030
0001
0000
1000
0000
,
0100
0000
0001
0000
0020
0030
1000
0000
,
0001
0100
0010
0001
,
1000
0010
0100
0000
0001
0000
0010
0001
,
0100
0010
0100
0001
1000
0100
0010
0100
,
1000
0001
0100
0000
0010
0000
0100
0001
,
1000
0010
0100
0001
1000
0010
0100
0001
,
1000
0100
1000
0000
0100
0000
0010
0001
,
0010
0100
1000
0010
0100
0001
0010
0001
,
1000
0001
1000
0000
0010
0000
0100
0010
,
1000
0002
0010
0003
0010
0001
0010
0100
,
2000
0000
3000
0020
0000
0030
0002
0000
,
0000
2003
0000
3000
0100
0010
1000
0100
,
0020
0000
0030
0002
0000
0003
0200
0000
,
0000
1000
0300
0000
0100
0001
0010
0100
,
2000
0000
3000
0200
0000
0000
0010
0000
,
0300
1000
0000
0000
0001
1000
0010
0100
,
0020
0000
0030
2000
0000
3000
0200
0000
,
0000
0001
0300
0000
0100
1000
0010
0100
,
0001
0020
0000
0000
0000
0000
0100
0000
,
0032
0000
0000
0003
1000
0001
0100
0010
,
1000
0200
0000
0000
0000
0000
0010
0000
,
2000
0000
0300
3000
0100
0010
0001
1000
,
0001
1000
0010
1000
0010
1000
0010
0100
,
0001
0010
0001
0010
0001
0010
0100
1000
,
0020
0030
0100
0010
2000
3000
0100
0020
,
1030
0001
0100
0010
0001
0000
0000
0000
,
1020
0030
0100
0001
1000
0000
0100
0010
,
0001
0000
0000
0000
1000
0010
0000
0000
0001
0010
0000
0000
1000
0000
0200
0000
,
0010
0300
0010
0100
1000
0000
0001
1000
,
0010
0000
0000
0000
0001
0010
0000
0000
1000
0010
0000
0000
0001
0000
0200
0000
,
0010
0300
0010
0100
0001
0000
1000
0001
,
0100
0000
0000
0000
1000
0100
0000
0000
0001
0100
0000
0000
1000
0000
0020
0000
,
0100
0030
0000
0000
0100
0000
0010
0000
1000
0000
0000
0000
0001
0000
1000
0000
,
0100
0000
0000
0000
0001
0100
0000
0000
1000
0000
0100
0000
1000
0000
0001
0000
,
0010
0000
0100
0000
2000
3000
0000
0100
1000
0000
0001
0000
0100
0000
0010
0000
,
0100
0001
1000
0001
1000
0100
0010
0001
,
1000
0000
0010
0000
0200
0300
0000
0001
0100
0000
0010
0000
1000
0000
0200
0000
,
0010
0000
1000
0300
0010
0001
0010
0100
,
1000
0000
0001
0000
0200
0300
0000
0010
0100
0000
0001
0000
1000
0000
0010
0000
,
1000
0100
0010
0001
0010
0100
1000
0100
,
1000
0000
0001
0200
0010
0300
0010
0100
,
0001
0000
0200
0300
1000
0000
0100
0000
0002
0000
0000
0000
0000
0000
0003
0000
,
1000
0100
0020
0001
,
0130
1000
0010
0100
,
0001
0000
0020
0030
1000
0000
0010
0000
,
0001
0000
0200
0300
1000
0000
0100
0000
,
0001
0010
0100
0010
,
0001
0000
0200
0300
1000
0000
0001
0000
,
0010
0000
1000
0000
0200
0300
0001
0000
,
1000
0000
0010
0000
0100
0000
1000
0100
,
0010
0100
1000
0000
0001
0000
0100
0010
,
0100
0001
0010
0100
1000
0001
1000
0010
,
0100
0001
0010
0000
0100
0000
1000
0010
,
0100
0001
1000
0010
0100
0001
1000
0010
,
0100
0001
0010
0000
0100
0000
0010
0001
,
1000
0020
0100
0030
0100
0001
0010
0100
,
1000
0001
1000
0000
0100
0000
0010
0001
,
0100
0010
0100
0000
0001
1000
0010
0100
,
0002
0000
0003
0200
0000
0300
2000
0000
,
0000
3002
0000
0003
0010
0100
0001
0010
,
0200
0000
0300
2000
0000
3000
0020
0000
,
0000
0001
0030
0000
0010
1000
0100
0010
,
0002
0000
0003
0020
0000
0000
0100
0000
,
0030
0001
0000
0000
1000
0001
0100
0010
,
0200
0000
0300
0002
0000
0003
0020
0000
,
0000
1000
0030
0000
0010
0001
0100
0010
,
1000
0200
0000
0000
0000
0000
0010
0000
,
2300
0000
0000
3000
0001
1000
0010
0100
,
0001
0020
0000
0000
0000
0000
0100
0000
,
0002
0000
0030
0003
0010
0100
1000
0001
,
1000
0001
0100
0001
0100
0001
0100
0010
,
1000
0100
1000
0100
1000
0100
0010
0001
,
0200
0300
0010
1000
0002
0003
0100
0010
,
1000
0020
0031
0010
1000
0000
0000
0000
,
1200
0300
0010
0002
0100
0003
0100
0010
,
1000
0000
0020
0030
0001
0000
0010
0000
1000
0000
0100
0000
0010
0000
0000
0000
,
0201
0300
0000
0000
0010
0000
2000
0000
0100
0000
3000
0000
0100
0000
0010
0000
,
0001
0000
0020
0030
1000
0000
0010
0000
0001
0000
0010
0000
0100
0000
0000
0000
,
1010
0000
0001
0200
0010
0300
0010
1000
,
0100
0010
0100
1000
0100
0000
0101
0000
,
1100
0000
0101
0000
1010
0000
0021
0030
,
0100
1000
0100
0010
0001
0010
0001
1000
,
0100
0000
0010
0000
0002
0003
0000
0010
0001
0000
1000
0000
0010
0000
0100
0000
,
0010
1000
0001
1000
0001
0010
0100
1000
,
0001
0000
0100
0000
0020
0030
0000
1000
0010
0000
0100
0000
0001
0000
0020
0000
,
0100
0000
0001
0030
0100
1000
0100
0010
,
0001
0000
1000
0000
0020
0030
0000
0100
0010
0000
1000
0000
0001
0000
0100
0000
,
0001
0010
0100
1000
0100
0010
0001
0010
,
0001
0000
1000
0020
0100
0030
0100
0010
,
1000
0000
0020
0030
0001
0000
0010
0000
2000
0000
0000
0000
0000
0000
3000
0000
,
0001
0100
0010
0100
,
0001
0010
0001
0010
0001
0000
1000
0000
,
0010
0100
0010
1000
,
0100
1000
0100
1000
0100
0000
0010
0000
,
0001
0200
1300
0100
,
0001
0010
0001
0010
0001
0000
1000
0000
,
0001
0000
0020
0030
1000
0000
0010
0000
,
0001
0010
0001
0010
0001
0000
2020
0000
,
3030
0000
0000
0000
;
