#TITLE:Riddle;
#SUBTITLE:;
#ARTIST:Bad Computer;
#TITLETRANSLIT:;
#SUBTITLETRANSLIT:;
#ARTISTTRANSLIT:;
#GENRE:;
#CREDIT:RxSteps;
#MUSIC:Riddle.ogg;
#BANNER:Riddle.png;
#BACKGROUND:Riddle-bg.png;
#CDTITLE:cdtitle.jpg;
#SAMPLESTART:36.589;
#SAMPLELENGTH:18.750;
#SELECTABLE:YES;
#OFFSET:0.911;
#BPMS:0.000=128.000;
#STOPS:;
#BGCHANGES:;
#FGCHANGES:;

//--------------- dance-single - RxSteps ----------------
#NOTES:
     dance-single:
     RxSteps:
     Beginner:
     2:
     0,0,0,0,0:
0000
0000
0000
0000
,
0000
1000
0000
0010
,
0000
0000
0000
0000
,
0010
0000
0000
0000
,
0100
0000
0000
0001
,
0001
0000
1000
0000
,
0001
0000
1000
0000
,
0010
0010
0000
0000
,
0000
1000
0000
0000
0000
0000
0100
0000
,
0000
0000
0000
0000
,
0000
0000
0000
0200
,
0000
0000
0000
0000
,
0300
0000
0000
0000
,
0000
0001
0000
0000
,
0000
0010
0000
0000
0000
0000
0000
0000
,
0000
2000
0000
0000
0000
0000
0000
0000
,
0000
0000
3000
0000
,
0000
0010
0000
0000
,
0000
0001
0000
0000
0000
0000
0000
0000
,
1000
0000
0000
0000
,
0000
0100
0000
0000
,
1001
0000
0000
0000
,
0000
1000
0000
0000
0000
0000
0000
0000
,
1100
0000
0000
0000
,
1001
0000
0000
0000
,
0110
0000
0000
0000
,
0000
1000
0000
0000
0000
0000
0000
0000
,
0002
0000
0000
0000
,
0003
0000
0000
0000
,
0011
0000
0000
0000
,
0000
0010
0000
0000
0000
0000
0000
0000
,
0110
0000
0000
0000
,
0101
0000
0000
0000
,
1001
0000
0000
0000
,
0000
0100
0000
0000
0000
0000
0000
0000
,
0001
0000
0000
0000
,
0000
0000
0000
0000
,
1000
0000
0000
0000
,
0010
0000
0000
0000
,
0000
0000
0000
0000
,
0000
0000
0100
0000
,
0000
0000
0001
0000
,
0000
0000
0001
0000
,
0100
0000
0000
0000
,
0000
0000
0000
0000
,
0001
0000
0010
0000
,
0100
0000
1000
0000
,
1000
0000
1000
0000
,
0010
0000
0010
0000
,
0100
0000
0100
0000
,
0001
0000
0001
0000
,
0000
1000
0000
0000
,
0000
0010
0000
0000
,
1000
0000
1000
0000
,
0001
0000
0010
0000
,
0010
0000
0100
0000
,
0100
0000
0001
0000
,
1000
0000
0001
0000
,
0100
0000
0100
0000
,
1000
0000
1000
0000
,
0010
0000
0010
0000
,
0002
0000
0003
0000
,
0002
0000
0000
0000
,
0003
0000
0000
0100
,
0200
0000
0000
0000
,
0300
0000
0000
0010
,
0020
0000
0000
0000
,
0030
0000
0000
0000
,
1000
0000
0000
0000
,
0001
0000
0010
0000
,
0000
0000
0000
0000
,
1000
0000
0000
0000
,
0100
0000
0000
0000
,
0100
0000
0000
0000
,
0001
0000
0000
0000
,
0010
0000
0000
0000
,
1000
0000
0000
0000
,
0001
0000
0000
0000
,
0000
0000
0000
0000
,
0000
0000
0000
0000
,
0000
0000
0000
0000
,
0000
0000
0000
0000
,
0000
0100
0000
0000
,
0000
0002
0000
0000
0000
0000
0000
0000
,
0003
0000
0000
0000
,
0000
0000
0000
0000
,
0000
1000
0000
0000
,
0000
0010
0000
0000
0000
0000
0010
0000
,
0000
0000
0000
0000
,
1000
0000
0000
0000
,
1001
0000
0000
0000
,
0000
0001
0000
0000
0000
0000
0000
0000
,
0011
0000
0000
0000
,
1001
0000
0000
0000
,
0110
0000
0000
0000
,
0000
0001
0000
0000
0000
0000
0000
0000
,
2000
0000
0000
0000
,
3000
0000
0000
0000
,
1100
0000
0000
0000
,
0000
0100
0000
0000
0000
0000
0000
0000
,
0110
0000
0000
0000
,
1010
0000
0000
0000
,
1001
0000
0000
0000
,
0000
0010
0000
0000
0000
0000
0000
0000
,
1000
0000
0000
0000
,
0010
0000
0010
0000
,
0100
0000
0000
0000
,
0010
0000
0000
1000
,
1000
0000
0001
0000
,
1000
0000
0001
0000
,
0100
0100
0000
0000
,
0000
0001
0000
0000
0000
0000
0010
0000
,
0000
0000
0000
1000
,
0000
0000
0000
0000
,
0100
0000
0000
0000
,
0010
0000
0000
0001
,
0001
0000
1000
0000
,
0001
0000
1000
0000
,
0100
0100
0000
0000
,
0000
1000
0000
0000
0000
0000
0010
0000
,
0000
0000
0000
0001
,
0000
0000
0000
1000
;

//--------------- dance-single - RxSteps ----------------
#NOTES:
     dance-single:
     RxSteps:
     Easy:
     4:
     0,0,0,0,0:
0000
0000
0000
0000
,
0000
0001
0010
0002
,
0003
0000
1000
0000
0001
1000
0001
0000
,
0100
0001
0100
0010
,
1000
0010
0100
0001
,
0001
0100
0100
0010
,
1000
0100
0010
0001
,
0101
0001
1000
0100
,
0000
1000
0000
0010
0100
0000
0010
0000
,
0010
1000
0100
0010
,
0001
0100
0001
0200
,
0000
0000
0000
0000
,
0000
0000
0000
0000
,
0300
0000
0002
0000
0003
0100
0001
0100
,
0000
0010
0000
1000
0000
0000
0002
0200
,
0000
0000
0000
0003
0000
0300
0002
0000
,
0000
2000
0000
0000
0000
0000
0000
0000
,
3003
0000
0002
0000
0003
1000
0010
1000
,
0000
0000
0010
0000
0000
1000
0000
0000
0000
0000
0000
0000
0001
0000
0000
0000
,
0200
0000
0000
0310
,
0000
0010
1000
0000
,
0101
0001
0100
0010
,
1000
0001
0100
0010
,
0220
0000
0330
0000
,
2002
0000
3003
0000
,
1100
1000
0100
1000
,
0000
0001
0000
0100
0001
0000
0100
0000
,
0001
0010
0100
0010
,
0100
0010
0100
1000
,
1100
1000
0001
0010
,
0001
0001
1000
0001
,
0202
0000
0303
0000
,
0220
0000
0000
0000
0000
0330
0000
0000
,
0011
0001
0010
0001
,
0000
1000
0000
0010
1000
0000
1000
0000
,
0002
0000
0000
0000
,
0000
0000
0000
0003
,
0100
0000
0010
0000
,
1000
0000
0200
0000
,
0000
0000
0000
0000
,
0300
0000
1000
0001
,
0001
0000
0010
0000
,
0002
0000
0003
0000
1000
0001
1000
0002
,
0000
0000
0000
0000
,
0000
0000
0000
0003
,
1000
0010
0100
0001
,
0001
0010
0100
0010
,
0001
0100
0010
1000
,
0010
0010
0100
0100
,
0001
1000
0020
0000
,
0000
1000
0000
0000
0000
0000
0000
0000
0230
0000
0000
0000
0000
0000
0000
0000
,
0000
0010
0301
0000
,
0000
0002
0003
0000
,
0100
0100
0100
0100
,
0101
0000
0110
0000
,
1100
0000
0000
0000
1100
0000
0000
1000
,
0010
0000
0110
0000
,
0001
0100
0010
0100
,
0001
2010
0000
3100
,
0000
0102
0000
0013
,
0000
2001
0000
3010
,
1000
1000
0001
0001
,
1000
0010
0100
0010
,
0100
0000
0001
0000
0010
0000
0001
0010
,
0001
0010
0100
1000
,
0010
0000
0100
0000
0001
0000
0010
0001
,
0010
0001
0100
0010
,
1000
0100
1000
0001
,
0100
0010
1000
0100
,
1000
0001
0001
1000
,
0010
0200
0300
0002
,
0003
2000
3000
0200
,
0300
2000
3000
0020
,
0030
0200
0300
0002
,
0003
0200
0300
0002
,
0003
0020
0030
0002
,
0003
2000
3000
1000
,
0000
0010
0000
0020
,
0000
0000
0000
0000
,
0000
0000
0000
0000
,
0000
0000
0000
0000
,
0000
0000
0000
0000
,
0030
0000
2000
0000
3000
0001
1000
0001
,
0000
0100
0000
0020
0000
0000
0030
2000
,
0000
0000
0000
0000
,
0000
0000
0000
0000
,
3000
0000
0020
0000
0030
0100
0010
0100
,
0000
0001
0000
0002
0000
0000
2003
0000
,
0000
0000
3000
0010
,
0000
0010
0000
0000
1000
0000
0000
0000
,
1010
1000
0010
0100
,
0001
1000
0010
0100
,
0220
0000
0330
0000
,
2002
0000
3003
0000
,
0011
0001
0010
0001
,
0000
1000
0000
0010
1000
0000
0010
0000
,
1000
0100
0010
0100
,
0010
0100
0010
0001
,
0011
0001
1000
0100
,
1000
1000
0001
1000
,
2020
0000
3030
0000
,
0220
0000
0000
0000
0000
0330
0000
0000
,
1100
1000
0100
1000
,
0000
0001
0000
0100
0001
0000
0001
0000
,
2000
0000
3000
0200
,
0300
0000
0000
0000
1000
0001
1000
0000
,
0010
1000
0010
0100
,
0001
0100
0010
1000
,
1000
0010
0010
0100
,
0001
0010
0100
1000
,
1010
1000
0001
0010
,
0000
0001
0000
0100
0010
0000
0100
0000
,
0100
0001
0010
0100
,
1000
0010
0010
0100
,
0100
0001
0010
0100
,
1000
0100
0010
0001
,
0001
0010
0010
0100
,
1000
0010
0100
0001
,
0011
0001
1000
0010
,
0000
1000
0000
0100
0010
0000
0100
0000
,
0100
1000
0010
0100
,
0001
0010
0001
1000
;

//--------------- dance-single - RxSteps ----------------
#NOTES:
     dance-single:
     RxSteps:
     Medium:
     7:
     0,0,0,0,0:
0000
0000
0000
0000
,
0000
1000
0001
0100
0001
1000
0002
0000
,
0003
0100
0010
1000
0010
1000
0001
0100
,
0010
0000
0100
0010
0100
0001
1000
0001
,
1000
0010
0100
0010
1000
0010
0100
0010
,
1000
0001
1000
0001
0100
0001
0100
0001
,
1000
0010
1000
0010
0100
0001
0010
0100
,
1000
0001
1000
0010
0100
0001
0100
0010
,
0100
0010
1000
0100
1000
0100
1000
0010
,
0100
0001
0010
0100
1000
0001
0010
0100
,
1000
0020
0130
1000
0100
1000
0002
0000
,
0000
0000
0000
0000
,
0000
0000
0000
0000
0000
0000
0000
0003
,
0000
0000
1000
0001
1000
0001
0100
0010
,
0000
0100
0010
1000
0100
1000
0001
0100
,
0001
0100
0001
0100
0010
1000
0010
1000
,
0100
0010
0100
0010
0001
0100
0010
1000
,
0000
0000
0001
0100
0001
1000
0100
1000
,
0000
0000
0010
0000
0000
0100
0010
0000
0100
0000
0001
0000
0100
0000
0001
0000
,
1000
0010
0100
0001
1000
0001
0200
0000
,
0301
1000
0001
0000
0100
0020
0130
1000
,
0001
0000
0100
0010
0100
0001
1000
0100
,
0000
1000
0010
1000
0001
1000
0010
0000
,
0101
0000
0000
1000
0001
0000
1000
0000
0010
0000
0100
0000
0001
0000
0000
0000
,
1100
0000
0000
0100
1000
0000
0100
0000
2000
0000
0000
0000
3020
0000
0000
0000
,
0130
0000
0001
0100
0001
1000
0100
1000
,
0010
0100
0001
0010
0001
1000
0010
0100
,
0001
0100
0010
0100
,
0010
0000
1000
0000
0200
0310
1000
0100
,
0010
0100
1000
0001
1000
0010
1000
0010
,
0100
0001
0010
0001
0100
0001
0100
0000
,
1100
0000
0000
0001
0100
0000
0001
0000
1000
0000
0010
0000
0100
0000
0000
0000
,
0011
0000
0000
1000
0100
0000
1000
0000
0001
0000
0100
0000
0001
0000
1000
0000
,
0010
0100
0001
1000
0001
0100
0010
1000
,
0000
0001
0100
0010
0100
0001
0010
0100
,
2000
0000
0000
0000
,
0000
0000
0000
0000
0000
0000
3000
0001
,
0200
0000
0000
0300
0020
0000
0000
0030
,
2000
0000
0000
3000
0001
0200
0000
0000
,
0000
0000
0000
0000
,
0000
0000
0300
0000
0001
0100
0010
1000
,
0020
0000
0000
0030
1000
0002
0000
0000
,
0000
0000
0000
0003
1000
0010
1000
0200
,
0000
0000
0000
0000
,
0000
0000
0000
0300
,
1000
0001
0010
0100
1000
0020
0030
1000
,
0001
0100
0001
1000
0010
0100
0001
0010
,
0001
1000
0100
0010
0100
0010
0001
1000
,
0010
0100
0001
0010
0001
1000
0100
1000
,
0010
1000
0100
0010
0001
1000
0010
0100
,
0001
1000
0001
0100
0010
1000
0010
0100
,
0001
1000
0001
0100
0010
0200
0000
0000
,
0300
0001
1000
0010
1000
0001
0100
0010
,
1000
0001
0100
0010
0100
0001
1000
0000
,
0110
1001
0110
1001
,
0110
0000
1100
0000
0011
0000
1000
0010
,
0100
0101
1010
0101
,
1000
0100
0010
0001
0100
0010
1000
0001
,
1000
0000
0000
0000
0010
1000
0000
0000
0100
1000
0000
0000
0010
0100
0000
0000
,
0100
0010
0000
0000
0100
0001
0000
0000
1000
0001
0000
0000
0001
1000
0000
0000
,
0010
1000
0000
0000
0001
0100
0000
0000
0010
1000
0000
0000
0010
0100
0000
0000
,
0002
0200
0003
0310
1000
0001
0010
0001
,
0010
0001
0100
0010
1000
0010
0100
0001
,
0010
0000
0001
0000
1000
0000
0001
0000
0010
0000
0000
0002
0200
0303
0000
0000
,
1100
0110
0101
1010
,
1001
0000
0110
0000
0001
0200
0310
0001
,
0010
0001
1000
0010
0100
0010
1000
0010
,
0100
0001
0100
0010
0100
0001
0100
0010
,
1000
0001
1000
0100
0010
0001
0100
0010
,
1000
0002
0013
1000
0010
0010
1000
0000
,
0001
0100
0010
0000
0010
0100
0001
0000
,
0001
1000
0100
0000
0100
1000
0010
0000
,
1000
0001
0100
0000
0100
0010
1000
0000
,
1000
0100
0010
0000
0010
0001
0100
0000
,
0001
1000
0010
0000
0010
0100
0001
0000
,
0001
1000
0100
0000
0100
0010
0001
0000
,
1000
0100
0010
0000
0010
0100
1000
0000
,
0020
1000
0130
0002
,
2000
0000
0000
0000
,
0000
0000
0000
0000
,
0000
0000
0000
0000
,
0000
0000
0000
0000
,
3003
0000
0001
0100
0001
1000
0100
0010
,
0000
0100
0010
0100
1000
0001
1000
0010
,
0200
0000
0000
0000
,
0000
0000
0000
0000
0000
0000
0000
0300
,
0000
0000
0001
1000
0001
0100
0001
0010
,
0000
0000
0100
0000
0000
1000
0100
0000
1000
0000
0100
0000
1000
0000
0001
0000
,
0000
0100
0001
0100
0010
1000
0002
0000
,
0003
0000
0100
0000
0010
0000
0000
0100
0000
0000
0001
0000
0100
0000
0001
0000
,
1000
0000
0010
0100
0010
1000
0001
0100
,
0000
0001
0100
0001
1000
0100
1000
0010
,
0100
0000
0000
0001
0100
0000
0001
0000
0100
0000
0010
0000
1000
0000
0000
0000
,
0110
0000
0000
1000
0001
0000
1000
0000
0002
0000
0000
0000
0103
0000
0000
0000
,
1010
0000
0001
0100
0001
0100
0010
1000
,
0001
1000
0010
0100
0010
1000
0001
1000
,
0020
0000
0130
0000
0001
0010
0100
0000
,
2000
0000
3010
0000
1000
0100
1000
0001
,
0100
0000
0010
1000
0010
0100
0001
1000
,
0010
0100
0010
1000
0001
0100
0010
1000
,
0001
0000
0000
1000
0100
0000
1000
0000
0100
0000
1000
0000
0001
0000
0000
0000
,
0110
0000
1000
0001
0100
0001
1000
0010
,
0100
0000
0001
1000
0001
0010
0001
0100
,
0010
1000
0100
1000
0010
0100
0010
1000
,
0002
0000
0000
0000
0000
0003
2000
0000
,
3000
0010
2000
3000
0010
0100
0001
0100
,
0010
0100
0010
1000
0001
1000
0001
0100
,
0010
0100
0001
0100
0010
0100
0001
1000
,
0001
1000
0010
1000
0010
1000
0001
0100
,
0001
0100
0010
1000
0100
0010
0001
1000
,
0001
0100
0010
1000
0010
0100
0010
0100
,
0001
0010
0001
0010
0001
0100
0010
1000
,
0100
0010
0001
1000
0100
0010
0001
0200
,
0310
0001
0010
0001
0100
0010
0100
0001
,
1000
0001
1000
0010
0100
0010
1000
0010
,
0100
0010
1000
0001
1000
0001
0100
0001
,
0100
0001
1000
0010
1000
0010
0100
0001
,
0010
0100
1000
0001
1000
0010
0100
0001
,
0100
0010
0100
0010
1000
0100
1000
0100
,
1000
0010
0100
0001
0010
0100
1000
0001
,
0010
0100
1000
0020
0130
1000
0100
1000
,
0002
0203
0302
1003
;

//--------------- dance-single - RxSteps ----------------
#NOTES:
     dance-single:
     RxSteps:
     Hard:
     9:
     0,0,0,0,0:
0000
0000
0000
0000
,
0000
1000
0000
0010
0000
0000
0100
0000
0010
0000
0000
0000
1000
0000
0000
0000
,
0100
1000
0000
0000
0001
0000
0000
0001
0000
0000
0100
0000
1000
0000
0100
0000
,
0002
0003
0100
1000
0001
0010
1000
0200
,
0300
0100
0001
1000
0010
0001
0100
1000
,
0100
0001
0100
1000
0100
0010
1000
0100
,
0010
0001
0010
0100
1000
0010
0100
0001
,
0020
0030
0001
0010
1000
0010
0001
0010
,
0000
0000
0010
0000
0000
0001
0100
0000
0001
0000
0100
0000
0001
0000
1000
0000
,
0100
0001
1000
0010
0001
0100
1000
0001
,
0010
1000
0100
0001
1000
0010
0002
0000
,
0000
0000
0000
0000
,
0000
0000
0000
0000
,
0003
0000
1000
0010
0100
0001
0010
0001
,
0000
0001
0100
0010
1000
0100
1000
0100
,
0001
0100
1000
0100
0001
0100
2000
0000
,
3010
0000
0000
0000
1000
0000
0000
1000
0000
0000
0001
0000
0010
0000
0100
0000
,
0000
0000
1000
0100
0010
0001
1000
0010
,
0000
0000
0010
0000
0000
1000
0010
0000
0010
0000
1000
0000
0001
0000
0100
0000
,
0001
0020
0000
0100
0030
0000
2000
0000
,
3000
0010
0000
0000
0100
0000
0000
0010
0000
0000
0100
0000
0001
0000
0010
0000
,
1010
0000
1000
0100
0010
0001
0010
0001
,
0000
1000
0010
0100
0100
0001
1000
0010
,
1100
0000
0000
0100
0001
0000
0100
0000
0000
0001
0000
0000
1010
0000
0000
0000
,
1100
0000
0000
1000
0010
0000
1000
0000
0002
0000
0000
0000
0013
0000
0000
0000
,
0101
0000
0001
0100
1000
0100
0001
0100
,
0000
0000
1100
0000
0000
1000
0100
0000
1000
0000
0010
0000
0100
0000
0001
0000
,
0200
2300
3002
0023
,
2030
0000
3200
0000
0301
0100
1000
0010
,
0101
0000
0001
1000
0100
0010
0100
1000
,
0000
1000
0001
0010
0100
0010
0001
1000
,
0110
0000
0000
0001
1000
0000
0001
0000
0000
0100
0000
0000
0010
0000
0000
0000
,
1100
0000
0000
1000
0100
0000
0010
0000
0000
0000
0010
0000
0001
0000
1000
0000
,
0110
0000
0001
0010
0100
1000
0100
1000
,
0000
0000
0101
0000
0000
0001
0100
0000
0010
0000
1000
0000
0100
0000
1000
0000
,
0020
0000
0000
0000
,
0000
0000
0000
0000
0000
0000
0031
0020
,
1000
0000
0000
1000
0030
0000
0010
0000
0001
0000
0010
0000
0000
0000
0000
0000
,
1000
0000
0000
0100
0000
0010
0100
0000
0010
0000
0100
0000
0000
0000
2000
0000
,
0000
0000
0000
0000
,
0000
0000
3000
0000
0001
0100
0010
1000
,
0010
0000
0000
0100
0000
0000
0200
0000
1300
0000
0100
0000
0000
0000
0000
0000
,
0000
0001
0100
0001
0000
1000
0001
1000
0010
0000
1000
0000
0100
0000
2000
0000
,
0000
0000
0000
0000
,
0000
0000
0000
3000
,
0001
1000
0010
0100
0001
1000
0010
0100
,
1000
0100
0001
0100
1000
0100
0010
1000
,
0100
0001
0100
1000
0100
0001
0100
1000
,
0020
0000
0031
1000
0001
1000
0001
1000
,
0200
0000
0310
1000
0100
0010
0100
1000
,
0001
0010
0100
0010
0100
1000
0002
0000
,
0203
0000
0310
1000
0100
2000
0000
3000
,
0000
0001
0100
0000
0001
0000
0010
0000
0001
0000
0100
0000
0010
0000
1000
0000
,
0100
0001
0100
1000
0100
0001
0100
1000
,
0101
1100
0101
0110
,
1001
0000
0110
0000
1010
0000
0001
0010
,
0001
1100
0011
0110
,
1000
0010
0100
0001
0010
0001
0100
0010
,
1100
0000
0000
0000
0001
0100
0000
0000
1000
0100
0000
0000
0010
0100
0000
0000
,
0100
0010
0000
0000
1000
0010
0000
0000
0001
0010
0000
0000
1000
0001
0000
0000
,
0001
1000
0000
0000
0010
1000
0000
0000
0100
1000
0000
0000
0001
0010
0000
0000
,
0001
0100
0000
0001
0100
1000
0100
0001
,
0100
1000
0001
0010
1000
0100
0001
1000
,
0010
0001
0100
1000
0001
0010
0002
0003
,
0010
1000
0100
0001
1000
0010
0001
0100
,
1000
0001
0010
1000
0100
0001
2000
3000
,
0001
1000
0010
0100
1000
0001
0100
0010
,
0001
1000
0001
1000
0100
0010
1000
0001
,
0010
0100
1000
0010
0100
0001
0010
0001
,
0100
1000
0100
0001
0010
1000
0010
0000
,
0002
0203
0320
2030
,
3200
0302
0203
2300
,
3020
0230
2300
3200
,
0302
0203
2300
3200
,
0320
2030
3002
0203
,
0320
2030
3020
0230
,
0302
0023
0000
0001
,
0000
0001
0000
0200
,
0000
0000
0000
0000
,
0000
0000
0000
0000
,
0000
0000
0000
0000
,
0000
0000
0000
0000
,
0330
0000
1000
0001
1000
0010
0100
0001
,
0000
0010
0100
1000
0100
1000
0200
0020
,
0000
0000
0000
0000
,
0000
0000
0000
0000
,
0330
0000
0001
0010
0100
0010
0100
1000
,
0000
0000
0001
0000
0000
1000
0010
0000
1000
0000
0010
0000
0100
0000
0001
0000
,
2000
0000
3000
0200
0000
0000
0002
0300
,
0003
0100
0000
0000
1000
0000
0000
0010
0000
0000
0010
0000
1000
0000
0100
0000
,
0101
0000
0001
0010
0100
1000
0100
1000
,
0000
0001
0100
0010
0010
1000
0001
0100
,
0011
0000
0000
0010
1000
0000
0010
0000
0000
1000
0000
0000
0101
0000
0000
0000
,
0011
0000
0000
0001
0100
0000
0001
0000
2000
0000
0000
0000
3100
0000
0000
0000
,
1010
0000
1000
0010
0001
0010
1000
0010
,
0000
0000
0011
0000
0000
0001
0010
0000
0001
0000
0100
0000
0010
0000
1000
0000
,
0001
0010
0100
1000
0100
0010
0001
1000
,
0001
0010
0001
0010
0100
1000
0010
0100
,
1100
0000
1000
0010
0100
0001
0100
0001
,
0000
1000
0100
0010
0010
0001
1000
0100
,
1010
0000
0000
0010
0001
0000
0010
0000
0000
0001
0000
0000
1100
0000
0000
0000
,
1010
0000
0000
1000
0100
0000
1000
0000
0000
0001
0000
0000
1000
0010
0000
0000
,
0011
0000
0001
0010
1000
0010
0001
0010
,
0000
0000
1010
0000
0000
1000
0010
0000
1000
0000
0001
0000
0100
0000
0001
0000
,
1000
0000
0000
0020
0000
0000
0032
0000
,
0013
0001
0000
0000
0010
0100
0001
0000
,
0002
0003
0100
1000
0001
0010
1000
0200
,
0300
0100
0001
1000
0010
0001
0100
1000
,
0100
0001
0100
1000
0100
0010
1000
0100
,
0010
0001
0010
0100
1000
0010
0100
0001
,
0020
0030
0001
0010
1000
0010
0001
0010
,
0000
0000
0010
0000
0000
0001
0100
0000
0001
0000
0100
0000
0001
0000
1000
0000
,
0100
0001
1000
0010
0001
0100
1000
0001
,
0010
1000
0100
0001
1000
0010
0002
0000
,
2003
0000
3200
0301
1000
0010
0001
0200
,
0300
0100
1000
0001
0010
1000
0100
0001
,
0100
1000
0100
0001
0100
0010
0001
0100
,
0010
1000
0010
0100
0001
0010
0100
1000
,
0020
0030
1000
0010
0001
0010
1000
0010
,
0000
0000
0010
0000
0000
1000
0100
0000
1000
0000
0100
0000
1000
0000
0001
0000
,
0100
1000
0001
0010
1000
0100
0001
1000
,
0010
0001
0100
1000
0001
0010
1000
0000
;
