#TITLE:Rat River;
#SUBTITLE:;
#ARTIST:LemKuuja;
#TITLETRANSLIT:;
#SUBTITLETRANSLIT:;
#ARTISTTRANSLIT:;
#GENRE:;
#CREDIT:RxSteps;
#MUSIC:Rat River.ogg;
#BANNER:Rat River.png;
#BACKGROUND:Rat River-BG.png;
#CDTITLE:cdtitle.png;
#SAMPLESTART:52.391;
#SAMPLELENGTH:21.818;
#SELECTABLE:YES;
#OFFSET:2.154;
#BPMS:0.000=110.000;
#STOPS:;
#BGCHANGES:;
#FGCHANGES:;

//--------------- dance-single - RxSteps ----------------
#NOTES:
     dance-single:
     RxSteps:
     Beginner:
     1:
     0,0,0,0,0:
0000
0000
0000
0000
,
0001
0000
0000
0000
,
0001
0000
0000
0000
,
1000
0000
0000
0000
,
1000
0000
0000
0000
,
0010
0000
0000
0000
,
0100
0000
0000
0000
,
0100
0000
0000
0000
,
0001
0000
1000
0000
,
1000
0000
0000
0000
,
0010
0000
0000
0000
,
1000
0000
0000
0000
,
0001
0000
0000
0000
,
0100
0000
0000
0000
,
0100
0000
0000
0000
,
1000
0000
0000
0000
,
0010
0000
0001
0000
,
0001
0000
0000
0000
,
1000
0000
0000
0000
,
0001
0000
0000
0000
,
0001
0000
0000
0000
,
0100
0000
0000
0000
,
0100
0000
0000
0000
,
0010
0000
0000
0000
,
1000
0000
0000
0000
,
2000
0000
3000
0000
,
0001
0000
0001
0000
,
1000
0000
0000
0000
,
0010
0000
0000
0000
,
0100
0000
1000
0000
,
1000
0000
0000
0000
,
0100
0000
0000
0000
,
0001
0000
0000
0000
,
0010
0000
0001
0000
,
0001
0000
0000
0000
,
1000
0000
0000
0000
,
1000
0000
0000
0000
,
0100
0000
1000
0000
,
1000
0000
0000
0000
,
0001
0000
0000
0000
,
0010
0000
0000
0000
,
0001
0000
0010
0000
,
0001
0000
0000
0000
,
1000
0000
0000
0000
,
0010
0000
0000
0000
,
0100
0000
1000
0000
,
1000
0000
0000
0000
,
0010
0000
0000
0000
,
0001
0000
0000
0000
,
0001
0000
0000
0000
,
2000
0000
0000
0000
,
0000
0000
0000
0000
0000
3000
0000
0000
;

//--------------- dance-single - RxSteps ----------------
#NOTES:
     dance-single:
     RxSteps:
     Easy:
     4:
     0,0,0,0,0:
0000
0000
0000
0000
,
0001
0000
0100
0001
,
0100
0000
0010
1000
,
0010
0000
0100
0010
,
0100
0000
0001
0001
,
0100
0000
0100
0001
,
0100
0000
0001
1000
,
0100
0000
1000
0001
,
0010
0001
0010
0001
,
1000
1000
0001
0001
,
0100
0100
0001
0001
,
1000
0100
0010
0000
,
0001
0010
0100
0000
,
1000
0001
1000
1000
,
0100
1000
0001
0000
,
1000
0100
0010
0001
,
1000
0001
1000
1000
,
1000
0001
0100
0100
,
0001
0100
0001
0000
,
1000
0010
1000
0000
,
0001
0100
0010
0010
,
0100
0001
1000
0000
,
0001
1000
0010
0000
,
1000
0100
0010
0000
,
0001
0010
0100
0200
,
0000
0000
0000
0300
,
0000
1000
0001
0100
,
0001
0001
1000
0010
,
1000
1000
0100
0010
,
0100
0100
1000
0001
,
1000
0010
1000
0001
,
0100
0100
0001
0100
,
0001
0001
0010
0001
,
1000
1000
0001
0100
,
0000
0001
1000
0010
,
1000
1000
0100
1000
,
0001
0010
0100
1000
,
0100
0100
1000
0001
,
1000
1000
0010
1000
,
0010
0010
0100
0001
,
0010
0001
1000
0010
,
0100
0100
0001
0001
,
1000
0001
0100
0100
,
0001
1000
0100
0000
,
1000
0001
1000
0000
,
0001
0010
0100
0000
,
1000
0100
0010
0000
,
0010
0100
1000
0000
,
1000
0001
1000
0000
,
0010
0100
0010
2000
,
0000
0000
0000
0000
,
0000
0000
0000
0000
0000
3000
0000
0000
;

//--------------- dance-single - RxSteps ----------------
#NOTES:
     dance-single:
     RxSteps:
     Medium:
     5:
     0,0,0,0,0:
0000
0000
0000
0000
,
1000
0000
0010
0000
1000
0001
1000
0000
,
0010
1000
0001
0110
,
1000
0000
0100
0000
0010
0100
0010
0000
,
0100
0000
1000
0000
0001
0100
0001
0000
,
1000
0000
0010
0000
0100
0001
0100
0000
,
0010
1000
0100
1001
,
1000
0000
0001
0000
1000
0001
1000
0000
,
0001
0000
0100
0000
0001
0100
0001
0000
,
2000
0000
0010
0000
0010
3000
0001
1000
,
0002
0000
0100
0003
0100
0001
1000
0000
,
0001
0000
0010
0000
0100
0010
0100
0000
,
1000
0000
0100
0000
0010
0100
0010
0000
,
0001
0100
0010
0100
,
0101
0000
0001
0000
1000
0010
1000
0000
,
0002
0100
0100
0103
,
2000
0000
3010
0000
1000
0010
1000
0000
,
0001
0000
0100
0000
0001
0100
0001
0000
,
1000
0000
0010
0000
1000
0010
1000
0000
,
0001
0000
0100
0000
0001
1000
0001
0000
,
0100
0100
2002
3003
,
0001
0000
0010
0000
0001
0010
0001
0000
,
1000
0000
0100
0000
1000
0100
1000
0000
,
0001
0000
1000
0000
0010
0100
0010
0000
,
1000
0000
0001
0000
1000
0001
1000
0020
,
0000
0000
0000
0130
,
1001
0000
0110
0000
,
0001
0100
0001
0000
1000
0010
1000
0000
,
0001
0000
0001
1000
0001
0000
0100
0000
,
0001
0010
0001
0000
0101
0000
0000
0000
,
0110
0000
1000
0001
,
1000
0100
1000
0000
0010
0000
1000
0000
,
1000
0001
0001
0100
,
0001
0010
0001
0000
2000
0000
0200
0000
,
3300
1000
0001
0100
,
0001
0100
0001
0000
1000
0000
0100
0000
,
1000
1000
0001
0010
,
0100
0010
0100
0000
2000
0000
0002
0000
,
3003
1000
0010
0100
,
0010
0100
0010
0000
1000
0000
0100
0000
,
1000
1000
0001
0100
,
0010
0100
0010
0000
0100
0010
0100
0000
,
0001
0000
1000
0000
0010
1000
0010
0000
,
1000
0000
0010
0000
0100
0001
0100
0000
,
0001
0000
0100
0000
0010
1000
0010
0000
,
1000
0001
0200
0001
,
0301
0000
1000
0000
0010
1000
0010
0000
,
1000
0000
0001
0000
0010
0001
0010
0000
,
0001
0000
1000
0000
0001
1000
0001
0000
,
0100
0000
0010
0000
1000
0002
2000
0000
,
0000
0000
0000
0000
,
0000
0000
0000
0000
0000
3003
0000
0000
;

//--------------- dance-single - RxSteps ----------------
#NOTES:
     dance-single:
     RxSteps:
     Hard:
     7:
     0,0,0,0,0:
0000
0000
0000
0000
,
1000
0000
0010
0000
0100
0000
0010
0000
1000
0000
0001
1000
0001
0000
0000
0100
,
0001
0100
0001
1000
0010
1000
0001
0000
,
0100
0000
0010
0000
0100
0000
0001
0000
1000
0000
0010
0100
0010
0000
0000
1000
,
0010
0100
0010
0100
0001
0100
0010
1000
,
0010
0000
1000
0000
0001
0000
0100
0000
0001
0000
1000
0001
1000
0000
0000
0010
,
1000
0010
0100
0001
1000
0010
0100
0100
,
0010
0000
1000
0000
0001
0000
1000
0000
0001
0000
0100
0001
0100
0000
0000
0010
,
0100
0010
1000
0010
1000
0010
0100
0001
,
2000
0000
0000
0000
0100
0000
0000
0000
0001
0000
0000
0000
3001
0000
1000
0001
,
0200
0000
0000
0000
0010
0000
0000
0000
0301
0000
1000
0001
0000
1000
0000
0000
,
0010
0000
1000
0000
0010
0100
1000
0010
,
2000
0000
0000
0000
0001
0000
0000
0000
3010
0000
1000
0010
1000
0000
0000
0000
,
0002
0000
0000
0000
2000
0000
0003
0000
0010
0000
3000
0000
0100
0000
0001
0100
,
0002
0000
0100
0000
1003
0010
0001
1000
,
0001
0000
0010
0000
0001
0000
1000
2000
,
3010
0000
0100
0000
0001
0010
0100
1000
,
0101
0000
1000
0000
0010
0001
1000
0000
,
1000
0000
0010
0000
0100
0001
0010
0001
,
1000
0010
0100
0001
0100
0100
0010
1000
,
0001
0000
1000
0000
0010
0000
0100
0000
0001
0100
0001
0100
0000
0001
1000
0000
,
0001
0100
0001
0010
0100
0100
0001
1000
,
0010
0000
0100
0000
0001
0000
1000
0000
0001
1000
0001
0000
0100
0000
0010
0000
,
1000
0001
1000
0100
0010
1000
0001
1000
,
0010
0000
1000
0000
0001
0000
0100
0000
0010
0100
0010
0100
0000
0020
2000
0000
,
0000
0000
0000
3030
,
0101
0000
1100
0000
0001
0010
0001
1000
,
0010
0010
0011
0000
1010
0000
1000
0100
,
1000
0001
1001
0000
1010
0000
0101
0000
,
1000
0000
0010
0000
0100
0000
0010
0000
1000
0010
1000
0000
0001
0100
0001
0000
,
0100
0001
1000
0100
0010
0100
1000
0001
,
0100
0000
1010
0000
0011
0000
0001
0100
,
0010
0000
0000
0000
0000
0000
1000
0000
0000
0000
0000
0000
0002
0000
0000
0000
0000
0000
0000
0000
0000
0000
0000
0000
1003
0000
0000
0000
0000
0000
0001
0000
0000
0200
0000
0000
0000
0000
0000
0000
0000
0000
0000
0000
0000
0000
0300
0000
,
0020
1030
0001
0100
,
0100
0010
1000
0010
0100
1000
0001
1000
,
0010
0100
0001
1000
0100
1000
0010
1000
,
0100
0010
0001
1000
0010
0100
0010
1000
,
0001
0000
0001
0000
1000
0000
0010
0000
1000
0010
1000
0000
0000
0200
0000
0000
,
1300
0000
0011
0000
1000
0010
0100
0010
,
1000
1000
0110
0000
1001
0000
1000
0100
,
1000
0000
0010
0000
1000
0010
1000
0000
0001
0000
0100
0001
0000
0000
0000
0000
,
1000
1000
0010
1000
0010
0100
0010
1000
,
0002
0000
0000
0000
0010
0000
0000
0000
1003
0000
0001
0000
1000
0000
0001
1000
,
0020
0000
0000
0000
0100
0000
0000
0000
1030
0000
0001
1000
0000
0001
0000
0000
,
0100
0000
0001
0000
0100
0010
0001
0100
,
0002
0000
0000
0000
1000
0000
0000
0000
0103
0000
0001
0100
0001
0000
0001
0100
,
0002
0000
0000
0000
1000
0000
0003
0000
0100
0001
0100
0000
0010
0000
1000
0000
,
0020
0000
0000
0000
1000
0000
0030
0000
1000
0010
1000
0000
0000
0100
0001
0000
,
0100
0000
0001
0000
0100
1000
0001
0001
,
0100
0000
0010
0000
1000
0100
0020
0002
,
0000
0000
0000
0000
,
0000
0000
0000
0000
0000
0033
0000
0000
;
