#TITLE:ROACHES;
#SUBTITLE:;
#ARTIST:LuLuYam;
#TITLETRANSLIT:;
#SUBTITLETRANSLIT:;
#ARTISTTRANSLIT:;
#GENRE:;
#CREDIT:RxSteps;
#MUSIC:ROACHES.ogg;
#BANNER:ROACHES.png;
#BACKGROUND:ROACHES-BG.png;
#CDTITLE:cdtitle.png;
#SAMPLESTART:40.027;
#SAMPLELENGTH:20.000;
#SELECTABLE:YES;
#OFFSET:1.973;
#BPMS:0.000=120.000;
#STOPS:;
#BGCHANGES:;
#FGCHANGES:;

//--------------- dance-single - RxSteps ----------------
#NOTES:
     dance-single:
     RxSteps:
     Beginner:
     2:
     0,0,0,0,0:
0000
0000
0000
0000
,
0001
0000
0000
0000
,
1000
0000
0000
0000
,
0010
0000
0000
0000
,
0010
0000
0000
0000
,
0100
0000
0000
0000
,
0100
0000
0000
0000
,
1000
0000
0000
0000
,
0001
0000
0000
0000
,
0001
0000
0000
0000
,
0010
0000
0000
0000
,
0010
0000
0000
0000
,
1000
0000
0000
0000
,
0001
0000
0000
0000
,
1000
0000
0000
0000
,
0010
0000
0000
0000
,
0010
0000
0000
0000
,
0100
0000
0000
0000
,
1001
0000
0000
0000
,
1000
0000
0000
0000
,
0101
0000
0000
0000
,
0010
0000
0000
0000
,
1000
0000
0000
0000
,
0010
0000
0000
0000
,
0010
0000
0000
0000
,
0001
0000
0001
0000
,
1000
0000
0000
0000
,
0010
0000
0010
0000
,
1000
0000
0000
0000
,
1000
0000
0001
0000
,
0001
0000
0000
0000
,
0100
0000
0100
0000
,
0001
0000
0000
0000
,
1001
0000
0000
0000
,
0010
0000
0000
0000
,
1000
0000
0000
0000
,
1000
0000
0000
0000
,
0010
0000
0000
0000
,
0100
0000
0000
0000
,
0001
0000
0000
0000
,
0001
0000
0000
0000
,
0001
0000
0000
0000
,
1000
0000
0000
0000
,
0100
0000
0000
0000
,
0100
0000
0000
0000
,
0010
0000
0000
0000
,
0010
0000
0000
0000
,
0001
0000
0000
0000
,
1000
0000
0000
0000
,
0001
0000
0000
0000
,
0010
0000
0000
0000
,
0010
0000
0000
0000
,
0001
0000
0000
0000
,
1000
0000
1000
0000
,
0001
0000
0000
0000
,
0100
0000
0000
0000
,
0010
0000
0000
0000
,
0010
0000
0000
0000
,
0100
0000
0000
0000
,
0001
0000
0000
0000
,
0001
0000
0000
0000
,
1100
0000
0000
0000
,
1000
0000
0000
0000
,
0010
0000
0000
0000
,
0010
0000
0000
0000
,
0100
0000
0000
0000
,
0010
0000
0000
0000
,
1000
0000
0000
0000
,
0001
0000
0000
0000
,
0001
0000
0000
0000
,
0100
0000
0000
0000
,
0100
0000
0000
0000
,
0010
0000
0000
0000
,
0001
0000
0000
0000
,
0100
0000
0000
0000
,
1000
0000
0000
0000
,
0100
0000
0000
0000
,
1000
0000
1000
0000
,
0001
0000
0000
0000
,
0010
0000
0010
0000
,
1000
0000
0000
0000
,
0100
0000
0100
0000
,
1000
0000
0000
0000
,
0100
0000
0100
0000
,
0001
0000
0000
0000
,
0001
0000
0000
0000
,
1000
0000
0000
0000
,
1000
0000
0000
0000
,
0010
0000
0000
0000
,
0010
0000
0000
0000
,
0100
0000
0000
0000
,
0100
0000
0000
0000
,
0000
0000
0000
0000
,
1001
0000
0000
0000
,
0010
0000
0000
0000
,
0100
0000
0000
0000
,
1000
0000
0000
0000
,
0001
0000
0000
0000
,
1000
0000
0000
0000
,
0001
0000
0000
0000
,
0001
0000
0000
0000
,
0010
0000
0000
0000
,
0010
0000
0000
0000
,
0100
0000
0000
0000
,
0100
0000
0000
0000
,
0001
0000
0000
0000
,
1000
0000
0000
0000
,
0010
0000
0000
0000
,
0100
0000
0000
0000
,
1000
0000
0000
0000
,
0010
0000
0000
0000
,
0010
0000
0000
0000
,
0100
0000
0000
0000
,
1000
0000
0000
0000
,
0001
0000
0000
0000
,
0001
0000
0000
0000
,
0010
0000
0000
0000
;

//--------------- dance-single - RxSteps ----------------
#NOTES:
     dance-single:
     RxSteps:
     Easy:
     4:
     0,0,0,0,0:
0000
0000
0000
0000
,
1000
0000
0001
0000
0100
0000
0000
0001
,
0100
0001
0010
0010
,
0001
0000
1000
0000
0100
0000
0000
1000
,
0100
0010
0001
0000
,
0001
0000
0010
0000
0100
0000
0000
1000
,
0100
1000
0010
0000
,
0100
0000
0100
0000
0001
0000
0000
0001
,
1000
0010
1000
0000
,
0001
0010
0100
1000
,
0010
0010
0100
0100
,
0001
1000
0001
0010
,
0001
0000
1000
0000
0001
1000
0001
0000
,
1000
0010
0100
0001
,
1000
0100
1000
0010
,
1000
0001
0010
0010
,
0001
0100
0010
0010
,
1000
0001
0100
0001
,
0001
1000
0010
0100
,
0100
0001
1000
0010
,
0010
1000
0001
0100
,
0100
0000
0010
0000
1000
0010
1000
0000
,
0010
0100
0001
0001
,
0000
0000
1000
0000
0010
0000
0000
1000
,
0010
1000
0100
1000
,
0001
0000
0010
0000
0100
0000
0000
2000
,
0000
0000
3001
0001
,
1000
0000
0100
0000
0010
0000
0000
0002
,
0000
0000
0003
0000
0000
1000
0001
1000
,
0001
0000
0100
0000
0100
0000
0000
0001
,
0100
0001
1000
1000
,
0010
0000
1000
0000
0100
0000
0000
1000
,
0100
1000
0001
0000
,
1010
0000
0101
0000
,
1000
0100
0010
0010
,
0001
0010
0100
0100
,
1000
0010
0100
0100
,
0001
1000
0010
0010
,
0100
0001
1000
1000
,
0001
0100
0010
0010
,
1000
0001
0100
0100
,
0001
0100
0001
0100
0001
0000
0000
0000
,
1000
0001
0010
0010
,
0001
0010
0001
0010
0001
0000
0000
0000
,
1000
0001
0100
0000
,
0010
1000
0001
0100
,
0010
1000
0001
0001
,
1000
1000
0010
0010
,
0100
0100
0001
0100
,
0010
1000
0100
0010
,
0001
0010
0100
0010
,
0100
0100
1000
0001
,
1000
0010
1000
0001
,
2000
3000
0020
0030
,
0200
0000
0300
0020
0000
0030
0000
0000
,
0200
0000
0300
0002
0000
0000
0003
0000
,
1000
0001
0001
1000
,
0010
0000
0000
1010
0000
1000
0000
0001
,
0000
0000
0000
0011
0000
0001
0000
1000
,
0000
0000
0000
1100
0000
1000
0000
0200
,
0000
0000
0300
1000
0000
0000
0000
0000
,
0101
0000
1010
0000
,
0001
0010
0100
0100
,
1000
0100
0010
0010
,
0001
0100
0010
0010
,
1000
0001
0100
0100
,
0010
1000
0001
0001
,
1000
0010
0100
0100
,
0001
1000
0010
0000
,
1010
0000
0011
0000
,
1000
0010
0100
0100
,
0001
0100
0010
0010
,
1000
0100
0010
0010
,
0001
1000
0100
0100
,
0010
0001
1000
1000
,
0001
0010
0100
0100
,
1000
0001
0010
0010
,
1000
0100
0010
0200
,
0000
0000
0300
1000
,
0001
0010
0100
0020
,
0000
0000
0030
0000
0000
0001
0010
0001
,
0010
0001
1000
0002
,
0000
0000
0003
0001
,
0100
0001
1000
2000
,
0000
0000
0000
0000
3000
0001
1000
0001
,
2000
0000
3000
0000
0000
0010
1000
0010
,
2000
0000
3000
0000
0000
0001
0100
0001
,
0200
0000
0300
0000
0000
0100
0001
0100
,
0002
0000
0003
0000
0000
0001
1000
0001
,
2000
0000
3000
0000
0000
0010
1000
0010
,
2000
0000
3000
0000
0000
0001
0010
0001
,
0020
0000
0000
0000
,
0000
0000
0000
0000
0030
0001
0000
0000
,
1010
0000
0101
0000
,
1000
0100
0010
0010
,
0001
0010
0100
0100
,
1000
0010
0100
0100
,
0001
1000
0010
0010
,
0100
0001
1000
1000
,
0001
0100
0010
0010
,
1000
0001
0100
0100
,
0001
0100
0001
0100
0002
0000
0003
0000
,
1000
0001
1000
0001
2000
0000
3000
0000
,
0010
1000
0010
1000
0020
0000
0030
0000
,
0100
0010
0100
0010
0200
0000
0300
0000
,
0001
0100
0001
0100
0002
0000
0003
0000
,
1000
0001
1000
0001
2000
0000
3000
0000
,
0100
1000
0100
1000
0200
0000
0300
0000
,
1000
0001
1000
0001
2000
0000
3000
0000
,
0001
0000
0010
0000
0100
0000
0000
1000
,
0100
1000
0010
0000
,
0100
0000
0100
0000
0001
0000
0000
0001
,
1000
0010
1000
0001
,
1000
0000
0100
0000
0010
0000
0000
0001
,
0010
0001
0100
0000
,
0010
0000
0010
0000
1000
0000
0000
1000
,
0001
0100
0002
0000
,
0003
0000
0000
0000
;

//--------------- dance-single - RxSteps ----------------
#NOTES:
     dance-single:
     RxSteps:
     Medium:
     6:
     0,0,0,0,0:
0000
0000
0000
0000
,
2000
0000
3200
0000
0320
0030
0000
0010
,
0100
1000
0100
0010
0001
0000
0001
0100
,
0020
0000
0230
0000
0302
0003
0000
0001
,
0010
0100
0010
0100
1000
0000
0000
0000
,
1000
0000
0001
0000
0100
0000
0001
0000
0010
0000
0000
0001
0000
0000
0001
0000
,
0010
0000
0100
0000
1000
0000
0100
0000
1000
0000
0000
1000
0000
0000
0010
0000
,
0100
0000
0010
0000
1000
0000
0010
0000
0100
0000
0000
0010
0000
0000
0100
0000
,
0001
0100
0010
1000
0010
0200
0000
0300
,
0001
1000
0000
0001
1000
0010
0100
0010
,
1000
0100
0010
0001
1000
0001
1000
0000
,
1100
0201
0001
0310
,
1001
0000
0110
0000
1000
0001
0100
0000
,
0001
0010
0001
0100
0010
1000
0200
0000
,
1300
0010
0100
0001
0010
0001
2000
0000
,
3100
1000
0100
0010
0002
0000
0203
0000
,
0301
0100
0010
1000
0001
0010
0002
0000
,
0003
1000
0010
1000
0001
0010
0002
0003
,
1000
0100
1000
0001
0100
0010
0200
0300
,
0001
0010
0100
1000
0100
0010
0002
0003
,
1000
0010
0100
0001
0010
0100
1000
0001
,
0010
0000
0001
0000
1000
0000
0001
0000
0100
0000
0001
0100
0000
0000
0001
0000
,
1000
0100
1000
0010
0100
0100
0010
1000
,
0000
0000
0001
0000
1000
0000
0001
0000
0100
0000
0010
0100
0000
0000
0010
0000
,
1000
0000
0100
0000
0020
0000
0001
0000
0230
0000
0000
1000
0300
0000
0000
0000
,
2000
0000
3200
0000
0320
0000
0030
0010
,
0100
0010
0100
0010
0001
0000
1000
0001
,
0020
0000
0230
0000
2300
0000
3000
0001
,
1000
0010
0100
0001
1000
0100
1000
0100
,
1000
0000
0100
0000
0010
0000
0001
0000
0100
0000
0000
0100
0000
0000
0001
0000
,
0100
0000
0001
0000
1000
0000
0010
0000
1000
0000
0000
1000
0000
0000
1000
0000
,
0010
0000
1000
0000
0001
0000
0100
0000
0010
0000
0000
0010
0000
0000
1000
0000
,
0001
0000
0010
0000
0100
0000
0010
0000
0002
0000
0000
2000
0000
0000
3003
0000
,
0001
0000
0100
0000
0010
0000
0100
0000
0001
0000
0000
0001
0000
0000
1000
0000
,
0100
0000
0010
0000
0100
0000
1000
0000
0010
0000
0000
0010
0000
0000
1000
0000
,
0001
0000
0010
0000
0001
0000
0100
0000
0010
0000
0000
0010
0000
0000
1000
0000
,
0100
0000
0010
0000
0001
0000
1000
0000
0010
0000
0000
0010
0000
0000
0010
0000
,
0100
0000
0001
0000
0010
0000
0001
0000
0100
0000
0000
0100
0000
0000
0001
0000
,
1000
0000
0010
0000
0100
0000
0001
0000
0010
0000
0000
0010
0000
0000
0001
0000
,
1000
0000
0100
0000
0010
0000
0001
0000
1000
0000
0000
1000
0000
0000
0001
0000
,
0010
0000
0100
0000
1000
0000
0010
0000
0100
0000
0000
0100
0000
0000
0000
0000
,
0001
0000
0100
0000
0001
0000
1000
0000
0010
0000
0000
0010
0000
0000
1000
0000
,
0100
0000
0010
0000
0001
0000
0010
0000
0100
0000
0000
0100
0000
0000
0100
0000
,
1000
0000
0100
0000
1000
0000
0010
0000
0100
0000
0000
0100
0000
0000
0001
0000
,
0100
0010
1000
0001
0020
0000
0030
0000
,
1010
0021
0031
1200
,
1300
0110
0001
1000
,
0011
1010
1000
0100
,
0101
1100
0001
0100
,
0001
0100
0001
1000
0010
0100
0010
1000
,
0100
0010
0001
0010
0001
1000
0100
0010
,
0001
1000
0010
0100
0010
1000
0001
0010
,
0001
1000
0100
1000
0010
0100
0001
0010
,
0002
0000
2003
0000
3020
0000
0000
0030
,
1000
0001
0100
0010
1000
0001
0020
0000
,
0031
0100
0010
1000
0100
1000
0020
0000
,
1030
0100
0010
0001
0010
0100
2000
0000
,
3001
0000
0000
0110
0000
1001
0000
1000
,
0200
0300
0000
0101
0000
1010
0000
0001
,
0200
0300
0000
0110
0000
1001
0000
1000
,
0020
0000
0030
0010
0100
0010
1000
0001
,
1000
0000
0010
0000
0100
0000
0010
0000
1000
0000
0000
1000
0000
0000
0001
0000
,
0010
0000
0100
0000
0010
0000
0001
0000
0100
0000
0000
0100
0000
0000
0001
0000
,
1000
0000
0100
0000
1000
0000
0010
0000
0100
0000
0000
0100
0000
0000
0001
0000
,
0010
0000
0100
0000
1000
0000
0001
0000
0100
0000
0000
0100
0000
0000
0100
0000
,
0010
0000
1000
0000
0100
0000
1000
0000
0010
0000
0000
0010
0000
0000
1000
0000
,
0001
0000
0100
0000
0010
0000
1000
0000
0100
0000
0000
0100
0000
0000
1000
0000
,
0001
0000
0010
0000
0100
0000
1000
0000
0001
0000
0000
0001
0000
0000
1000
0000
,
0100
0000
0010
0000
0001
0000
0100
0000
0010
0000
0000
0010
0000
0000
0000
0000
,
1000
0000
0010
0000
1000
0000
0001
0000
0100
0000
0000
0100
0000
0000
0001
0000
,
0010
0000
0100
0000
1000
0000
0100
0000
0010
0000
0000
0010
0000
0000
0010
0000
,
0001
0000
0010
0000
0001
0000
0100
0000
0010
0000
0000
0010
0000
0000
1000
0000
,
0010
0100
0001
1000
0200
0000
0300
1000
,
0100
0000
0010
0000
0100
0000
0010
0000
0001
0000
0000
0001
0000
0000
1000
0000
,
0010
0000
0100
0000
0010
0000
1000
0000
0100
0000
0000
0100
0000
0000
1000
0000
,
0001
0000
0100
0000
0001
0000
0010
0000
0100
0000
0000
0100
0000
0000
1000
0000
,
0010
0000
0100
0000
0001
0000
2000
0000
0100
0000
0000
0100
0000
0000
0000
0000
,
3002
0000
0023
0000
0230
0000
1300
0100
,
0010
0100
0010
0100
1000
0000
0001
1000
,
0200
0000
0320
0000
0032
0003
0001
1000
,
0001
0100
0010
1000
0001
0010
0001
0010
,
0002
0000
0203
0000
0320
0000
1030
0010
,
0100
0010
0100
0010
1000
0000
0001
1000
,
0020
0000
0230
0000
0302
0003
0001
1000
,
0001
0010
0100
1000
0001
0100
0001
0100
,
0001
0010
0100
1000
0010
0100
0001
0100
,
0001
0010
0100
1000
0100
1000
0010
0100
,
0010
1000
0100
0010
0001
1000
0001
1000
,
0010
0100
0001
0010
0100
1000
0001
1000
,
0010
1000
0001
0100
0010
1000
0100
1000
,
0100
0010
0001
1000
0100
0010
0001
0010
,
0001
1000
0010
0100
0002
0000
0010
0000
,
1000
0000
0100
0000
0013
0002
0000
0003
,
1000
0000
0100
0000
0010
0000
0100
0000
1000
0000
0000
1000
0000
0000
0001
0000
,
0100
0000
0010
0000
0100
0000
0001
0000
0010
0000
0000
0010
0000
0000
0001
0000
,
1000
0000
0010
0000
1000
0000
0100
0000
0010
0000
0000
0010
0000
0000
0001
0000
,
0100
0000
0010
0000
1000
0000
0001
0000
0010
0000
0000
0010
0000
0000
0010
0000
,
0100
0000
1000
0000
0010
0000
1000
0000
0100
0000
0000
0100
0000
0000
1000
0000
,
0001
0000
0010
0000
0100
0000
1000
0000
0010
0000
0000
0010
0000
0000
1000
0000
,
0001
0000
0100
0000
0010
0000
1000
0000
0001
0000
0000
0001
0000
0000
1000
0000
,
0010
0000
0100
0000
0001
0000
0010
0000
0100
0000
0000
0100
0000
0000
0000
0000
,
1000
0010
0100
0010
2000
0000
3200
0000
,
0310
0100
1000
0100
0020
0000
0001
0000
,
0130
1000
0100
0010
0002
0000
1000
0000
,
0203
0310
1000
0001
0010
0000
0020
0000
,
0031
0100
0010
0100
0002
0000
0023
0000
,
0130
0010
0001
0010
0200
0000
1000
0000
,
0310
0001
0010
0100
2000
0000
0001
0000
,
3020
0130
0001
1000
0200
0000
2300
0000
,
3002
0000
0023
0000
0230
0300
0000
0100
,
0010
0001
0010
0100
1000
0000
1000
0010
,
0200
0000
0320
0000
2030
3000
0000
1000
,
0100
0010
0100
0010
0001
0000
0010
0001
,
2000
0000
3020
0000
0230
0300
0000
0100
,
0010
1000
0010
0100
0001
0000
0001
0010
,
0200
0000
0320
0000
0032
0003
0000
0001
,
0100
0010
0100
0010
2000
0000
0000
0000
,
3000
0000
0000
0000
;

//--------------- dance-single - RxSteps ----------------
#NOTES:
     dance-single:
     RxSteps:
     Hard:
     8:
     0,0,0,0,0:
0000
0000
0000
0000
,
0002
0000
0203
0000
0302
0000
0003
0100
,
0010
0100
0001
1000
0100
0000
1000
0001
,
0020
0000
0230
0000
0320
0000
0030
0001
,
1000
0010
0100
0001
0100
0000
0000
0000
,
0010
0000
1000
0000
0001
0000
0010
0000
0002
0000
0000
0100
0000
0000
1003
0000
,
0001
0000
0100
0000
0010
0000
1000
0000
0100
0000
0000
1000
0000
0000
0010
0000
,
0200
0000
0010
0000
0301
0000
1000
0000
0100
0000
0000
0010
0000
0000
0001
0000
,
1000
0100
0010
0100
1000
0001
1000
0001
,
0100
0000
0010
0100
0000
0000
0001
0000
1000
0000
0010
0000
1000
0010
0000
0000
,
1000
0000
0010
0000
0100
0000
0001
0000
1000
0000
0010
0000
2000
0100
3000
0000
,
0010
0000
1000
0010
1000
0000
0001
0100
0001
0000
0000
1000
0010
1000
0000
0000
,
0001
0000
0100
0010
0100
0000
0000
0001
0010
0000
0000
0100
0001
0000
0000
0000
,
1000
0010
0100
0001
2000
0000
3020
0030
,
0100
0001
0010
0001
2000
0000
3200
0300
,
1000
0001
1000
0010
0200
0000
0302
0003
,
0100
0010
0100
0001
0200
0000
0320
0030
,
1000
0000
0001
0100
0001
0000
1000
0100
1000
0000
0010
0000
0100
0000
0000
0000
,
0100
0000
0010
0000
1000
0000
0001
0000
0010
0000
0001
0010
0001
0000
0000
0000
,
0001
0000
1000
0000
0010
0000
0100
0000
0010
0000
1000
0001
1000
0000
0010
0000
,
1000
0000
0010
0000
0100
0000
0001
0000
1000
0000
0010
0100
0010
0000
0000
0000
,
0010
0000
0100
0000
0001
0000
1000
0000
0001
0000
0100
0001
0000
0000
1000
0000
,
0100
1000
0001
0010
0001
1000
0200
0010
,
0300
0000
1000
0000
0001
1000
0001
0000
0100
0010
0000
0100
0010
0000
1000
0000
,
0001
0000
0100
0000
0010
0000
1000
0000
0001
0100
0000
0010
1000
0000
0010
0000
,
0200
0000
0320
0000
2030
0000
3000
0001
,
0010
0100
0010
0001
2000
3000
0010
0100
,
0002
0000
0203
0000
0320
0000
0030
0100
,
0010
1000
0001
0200
0010
0301
0100
0001
,
1000
0000
0100
0000
0010
0000
0100
0000
1000
0000
0000
1000
0000
0000
0001
0000
,
0100
0000
0010
0000
0100
0000
0001
0000
1000
0000
0000
0100
0000
0000
1000
0000
,
0001
0000
0100
0000
0020
0000
0100
0000
1030
0000
0000
0001
0000
0000
0100
0000
,
0010
0000
1000
0000
0010
0000
0100
0000
0010
0000
0000
2000
3000
0000
0000
0000
,
0201
0000
0010
0000
0301
0000
1000
0000
0010
0000
0000
0100
0000
0000
0001
0000
,
1000
0000
0010
0000
0100
0000
0001
0000
1000
0000
0000
0001
0000
0000
0100
0000
,
0120
0000
1000
0000
0130
0000
0001
0000
1000
0000
0000
0010
0000
0000
0100
0000
,
0001
0000
1000
0000
0010
0000
0100
0000
0001
0000
0000
1000
0000
0000
0100
0000
,
0210
0000
1000
0000
0310
0000
1000
0000
0001
0000
0000
0100
0000
0000
0001
0000
,
0010
0000
0100
0000
0010
0000
0100
0000
1000
0000
0000
0010
0000
0000
0100
0000
,
0012
0000
1000
0000
0013
0000
0001
0000
0100
0000
0000
0010
0000
0000
1000
0000
,
0100
0000
0010
0000
0100
0000
1000
0000
0001
0000
0000
0020
0000
0000
0000
0000
,
0100
0000
0031
0000
1000
0000
0100
0000
2000
0000
0000
0010
0000
0000
3001
0000
,
1000
0000
0010
0000
0100
0000
0001
0000
0010
0000
0000
0001
0000
0000
0100
0000
,
0020
0000
0100
0000
1030
0000
0001
0000
0010
0000
0000
0100
0000
0000
1000
0000
,
0001
0010
0100
0010
0001
1000
0001
1000
,
0110
0000
0101
0000
1000
0002
0100
0003
,
1000
0200
0310
1000
0001
0100
0001
1000
,
0001
0010
0001
1000
0100
0010
0100
0000
,
0101
0000
0000
0000
1100
0000
0000
0000
0010
1000
0000
0010
1000
0000
0000
0000
,
0001
0100
0001
0000
0100
0000
0001
0000
1000
0000
0000
0000
0100
0000
1000
0000
,
0010
0000
1000
0000
0100
0000
1000
0000
0001
0000
0000
0100
0001
0100
0000
0000
,
0010
0000
1000
0000
0001
0000
0100
0000
0010
0100
0000
0001
1000
0001
0000
0000
,
0100
0000
0001
0000
1000
0000
0010
0000
1000
0100
1000
0000
0010
0000
0100
0000
,
0002
0000
0203
0300
0010
1000
0001
0000
,
0100
0001
0100
0000
0020
0000
0100
0000
1030
0000
0001
0000
1000
0000
0000
0000
,
0010
0000
1000
0000
0100
0000
1000
0010
1000
0000
0001
0000
0200
0000
0300
0000
,
0010
1000
0001
0100
0001
0010
0100
0010
,
0200
0300
0000
0011
0000
1100
0000
0001
,
0200
0300
0000
1010
0000
0101
0000
1000
,
0020
0030
0000
1001
0000
0110
0000
1000
,
0001
0100
0000
0010
1000
0001
0100
0010
,
1020
0000
0100
0000
1030
0000
0001
0000
0100
0000
0000
0010
0000
0000
1000
0000
,
0001
0000
0100
0000
0010
0000
1000
0000
0001
0000
0000
1000
0000
0000
0010
0000
,
0210
0000
0001
0000
0310
0000
1000
0000
0001
0000
0000
0100
0000
0000
0010
0000
,
1000
0000
0001
0000
0100
0000
0010
0000
1000
0000
0000
0001
0000
0000
0100
0000
,
0120
0000
1000
0000
0130
0000
0001
0000
1000
0000
0000
0010
0000
0000
1000
0000
,
0100
0000
0010
0000
0100
0000
0010
0000
0001
0000
0000
0100
0000
0000
0010
0000
,
2100
0000
0001
0000
3100
0000
1000
0000
0010
0000
0000
0100
0000
0000
0001
0000
,
0010
0000
0100
0000
0010
0000
0001
0000
1000
0000
0000
0100
0000
0000
0000
0000
,
0021
0000
0100
0000
0031
0000
1000
0000
0100
0000
0000
0010
0000
0000
0001
0000
,
1000
0000
0100
0000
0010
0000
0001
0000
1000
0000
0000
0001
0000
0000
0010
0000
,
0210
0000
1000
0000
0310
0000
0001
0000
1000
0000
0000
0100
0000
0000
0010
0000
,
0001
0000
1000
0000
0100
0000
0010
0000
0001
0000
0000
1000
0000
0000
0010
0000
,
0120
0000
1000
0000
0130
0000
1000
0000
0001
0000
0000
0010
0000
0000
0001
0000
,
0100
0000
0000
0000
0000
0000
0000
0000
0000
0000
0000
0000
0010
0000
0000
0000
0000
0000
0000
0000
0000
0000
0000
0000
0100
0000
0000
0000
0000
0000
0000
0000
0000
0000
0000
0000
0020
0000
0000
0000
0000
0000
0000
0000
0000
0000
0000
0000
1000
0000
0000
0000
0000
0000
0000
0000
0000
0000
0000
0000
0000
0000
0000
0000
0000
0030
0100
0000
0000
0000
0000
0000
0000
0000
0000
0000
0000
0000
0000
0000
0000
0000
0000
0000
0001
0000
0000
0000
0000
0000
0000
0000
0000
0000
0000
0000
,
0102
0000
1000
0000
0103
0000
0001
0000
0010
0000
0000
0100
0000
0000
1000
0000
,
0010
0000
0100
0000
0010
0000
1000
0000
0001
0000
0000
0100
0000
0000
0000
0000
,
0020
0000
2030
0000
3200
0000
0300
1000
,
0100
0010
0001
0010
0002
0003
1000
0001
,
0200
0000
0320
0000
2030
0000
3010
1000
,
0010
0100
0001
0100
0001
1000
0100
1000
,
0020
0000
0230
0000
0320
0030
1000
0001
,
1000
0001
0100
0010
2000
3000
0010
1000
,
0200
0000
2300
0000
3200
0300
0010
0001
,
0010
0100
1000
0010
1000
0001
0100
0001
,
1000
0100
0010
0001
0100
0010
1000
0010
,
0200
0010
0302
0100
1003
0001
1000
0001
,
0100
0001
1000
0100
0010
0100
0010
0100
,
1000
0001
0010
0100
1000
0001
0010
0001
,
1000
0001
0100
0010
1000
0001
0010
0001
,
0100
0010
1000
0001
0100
0010
1000
0010
,
0200
0010
0301
0010
2000
0000
3002
0000
,
0100
0000
0103
0000
0200
0020
0330
0000
,
1200
0000
0010
0000
1300
0000
0001
0000
0010
0000
0000
0100
0000
0000
1000
0000
,
0001
0000
0010
0000
0100
0000
1000
0000
0001
0000
0000
1000
0000
0000
0010
0000
,
0120
0000
1000
0000
0230
0000
0010
0000
0001
0000
0000
0320
0000
0000
0100
0000
,
1030
0000
0001
0000
0010
0000
0100
0000
1000
0000
0000
0001
0000
0000
0100
0000
,
0210
0000
0001
0000
0320
0000
0100
0000
1030
0000
0000
0100
0000
0000
1000
0000
,
0010
0000
0100
0000
0010
0000
0100
0000
0001
0000
0000
0010
0000
0000
0100
0000
,
2010
0000
0001
0000
3010
0000
1000
0000
0100
0000
0000
0010
0000
0000
0001
0000
,
0100
0000
0010
0000
0100
0000
0001
0000
1000
0000
0000
0020
0000
0000
0000
0000
,
0100
1030
0001
0200
0001
0000
0301
0000
,
0001
0010
0100
2000
0010
0000
3010
0000
,
0001
0100
0001
2000
0010
0000
3010
0000
,
1000
0010
0100
0020
1000
0000
2030
0000
,
0010
3001
1000
0020
1000
0000
1030
0000
,
1000
0100
0010
0002
0100
0000
0103
0000
,
1000
0010
1000
0002
0100
0000
0103
0000
,
0001
0100
0010
0200
0001
0000
0301
0000
,
2000
0000
3020
0000
2030
0000
3000
0010
,
0100
0010
1000
0001
0010
0000
0001
1000
,
0200
0000
0320
0000
0230
0000
0300
1000
,
0001
0100
0010
2000
0010
0000
3001
1000
,
0200
0000
0320
0000
0100
0000
0000
0031
,
1000
0100
0010
0100
1000
0000
0001
0100
,
0002
0000
0010
0000
2003
0000
3000
0020
,
0100
2030
0010
3001
2000
0000
0000
0000
,
3000
0000
0000
0000
;
