#TITLE:Purr Bass;
#SUBTITLE:;
#ARTIST:Steradlye;
#TITLETRANSLIT:;
#SUBTITLETRANSLIT:;
#ARTISTTRANSLIT:;
#GENRE:;
#CREDIT:RxSteps;
#MUSIC:Purr Bass.ogg;
#BANNER:Purr Bass.png;
#BACKGROUND:Purr Bass-bg.png;
#CDTITLE:cdtitle.png;
#SAMPLESTART:46.789;
#SAMPLELENGTH:20.315;
#SELECTABLE:YES;
#OFFSET:-0.962;
#BPMS:0.000=127.000;
#STOPS:;
#BGCHANGES:;
#FGCHANGES:;

//--------------- dance-single - RxSteps ----------------
#NOTES:
     dance-single:
     RxSteps:
     Beginner:
     4:
     0,0,0,0,0:
0000
0000
0000
0000
,
1000
0000
0000
0000
0010
0000
0100
0010
,
0100
0000
0000
0000
0001
0000
1000
0010
,
1000
0000
0000
0000
0001
0000
0100
0001
,
0100
0000
0000
0000
0010
0000
1000
0001
,
1000
0000
0000
0000
0010
0000
0100
0010
,
0100
0000
0000
0000
0001
0000
1000
0001
,
1000
0000
0000
0000
1000
0000
0001
0100
,
0001
0000
0000
0000
1000
0000
0001
0100
,
0001
0000
0000
0000
1000
0000
0010
1000
,
0010
0000
0000
0000
0100
0000
0001
0100
,
0001
0000
0000
0000
0100
0000
0001
1000
,
0001
0000
0000
0000
0100
0000
0100
0010
,
0100
0000
0000
0000
0001
0000
1000
0001
,
1000
0000
0000
0000
0010
0000
1000
0010
,
1000
0000
0000
0000
0010
0000
0100
0010
,
0100
0000
0001
0000
,
1001
0000
0000
1000
,
0010
0000
0010
0000
1000
0000
0001
0100
,
0001
0000
0100
0000
0001
0000
1000
0010
,
1000
0000
0001
0000
0100
0000
0010
0100
,
0010
0000
1000
0000
0001
0000
1000
0001
,
1000
0000
0010
0000
0100
0000
0010
1000
,
0010
0100
0001
1000
,
0020
0000
0030
0000
,
1001
0000
0000
0000
1000
0000
0010
0100
,
0010
1000
0001
0001
,
0100
0000
0001
0000
1000
0000
0100
1000
,
0100
0000
1000
0000
0001
0000
0100
0001
,
0100
0000
0100
0000
0010
0000
0010
0100
,
0010
1000
0001
0100
,
0100
0000
0001
0000
1000
0000
0001
1000
,
0001
0000
0010
0000
0100
0000
1000
0100
,
1000
0000
0001
0000
0100
0000
0010
0100
,
0010
1000
0001
0100
,
0001
1000
0001
1000
0001
0000
1000
0000
,
0010
0100
0001
1000
,
0010
0000
0010
0000
1000
0000
1000
0001
,
1000
0010
0100
0100
,
0001
0000
1000
0000
0010
0000
0100
0010
,
0100
0000
0001
0000
1000
0000
0010
1000
,
0020
0000
0000
0000
,
0030
0000
0000
1000
,
0000
0000
0001
0100
,
0010
0000
0000
1000
,
0000
0000
0001
0100
,
0010
0000
0000
0010
,
0000
0000
1000
0001
,
0100
0000
0000
0000
,
0001
1000
0010
0100
,
0001
0000
1000
0000
0010
0000
1000
0010
,
1000
0000
0001
0000
0010
0000
0100
1000
,
0100
0000
1000
0000
0100
0000
0010
0001
,
0020
0030
0200
0300
,
2000
3000
0020
0030
,
0100
0100
0001
0002
,
2000
3003
0000
0000
,
0110
0000
0000
0001
,
1000
0000
1000
0000
0010
0000
0100
0010
,
0100
0000
0001
0000
1000
0000
0010
1000
,
0010
0000
1000
0000
0001
0000
0010
0001
,
0010
0000
0001
0000
0010
0000
0100
0010
,
0100
0000
1000
0000
0001
0000
1000
0001
,
1000
0000
0010
0000
1000
0000
0001
0100
,
0001
1000
0010
0000
,
2002
0000
3003
0000
,
1000
0001
0100
0010
,
1000
0001
1000
0001
1000
0000
0010
0000
,
1000
0001
0010
0001
,
0100
0001
0100
0001
0100
0000
0010
1000
,
0010
1000
0001
0001
,
1000
0010
1000
0010
1000
0000
0001
0000
,
0100
0000
0010
0000
1000
0000
0001
0100
,
0001
0000
1000
0000
0010
0000
0100
0010
,
0100
0001
1000
0010
,
1000
0100
1000
0100
1000
0000
0001
0000
,
1000
0010
0100
0001
,
1000
0000
1000
0000
0010
0000
0010
0100
,
0010
0000
1000
0000
0001
1000
0001
1000
,
0001
0100
0001
1000
,
0010
0000
0100
0000
0001
0000
1000
0010
,
2000
0000
3000
0000
,
0001
0000
0000
0000
0000
0001
1000
0001
,
2000
0000
3000
0000
,
0020
0000
0030
0000
0000
0100
0010
0100
,
0020
0000
0030
0000
,
0200
0000
0300
0000
0000
0100
0001
0100
,
0002
0000
0003
0000
,
2000
0000
3000
0000
0000
0010
0100
0010
;

//--------------- dance-single - RxSteps ----------------
#NOTES:
     dance-single:
     RxSteps:
     Easy:
     6:
     0,0,0,0,0:
0000
0000
0000
0000
,
0001
1000
0001
0100
0010
0000
0010
1000
,
0001
0000
0010
0000
0100
0000
1000
0100
,
0010
0001
0010
0001
1000
0000
1000
0010
,
0100
0000
0010
0000
1000
0000
0001
1000
,
0100
0010
0100
1000
0100
0000
0100
1000
,
0001
0000
0100
0000
0010
0000
1000
0001
,
0100
0010
0100
0010
1000
0000
1000
0001
,
0010
0000
0001
0000
0100
0000
0010
0100
,
0010
1000
0100
1000
0001
0000
0001
1000
,
0100
0000
0010
0000
0001
0000
0010
0100
,
1000
0001
1000
0001
0100
0000
0100
0001
,
0010
0000
0001
0000
1000
0000
0010
0100
,
0001
1000
0001
1000
0010
0000
0010
0100
,
0001
0000
1000
0000
0010
0000
1000
0001
,
0010
0001
0010
0001
0100
0000
0100
0010
,
1000
0100
0010
0001
,
1010
0000
1000
0010
1000
0000
0001
0100
,
0001
0000
1000
0001
1000
0000
0110
0000
,
0001
0000
1000
0010
1000
0000
0010
0100
,
0010
0000
0100
0001
0100
0000
0011
0000
,
0001
0000
1000
0100
1000
0000
0001
0010
,
0001
0000
1000
0001
1000
0000
1100
0000
,
1000
0000
0010
0100
0010
0000
1000
0100
,
1000
0000
0001
0000
0100
0000
0010
0100
,
0001
0000
0001
0000
0100
0000
0010
1000
,
0100
0000
0100
0000
1000
0001
0100
0001
,
1000
0000
1000
0010
1000
0000
0001
0100
,
0010
0000
0010
1000
0100
0000
1001
0000
,
0001
0000
1000
0000
0010
0000
0100
0010
,
1000
0000
0001
0000
0100
0010
1000
0010
,
0100
0000
0001
0100
0001
0000
1000
0010
,
1000
0000
0100
0000
0010
0000
0001
0010
,
0001
0010
0001
1000
0001
0000
0001
0100
,
0010
1000
0010
0100
0001
1000
0010
0100
,
0010
0000
1000
0000
0001
0000
0100
0010
,
0100
0001
0100
0001
1000
0001
1000
0010
,
0100
0000
0001
0000
0010
0000
0001
0010
,
0001
0000
1000
0000
0010
0100
0010
1000
,
0001
0100
0001
1000
0001
0100
0001
1000
,
0001
0000
0010
0000
0100
0000
1000
0100
,
2000
0000
0000
0000
,
0000
0000
3000
0001
,
1000
0010
0100
0100
,
0002
0000
0003
1000
,
0010
0100
0010
1000
,
0200
0000
0300
1000
,
0001
0100
0001
0010
,
0200
0000
0000
0300
,
1000
0001
0100
0001
,
0010
0000
0001
1000
0001
0000
1000
0010
,
1000
0000
0001
0100
0001
0000
1000
0010
,
0100
0000
0100
0010
1000
0000
0001
1000
,
0001
0100
0001
0100
0010
0100
0010
0100
,
0010
1000
0010
1000
0001
1000
0001
1000
,
0020
0000
0230
0000
,
0002
0000
0000
0000
0000
0303
0000
0000
,
1010
0000
1000
0010
0100
0000
0100
0001
,
1000
0000
1000
0010
0100
0000
0001
0010
,
0001
0000
0001
1000
0001
0000
0100
0010
,
1000
0001
1000
0010
0100
0000
0100
0001
,
1000
0000
1000
0010
0100
0000
0100
0010
,
1000
0000
1000
0001
0100
0000
0010
1000
,
0100
0000
0100
1000
0001
0000
0100
0010
,
1000
0000
0001
1000
0001
0000
0100
0010
,
2000
0000
0010
0000
3010
0000
1000
0100
,
0010
0000
0001
0000
0100
0000
0010
1000
,
0010
0100
0001
0100
0010
0100
0001
0100
,
0010
0000
0010
1000
0100
0000
1000
0001
,
0100
0010
1000
0010
0100
0010
1000
0100
,
1000
0000
0001
0000
0100
0001
0100
0010
,
0100
0000
0001
0000
0010
0000
0100
1000
,
0100
0000
0010
0000
0001
0000
0100
0010
,
1000
0010
0100
0010
1000
0000
1000
0001
,
0100
0000
0100
0010
1000
0000
1000
0001
,
0010
0001
0100
0010
,
1000
0001
1000
0001
0100
0010
0100
0010
,
1000
0000
1010
0000
0011
0000
0001
0010
,
0001
0000
1001
0000
1000
0001
1000
0010
,
0100
0100
0001
0001
,
1000
0000
0001
0000
0100
0000
0010
0100
,
0002
0000
0000
0000
0003
0000
1000
0001
,
0100
0001
0100
0001
0000
1000
0010
0100
,
0010
1000
0010
1000
0001
0000
0001
1000
,
0100
1000
0100
1000
0000
0001
0100
0010
,
0100
0001
0100
0001
1000
0000
1000
0010
,
0100
0010
0100
0010
0000
1000
0001
0010
,
0001
0010
0001
0010
0100
0000
0100
1000
,
0100
0010
0100
0010
0000
0001
2000
0020
,
0000
0000
0000
0000
,
0000
0000
0000
0000
,
3030
0000
0000
0000
;

//--------------- dance-single - RxSteps ----------------
#NOTES:
     dance-single:
     RxSteps:
     Medium:
     8:
     0,0,0,0,0:
0000
0000
0000
0000
,
0001
0010
0100
1000
0010
0000
0010
0100
,
0002
0000
0100
0000
1003
0000
1000
0010
,
0100
0001
1000
0100
0010
0000
0010
0100
,
2000
0000
0001
0000
3010
0000
0001
0100
,
0010
1000
0001
1000
0100
0000
0100
0020
,
0001
0000
0100
0000
0031
0000
1000
0010
,
0100
0010
1000
0001
0010
0000
0010
0200
,
1000
0000
0010
0000
1300
0000
0001
1000
,
0010
0100
0010
1000
0100
0000
0100
1000
,
0002
0000
0100
0000
0010
0000
0103
0001
,
1000
0100
0010
0100
1000
0000
1000
0010
,
2000
0000
0100
0000
0010
0000
3100
1000
,
0001
0100
0010
1000
0010
0000
0010
2000
,
0100
0000
0010
0000
3001
0000
1000
0001
,
0100
0010
0100
0001
0100
0000
0100
0001
,
0020
0100
0001
0130
,
0201
0000
0310
1000
0100
0000
0100
0010
,
0001
0000
0001
0010
0100
0000
0101
0000
,
1200
0000
0310
0100
1000
0000
1000
0001
,
0010
0000
0010
0001
1000
0000
0110
0000
,
2001
0000
3010
1000
0100
0000
0100
1000
,
0010
0000
0010
0100
0001
0000
1010
0000
,
0012
0000
0103
0010
1000
0000
1000
0001
,
0010
0100
1000
0001
0020
0000
0130
0000
,
0011
0000
1100
0000
0201
0000
0310
1000
,
0100
0010
0100
1000
0001
0010
0100
0010
,
0001
0010
0001
1000
0010
1000
0010
0100
,
0001
1000
0100
0020
0001
0000
0130
0000
,
1010
0000
0101
0000
0110
0000
1000
0001
,
1000
0000
0110
0000
0011
1000
0010
0100
,
0001
1000
0001
0010
0100
0010
0100
1000
,
0001
0010
0100
1000
0200
0000
0310
0000
,
1100
0000
0201
0310
1000
0100
0010
0100
,
0010
0001
1000
0010
1000
0100
0010
0100
,
0010
0001
1000
0010
0100
0010
1000
0001
,
0100
0010
0100
0001
0100
0010
1000
0010
,
0100
0000
1001
0000
1100
0000
0201
0310
,
1000
0000
0011
0000
1200
0310
0001
0100
,
0010
1000
0100
0010
0100
1000
0010
0100
,
0001
0100
0010
1000
0200
0000
0310
0000
,
0202
0000
0000
0000
,
0000
0000
0000
0000
0003
0300
0001
0010
,
0100
1000
0010
0100
0001
0000
0001
1000
,
0200
0000
0000
0000
0300
0000
1000
0100
,
0010
0001
0100
0010
1000
0000
1000
0001
,
0020
0000
0000
0000
0000
0030
0001
1000
,
0001
0100
0010
0100
0001
0000
0001
0020
,
0200
0000
0000
0000
0000
0330
0000
0000
,
0011
2000
3002
0203
,
0310
0000
1000
0100
1000
0000
0001
0010
,
0100
0000
1000
0001
0100
0000
0010
1000
,
0100
0000
0010
0001
0100
0000
0010
1000
,
0100
1000
0010
0100
0001
0100
0010
1000
,
0100
1000
0010
0100
0001
0010
0001
1000
,
0001
0010
0100
1000
0100
1000
0100
0010
,
0001
0000
1000
0200
0020
0000
0330
0000
,
1020
0000
0130
0001
0010
0000
0010
0100
,
1000
0001
1000
0100
0010
0000
1010
0000
,
0011
0000
0000
0001
0100
0000
0010
0000
1000
0000
0000
0000
0001
0000
1000
0000
,
0010
0100
0010
1000
0001
0000
0110
0000
,
1002
0000
0103
0001
0010
0000
0010
0001
,
0100
0010
0100
0001
1000
0000
0101
0000
,
2100
0000
3010
0100
0001
0000
0001
1000
,
0100
0010
0001
0100
0020
0000
1030
0000
,
0001
0010
0100
1000
0010
0000
0010
0100
,
0001
0000
1010
0000
0021
0000
0130
1000
,
0010
0100
0010
1000
0001
0100
0010
1000
,
0100
0010
0100
1000
0010
0100
0001
0010
,
0100
0000
0011
0000
1100
0000
0101
1000
,
0010
0100
0001
1000
0100
0010
0001
0010
,
0100
0010
0001
0100
0010
1000
0001
0100
,
0010
1000
0001
0010
0200
0000
1300
0000
,
0011
0000
1100
0000
0101
1000
0001
0010
,
0001
0100
0010
1000
0010
0100
0001
0010
,
0001
0100
0010
0100
0001
0010
0100
0010
,
0001
0100
0010
1000
0100
0010
0001
1000
,
0001
0000
0110
0000
1010
0000
0021
0130
,
1000
0000
0011
0000
1020
0130
0001
0010
,
0100
0000
1200
0310
0100
0000
0201
0310
,
0100
0001
0010
0100
0020
0000
0031
0000
,
2000
0000
0000
0000
0000
3000
0010
0100
,
0001
0010
0100
0010
0000
0010
0001
1000
,
0010
0100
0010
1000
0100
0000
0100
1000
,
0010
0100
0001
0010
0000
0010
0001
1000
,
0100
1000
0001
0010
0100
0000
0100
0010
,
0001
1000
0010
0100
0000
0100
0001
1000
,
0010
0100
0010
1000
0100
0000
0100
1000
,
0100
0010
0100
1000
0000
1000
0020
0200
,
0000
0000
0000
0000
,
0000
0000
0000
0000
,
0330
0000
0000
0000
;

//--------------- dance-single - RxSteps ----------------
#NOTES:
     dance-single:
     RxSteps:
     Hard:
     9:
     0,0,0,0,0:
0000
0000
0000
0000
,
0001
0010
0100
1000
0010
0000
0010
0100
,
0002
0000
0100
0000
1003
0000
1000
0010
,
0100
0001
1000
0100
0010
0000
0010
0100
,
2000
0000
0001
0000
3010
0000
0001
0100
,
0010
1000
0001
1000
0100
0000
0100
0020
,
0001
0000
0100
0000
0031
0000
1000
0010
,
0100
0010
1000
0001
0010
0000
0010
0200
,
1000
0000
0010
0000
1300
0000
0001
1000
,
0020
0031
0010
1000
0100
0000
0100
1000
,
0002
0000
0100
0000
0010
0000
0103
0001
,
1000
0200
0301
0100
1000
0000
1000
0010
,
2000
0000
0100
0000
0010
0000
3100
1000
,
0001
0200
1300
0001
0010
0000
0010
2000
,
0100
0000
0010
0000
3001
0000
1000
0001
,
0100
0020
0031
1000
0100
0000
0100
0001
,
0020
0100
0001
0130
,
0201
0000
0310
1000
0100
0000
0100
0010
,
0001
0000
0001
0010
0100
0000
0101
0000
,
1200
0000
0310
0100
1000
0000
1000
0001
,
0010
0000
0010
0001
1000
0000
0110
0000
,
2001
0000
3010
1000
0100
0000
0100
1000
,
0010
0000
0010
0100
0001
0000
1010
0000
,
0012
0000
0103
0010
1000
0000
1000
0001
,
0010
0100
1000
0010
0200
1300
0001
0000
,
0011
0000
1100
0000
0201
0000
0310
1000
,
0100
0010
0100
1000
0001
0020
1030
0010
,
0001
0010
0001
1000
0010
1000
0010
0100
,
0001
1000
0010
0100
0001
0020
1030
0000
,
1010
0000
0101
0000
0110
0000
1000
0001
,
1000
0000
0110
0000
0011
1000
0010
0100
,
0001
1000
0001
0010
0100
0010
0100
1000
,
0001
0010
0100
1000
0020
0031
1000
0000
,
1100
0000
0000
0000
0201
0000
0310
0000
1000
0000
0100
0000
1000
0010
0100
0010
,
1000
0020
0031
0010
1000
0100
0010
0100
,
0010
0001
1000
0010
0100
0010
1000
0001
,
0020
1030
0010
0001
0100
0010
1000
0010
,
0100
0000
1001
0000
1100
0000
0201
0310
,
1000
0000
0011
0000
1200
0310
0001
0100
,
0010
1000
0200
0301
0100
1000
0010
0100
,
0001
0100
0010
1000
0001
0020
1030
0000
,
0202
0000
0000
0000
,
0000
0000
0000
0000
0003
0300
0001
0010
,
0100
1000
0010
0100
0001
0000
0001
1000
,
0200
0000
0000
0000
0300
0000
1000
0100
,
0010
0001
0100
0010
1000
0000
1000
0001
,
0020
0000
0000
0000
0000
0030
0001
1000
,
0001
0100
0010
0100
0001
0000
0001
0020
,
0200
0000
0000
0000
0000
0330
0000
0000
,
0011
2000
3002
0203
,
0310
0000
1000
0100
1000
0000
0001
0010
,
0100
0000
1000
0001
0100
0000
0010
1000
,
0100
0000
0010
0001
0100
0000
0010
1000
,
0100
1000
0010
0100
0001
0100
0010
1000
,
0100
1000
0010
0100
0001
0010
0001
1000
,
0001
0010
0100
1000
0001
0010
0100
1000
0010
0100
0001
1000
0010
0100
0001
1000
,
0010
0000
0010
2000
0200
0000
3300
0000
,
1020
0000
0130
0001
0010
0000
0010
0100
,
1000
0001
1000
0100
0010
0000
1010
0000
,
0011
0000
0000
0001
0100
0000
0010
0000
1000
0000
0000
0000
0001
0000
1000
0000
,
0200
0301
0100
1000
0001
0000
0110
0000
,
1002
0000
0103
0001
0010
0000
0010
0001
,
0200
1300
0100
0001
1000
0000
0101
0000
,
2100
0000
3010
0100
0001
0000
0001
1000
,
0100
0010
0001
0100
0020
0031
1000
0100
,
0001
0010
0100
1000
0010
0000
0010
0100
,
0001
0000
1010
0000
0021
0000
0130
1000
,
0010
0100
0010
1000
0001
0100
0010
1000
,
0200
0301
0100
1000
0010
0100
0001
0010
,
0100
0000
0011
0000
1100
0000
0101
1000
,
0010
0100
0001
1000
0100
0010
0001
0020
,
1030
0010
0001
0100
0010
1000
0001
0100
,
0010
1000
0001
0100
0020
0031
1000
0000
,
0011
0000
0000
0000
1100
0000
0000
0000
0101
0000
1000
0000
0001
0100
0010
0100
,
0001
0100
0010
1000
0010
0100
0001
0010
,
0001
0200
1300
0100
0001
0020
1030
0010
,
0001
0100
0010
1000
0100
0010
0001
1000
,
0001
0000
0110
0000
1010
0000
0021
0130
,
1000
0000
0011
0000
1020
0130
0001
0010
,
0100
0000
1200
0310
0100
0000
0201
0310
,
0100
0001
0020
1030
0001
0100
1000
0020
,
0002
0000
0000
0000
0030
0000
0013
0100
,
0001
0010
0100
0010
0000
0010
0001
1000
,
0010
0100
0010
1000
0100
0000
0100
1000
,
0010
0100
0001
0010
0000
0010
0001
1000
,
0100
1000
0001
0010
0100
0000
0100
0010
,
0001
1000
0010
0100
0000
0100
0001
1000
,
0010
0100
0010
1000
0100
0000
0100
1000
,
0200
0301
0100
1000
0000
1000
0020
0002
,
0000
0000
0000
0000
,
0000
0000
0000
0000
,
0033
0000
0000
0000
;
