#TITLE:Pasadena;
#SUBTITLE:;
#ARTIST:Yung Gravy, bbno$ (Baby Gravy);
#TITLETRANSLIT:;
#SUBTITLETRANSLIT:;
#ARTISTTRANSLIT:;
#GENRE:;
#CREDIT:RxSteps;
#MUSIC:Pasadena.ogg;
#BANNER:Pasadena.png;
#BACKGROUND:Pasadena-bg.png;
#CDTITLE:cdtitle.png;
#SAMPLESTART:67.338;
#SAMPLELENGTH:22.323;
#SELECTABLE:YES;
#OFFSET:2.422;
#BPMS:0.000=86.009;
#STOPS:;
#BGCHANGES:;
#FGCHANGES:;

//--------------- dance-single - RxSteps ----------------
#NOTES:
     dance-single:
     RxSteps:
     Beginner:
     3:
     0,0,0,0,0:
0000
0000
0000
0000
,
1000
0000
0010
0000
,
0010
0000
0100
0001
,
0100
0000
0001
0000
,
0010
0000
0001
1000
,
0010
1000
0010
0100
,
0100
0001
1000
0001
,
0100
0000
0010
0000
0100
0000
0001
0100
,
0001
1000
0100
0010
,
0010
0001
1000
0000
,
0010
0100
0010
0010
,
1000
0001
0010
0001
,
1000
0100
1000
0001
,
0100
0000
0100
0000
0001
0100
0001
0000
,
1000
0010
0100
0001
,
0010
0001
1000
0100
,
1000
0001
0100
0001
,
0001
1000
0001
0010
,
0001
0100
0010
0100
,
0001
0000
1000
0000
0010
0000
1000
0010
,
1000
0001
0100
0010
,
0100
0000
0001
0000
,
0010
0000
0001
0000
,
1000
0000
0100
0000
,
1000
0000
0010
0100
,
0100
0001
0100
0010
,
0010
1000
0001
1000
,
0010
0000
0100
0000
0010
0000
1000
0010
,
1000
0001
0010
0100
,
0100
1000
0001
0000
,
0100
0010
0100
0100
,
0001
1000
0100
1000
,
0001
0010
0001
1000
,
0010
0010
0100
0001
,
1000
0010
0010
0100
,
0001
1000
0100
1000
,
0001
0010
0001
1000
,
0010
0100
0001
0100
,
0010
0000
1000
0010
1000
0000
0001
0000
,
0010
0000
0001
0010
0001
0000
1000
0000
,
0001
0000
0100
0001
0100
0000
0010
0000
,
0100
0001
0010
0100
,
1000
0001
0100
0010
,
0100
0001
1000
0001
,
0100
0010
0100
0001
,
0001
1000
0100
0010
,
0010
0001
1000
0001
,
0010
0000
0100
0000
0010
0000
0001
0010
,
0001
1000
0010
0100
,
0100
0001
1000
0000
,
0100
0010
0100
0100
,
1000
0001
0100
0001
,
1000
0010
1000
0001
,
0010
0000
0100
0000
,
1000
0000
0010
1000
,
0010
0000
1000
0000
,
0100
0000
1000
0001
;

//--------------- dance-single - RxSteps ----------------
#NOTES:
     dance-single:
     RxSteps:
     Easy:
     5:
     0,0,0,0,0:
0000
0000
0000
0000
,
1000
0000
0000
0010
0000
0100
0000
0000
0001
0000
0000
0010
0000
0000
0001
0000
,
1000
0000
0000
0010
0000
0100
0000
0000
0001
0000
0000
0000
0010
0000
0100
0000
,
1000
0000
0000
0010
0000
0100
0000
0000
0001
0000
0000
0000
0100
0000
0000
0000
,
0100
0000
0000
0001
0000
0000
1000
0000
0010
0000
0100
0000
0001
0000
0000
0000
,
1000
0010
0100
0010
1000
0000
0001
0000
,
0100
0010
0100
0001
1000
0010
0100
0010
,
1000
0000
0001
0000
0010
0001
0100
0010
,
0010
0100
0001
0010
0100
1000
0100
0010
,
0001
0000
1000
0000
0010
0100
0010
0000
,
1000
0001
1000
0010
0100
0100
0010
1000
,
0001
0000
0010
0000
0001
1000
0100
1000
,
0001
0000
0100
0000
0010
1000
0100
1000
,
0001
0000
0110
0000
1000
0010
0100
0000
,
0100
0010
1000
0001
0010
0001
1000
0000
,
0010
1000
0010
0000
0100
0001
0100
0000
,
0001
0010
0001
1000
0100
1000
0001
0000
,
1100
0000
0001
0010
0100
0010
0001
1000
,
0010
0000
0010
1000
0001
0100
0010
0100
,
0001
0000
0010
0000
0100
0000
1000
0100
,
0100
0000
1000
0010
0100
0001
0100
0010
,
1000
0000
0001
0000
0010
0001
0010
0000
,
0001
0000
0100
0010
0100
0001
0100
0010
,
1000
0000
0010
1000
0010
0000
0100
0001
,
0100
0000
0100
0001
0010
0000
0100
0010
,
0001
0100
0010
0100
0001
0000
1000
0000
,
0010
0100
0010
1000
0001
0100
0010
0100
,
0001
0000
1000
0000
0100
1000
0010
0100
,
0100
0010
1000
0100
0010
0001
0010
0100
,
1000
0000
0001
0000
0100
0010
0100
0000
,
0001
1000
0001
0100
0010
0010
0100
0001
,
1000
0000
0100
0000
1000
0001
0010
0001
,
1000
0000
0010
0000
0100
0001
0010
0001
,
1000
0000
0100
0000
0100
1000
0001
0000
,
0010
0001
0010
0100
1000
0000
0001
0000
,
0010
0001
1000
0010
0100
0010
1000
0000
,
0001
0010
0100
0010
0001
0000
1000
0000
,
0010
0100
0010
0000
1000
0010
0100
0000
,
0001
1000
0010
1000
0001
0000
0010
0000
,
0100
0010
0001
0010
0001
0000
1000
0000
,
0100
1000
0100
0000
0010
0000
0010
0000
,
0100
1000
0001
0010
,
0001
1000
0100
1000
,
0001
0010
0010
0001
,
0100
0010
1000
0001
,
1000
0100
0010
0100
1000
0000
0001
0000
,
0010
0100
0010
0001
1000
0100
0010
0100
,
1000
0000
0001
0000
0100
0001
0010
0100
,
0100
0010
0001
0100
0010
1000
0010
0100
,
0001
0000
1000
0000
0100
0010
0100
0000
,
1000
0001
1000
0100
0010
0010
0100
1000
,
0001
0000
0100
0000
0001
1000
0010
1000
,
0001
0000
0010
0000
0100
1000
0010
1000
,
0001
0000
0000
0100
0000
0010
0000
0000
1000
0000
0000
0100
0000
0000
1000
0000
,
0001
0000
0000
0100
0000
0010
0000
0000
1000
0000
0000
0000
0100
0000
0010
0000
,
0001
0000
0000
0100
0000
0010
0000
0000
1000
0000
0000
0010
0000
0000
0100
0000
,
0001
0000
0000
0100
0000
0010
0000
0000
1000
0000
0000
0000
0001
0000
0010
0000
;

//--------------- dance-single - RxSteps ----------------
#NOTES:
     dance-single:
     RxSteps:
     Medium:
     8:
     0,0,0,0,0:
0000
0000
0000
0000
,
1000
0000
0010
0100
0000
0001
0000
0000
0020
0000
0000
0100
0000
0030
0001
0000
,
1000
0000
0000
0010
0000
0100
0000
0000
0001
0000
0010
0000
0001
0100
0010
1000
,
0001
0000
0100
0010
0000
1000
0000
0000
0200
0000
0000
0010
0000
0000
0300
0000
,
1000
0000
0001
0010
0000
0000
0200
0000
0010
0300
0010
0100
1000
0000
0101
0000
,
1200
0300
0010
0002
1000
0003
1000
0001
0010
0000
1020
0030
0100
0000
0001
0000
,
0010
0000
1010
0000
0001
0000
0100
0000
0010
0000
1000
0000
0100
0010
0100
0010
,
0001
0000
0010
0000
0100
0000
0010
0000
0001
0000
1000
0010
0100
0001
0100
0000
,
1100
1000
0001
0010
0001
0100
0010
1000
,
0110
0000
0001
0020
0100
0030
0100
1000
0100
0000
0010
0000
0001
0010
0001
0000
,
1100
0000
0101
0000
1000
0000
0200
0000
0010
0300
1000
0000
0001
0000
0100
0000
,
0010
0000
0000
0000
0000
0000
1000
0000
0000
0200
0000
0000
0010
0000
0000
0300
0000
0000
0010
0000
0000
0001
0000
0000
0010
0000
0000
0000
0000
0000
1100
0000
0000
0000
0000
0000
0102
0000
0003
0000
0000
0000
0100
0000
0000
0000
0000
0000
,
0001
0110
0001
0010
0001
1000
0010
0200
,
0002
0303
2020
3030
0102
1000
0020
0033
,
1100
0001
0100
0001
0010
0100
1000
0001
,
0100
0010
0011
1000
0010
0100
0010
1000
,
1200
0310
0100
1000
0010
0100
0001
0010
,
1002
0000
0000
0003
0010
0100
1000
0000
0100
0000
0010
0002
0010
0003
0010
0200
,
2000
0000
3300
0000
0101
0000
0110
0000
1000
0010
0100
0000
0001
0000
1000
0010
,
0200
0000
0000
0300
0010
0100
0010
1000
0001
1000
0010
0100
0001
0000
1100
0000
,
0201
0000
0000
0300
0010
1000
0001
0200
0010
0300
0001
2000
0010
3000
0010
1000
,
0001
0000
0010
0000
0100
1000
0100
0000
0010
0000
0001
1000
0001
0000
0100
0000
,
0001
0000
0010
0000
0100
0000
1000
0000
0001
0000
0200
0000
0010
0300
0010
0000
,
1000
0010
0100
0001
0100
0020
1000
0030
0100
0010
2000
0000
0001
0000
3010
0000
,
1000
0000
0010
0100
0001
0000
0100
0000
0010
0000
1000
0100
1000
0000
0100
0000
,
0021
0030
0100
2000
0001
3000
0001
1000
0100
0000
0201
0300
0010
0000
1000
0000
,
0100
0000
0101
0000
1000
0000
0010
0000
0100
0000
0001
0000
0010
0100
0010
0100
,
1000
0000
0100
0000
0010
0000
0100
0000
1000
0000
0001
0100
0010
1000
0010
0000
,
0011
0001
1000
0100
1000
0010
0100
0001
,
0110
0000
1000
0200
0010
0300
0010
0001
0010
0000
0100
0000
1000
0100
1000
0000
,
0011
0000
1010
0000
0001
0000
0020
0000
0100
0030
0001
0000
1000
0000
0010
0000
,
0100
0000
0000
0000
0000
0000
0001
0000
0000
0020
0000
0000
0100
0000
0000
0030
0000
0000
0100
0000
0000
1000
0000
0000
0100
0000
0000
0000
0000
0000
0011
0000
0000
0000
0000
0000
2010
0000
3000
0000
0000
0000
0010
0000
0000
0000
0000
0000
,
1000
0110
1000
0100
1000
0001
0100
0001
,
0020
0000
0100
0030
0001
0100
0010
0100
,
0001
0000
2000
0000
0100
3000
0100
0000
1000
0000
0001
0000
0010
0000
0100
0000
,
0010
0000
0001
0000
1000
0000
0001
0010
0002
0000
1000
0000
0010
0000
2003
0000
,
3001
0000
0100
0000
0010
0000
1000
0001
0100
0001
0200
0000
0010
0000
0301
0000
,
1200
0300
0010
0002
1000
0003
1000
0002
0010
0003
0010
0100
1000
0000
0100
0020
,
0031
0000
1200
0300
0010
0200
1000
0300
1000
0100
0010
0001
0020
0000
0130
0000
,
1002
0003
0100
0000
0010
0000
1000
0010
1000
0010
1000
0000
0001
0000
0010
0000
,
0100
0000
1100
0000
1000
0000
0010
0100
0010
0000
1000
0000
0100
0000
0010
0000
,
0001
0000
0010
0000
0001
0000
1000
0000
0010
0000
0100
0000
0010
0000
1000
0000
0001
0000
0010
0000
0000
0001
0000
0000
,
1000
0000
0010
0000
1000
0000
0001
0000
0010
0000
0001
0000
0010
0000
0100
0000
0010
0000
0001
0000
0000
1000
0000
0000
,
0010
0000
0100
0000
0001
0000
0100
0000
0010
0000
1000
0000
0010
0000
0100
0000
0001
0000
0010
0000
0000
0001
0000
0000
,
0100
0000
0010
0000
1000
0000
0010
0000
0100
0000
0001
0000
0010
0000
0100
0000
1000
0000
0001
0000
0000
0100
0000
0000
,
1020
0030
0100
0002
1000
0003
1000
0001
0100
0000
1200
0300
0010
0000
0001
0000
,
0100
0000
1100
0000
0001
0000
0010
0000
0100
0000
1000
0000
0010
0100
0010
0100
,
0001
0000
0100
0000
0010
0000
0100
0000
0001
0000
1000
0100
0010
0001
0010
0000
,
1010
1000
0001
0100
0001
0010
0100
1000
,
0110
0000
0001
0200
0010
0300
0010
1000
0010
0000
0100
0000
0001
0100
0001
0000
,
1010
0000
0011
0000
1000
0000
0020
0000
0100
0030
1000
0000
0001
0000
0010
0000
,
0100
0000
0000
0000
0000
0000
1000
0000
0000
0020
0000
0000
0100
0000
0000
0030
0000
0000
0100
0000
0000
0001
0000
0000
0100
0000
0000
0000
0000
0000
1010
0000
0000
0000
0000
0000
0012
0000
0003
0000
0000
0000
0010
0000
0000
0000
0000
0000
,
0001
0110
0001
0100
0001
1000
0100
0010
,
0001
0000
1000
0001
0000
0010
0000
0000
0200
0000
0000
0010
0000
0300
1000
0000
,
0001
0000
0000
0100
0000
0010
0000
0000
1000
0000
0100
0000
1000
0010
0100
0001
,
1000
0000
0100
0010
0000
0001
0000
0000
0200
0000
0000
0010
0000
0300
0001
0000
,
1000
0000
0000
0100
0000
0010
0000
0000
0001
0000
0100
0000
0001
1000
0010
0000
;

//--------------- dance-single - RxSteps ----------------
#NOTES:
     dance-single:
     RxSteps:
     Hard:
     10:
     0,0,0,0,0:
0000
0000
0000
0000
,
1000
0000
0010
0100
0000
0001
0000
0000
0020
0000
0000
0100
0000
0030
0001
0000
,
1000
0000
0000
0010
0000
0100
0000
0000
0001
0000
0010
0000
0001
0100
0010
1000
,
0001
0000
0100
0010
0000
1000
0000
0000
0200
0000
0000
0010
0000
0000
0300
0000
,
1000
0000
0001
0010
0000
0000
0200
0000
0010
0300
0010
0100
1000
0000
0101
0000
,
1200
0300
0010
0002
0100
0003
0100
0001
0010
0000
1020
0030
0100
0001
1000
0100
,
0010
0000
0000
0000
0000
0000
1020
0000
0030
0100
0000
0000
0001
0000
0000
1000
0000
0000
0010
0000
0000
0100
0000
0000
0001
0000
0000
0100
0000
0000
0010
0000
0000
1000
0000
0000
0200
0000
0000
0301
0000
0000
0100
0000
0000
1000
0000
0000
,
0001
0000
0100
0010
1000
0100
0010
0001
0100
0010
1000
0100
1000
0020
0031
0000
,
1100
0000
1000
0010
0100
0010
1000
0100
0010
0001
0020
1030
0010
0001
1000
0000
,
0110
0000
0001
0020
0100
0030
0100
1000
0020
0000
0031
0000
1000
0100
0010
0000
,
1100
0000
0000
0000
0000
0000
0201
0000
0300
0010
0000
0000
1000
0000
0000
0001
0000
0000
0010
0000
0000
0200
0000
0000
0301
0000
0000
0000
0000
0000
0100
0000
0000
1000
0000
0000
0020
0000
0000
0031
0000
0000
1000
0000
0000
0100
0000
0000
,
0001
0000
0000
0000
0000
0000
1000
0000
0000
0200
0000
0000
0010
0000
0000
0300
0000
0000
0010
0000
0000
0001
0000
0000
0100
0000
0000
0000
0000
0000
1100
0000
0000
0000
0000
0000
0102
0000
0003
1000
0000
0000
0100
0000
0000
0010
0000
0000
,
0001
0000
0110
1000
0001
0010
0100
0010
0001
2000
0010
3000
0010
0100
0001
0020
,
0200
0330
2020
3030
0102
1000
0020
0033
,
1200
0000
0300
0020
0000
0000
0001
0000
0000
0030
0000
0000
0100
0000
0000
0000
0000
0000
1000
0000
0000
0010
0000
0000
0100
0000
0000
0010
0000
0000
1000
0000
0000
0001
0000
0000
0200
0000
0000
0000
0000
0000
1300
0000
0000
0000
0000
0000
,
0100
0010
1000
0000
0011
0000
1000
0100
0010
0001
0100
0020
1000
0030
0100
0000
,
1200
0000
0000
0000
0000
0000
0310
0000
0000
0000
0000
0000
0100
0000
0000
0000
0000
0000
1000
0000
0000
0100
0000
0000
0010
0000
0000
0002
0000
0000
1000
0000
0003
0000
0000
0000
0020
0000
0000
0000
0000
0000
0130
0000
0000
0000
0000
0000
,
1002
0000
0000
0003
0010
0100
1000
0000
0010
0000
0100
0002
0010
0003
0010
0200
,
2000
0000
3300
0000
0101
0000
0110
0000
1000
0100
0020
0000
1030
0000
0010
0001
,
0200
0000
0000
0300
1000
0100
0010
1000
0001
0100
0010
0100
0001
0000
1100
0000
,
0201
0000
0000
0300
0010
1000
0001
0200
0010
0300
0001
2000
0100
3000
0100
1000
,
0001
0000
0010
0000
0100
1000
0200
0000
0301
0000
0100
1000
0010
0000
0100
0000
,
0001
0010
0100
2000
0010
0000
3001
0000
1000
0010
0100
0001
0010
0000
0100
0000
,
1000
0010
0100
0001
0100
0020
1000
0030
0100
0001
2000
0000
0100
0000
3001
0000
,
1000
0000
0010
0100
0001
0000
0200
0000
1300
0000
0100
0010
1000
0000
0100
0000
,
0101
0000
0001
2000
0010
3000
0010
1000
0100
0000
0201
0300
0010
1000
0001
0010
,
0100
0000
0000
0000
0000
0000
0201
0000
0300
0010
0000
0000
1000
0000
0000
0001
0000
0000
0100
0000
0000
0010
0000
0000
1000
0000
0000
0010
0000
0000
0100
0000
0000
0001
0000
0000
0020
0000
0000
1030
0000
0000
0010
0000
0000
0001
0000
0000
,
1000
0000
0010
0100
0001
0010
0100
1000
0010
0100
0001
0010
0001
0200
1300
0000
,
0011
0000
0001
0100
0010
0100
0001
0010
0100
1000
0200
0301
0100
1000
0001
0000
,
0110
0000
1000
0200
0010
0300
0010
0001
0200
0000
1300
0000
0001
0010
0100
0000
,
0011
0000
0000
0000
0000
0000
1020
0000
0030
0100
0000
0000
0001
0000
0000
1000
0000
0000
0100
0000
0000
0020
0000
0000
1030
0000
0000
0000
0000
0000
0010
0000
0000
0001
0000
0000
0200
0000
0000
1300
0000
0000
0001
0000
0000
0010
0000
0000
,
1000
0000
0000
0000
0000
0000
0001
0000
0000
0020
0000
0000
0100
0000
0000
0030
0000
0000
0100
0000
0000
1000
0000
0000
0010
0000
0000
0000
0000
0000
0011
0000
0000
0000
0000
0000
2010
0000
3000
0001
0000
0000
0010
0000
0000
0100
0000
0000
,
1000
0000
0110
0001
1000
0100
0010
0100
1000
0002
0100
0003
0100
0010
1000
0200
,
0010
0000
1300
0000
0001
0100
0010
0100
,
0001
0000
0000
0010
0000
0000
0100
0000
0000
1000
0000
0000
0020
0000
0030
0001
0000
0000
0010
0000
0000
1000
0000
0000
0100
0000
0000
0010
0000
0000
0001
0000
0000
2000
0000
0000
0100
0000
0000
0000
0000
0000
3020
0000
0000
0000
0000
0000
,
0130
0000
0001
0200
1300
0000
0100
0010
1000
0100
0010
0002
0100
0000
2003
0000
,
3001
0000
0100
0000
0010
0000
1000
0010
0100
0001
0200
0000
0010
0000
0301
0000
,
1200
0300
0010
0002
1000
0003
1000
0002
0010
0003
0010
0100
1000
0000
0010
0200
,
0301
0000
1200
0300
0010
0200
1000
0300
1000
0010
0100
0001
0020
0000
0130
0000
,
1020
0030
0100
0001
1000
0010
0100
0001
1000
0100
1000
0001
0100
0010
0100
0001
,
0010
0000
0000
0000
0000
0000
1200
0000
0300
0010
0000
0000
0001
0000
0000
0010
0000
0000
0100
0000
0000
1000
0000
0000
0001
0000
0000
1000
0000
0000
0100
0000
0000
0010
0000
0000
0001
0000
0000
1000
0000
0000
0001
0000
0000
0010
0000
0000
,
0100
0000
0010
0000
0001
0000
1000
0000
0020
0030
0001
0000
1000
0000
0100
0000
0001
0000
0010
0000
0000
0001
0000
0000
,
1000
0000
0000
0000
0020
0000
0030
0000
0001
0000
0000
0000
0010
0000
0000
0000
0100
0000
0000
0000
0001
0000
0000
0000
0020
0000
0000
0030
1000
0000
0000
0000
0010
0000
0000
0000
0100
0000
0000
0000
0000
0000
1000
0000
0000
0000
0000
0000
,
0010
0000
0100
0000
0001
0000
0100
0000
0010
0000
1000
0000
0200
0300
0001
0000
1000
0000
0010
0000
0000
0001
0000
0000
,
0100
0000
0010
0000
1000
0000
0010
0000
0100
0000
0001
0000
0010
0000
0100
0000
1000
0000
0001
0000
0000
0100
0000
0000
,
1100
0000
0010
0002
0100
0003
0100
0001
0010
0000
1020
0030
0100
0001
1000
0100
,
0010
0000
0000
0000
0000
0000
0201
0000
0300
0010
0000
0000
1000
0000
0000
0001
0000
0000
0100
0000
0000
0010
0000
0000
1000
0000
0000
0010
0000
0000
0100
0000
0000
0001
0000
0000
0200
0000
0300
1000
0000
0000
0100
0000
0000
0001
0000
0000
,
1000
0000
0010
0100
0001
0010
0100
1000
0010
0100
0001
0010
0001
0200
1300
0000
,
0011
0000
0001
0100
0010
0100
0001
0010
0100
1000
0200
0301
0100
1000
0001
0000
,
0110
0000
0001
0020
0100
0030
0100
1000
0020
0000
0031
0000
1000
0100
0010
0000
,
1100
0000
0000
0000
0000
0000
0201
0000
0300
0010
0000
0000
1000
0000
0000
0001
0000
0000
0010
0000
0000
0200
0000
0000
0301
0000
0000
0000
0000
0000
0100
0000
0000
1000
0000
0000
0020
0000
0000
0031
0000
0000
1000
0000
0000
0100
0000
0000
,
0001
0000
0000
0000
0000
0000
1000
0000
0000
0200
0000
0000
0010
0000
0000
0300
0000
0000
0010
0000
0000
0001
0000
0000
0100
0000
0000
0000
0000
0000
1100
0000
0000
0000
0000
0000
0102
0000
0003
1000
0000
0000
0100
0000
0000
0010
0000
0000
,
0001
0000
0110
1000
0001
0010
0100
0010
0001
2000
0010
3000
0010
0100
0001
0010
,
0100
0000
1000
0001
0000
0010
0000
0000
0200
0000
0000
0010
0000
0300
1000
0000
,
0001
0000
0000
0100
0000
0010
0000
0000
1000
0000
0100
0000
1000
0010
0100
0001
,
1000
0000
0100
0010
0000
0001
0000
0000
0200
0000
0000
0010
0000
0300
0001
0000
,
1000
0000
0000
0100
0000
0010
0000
0000
0001
0000
0100
0000
0001
1000
0010
0000
;
