#TITLE:PROTOTYPE 86;
#SUBTITLE:;
#ARTIST:KoruSe and CHMCL SOUP;
#TITLETRANSLIT:;
#SUBTITLETRANSLIT:;
#ARTISTTRANSLIT:;
#GENRE:;
#CREDIT:RxSteps;
#MUSIC:PROTOTYPE 86.ogg;
#BANNER:PROTOTYPE 86.png;
#BACKGROUND:PROTOTYPE 86-bg.png;
#CDTITLE:cdtitle.png;
#SAMPLESTART:40.285;
#SAMPLELENGTH:21.677;
#SELECTABLE:YES;
#OFFSET:1.521;
#BPMS:0.000=155.000;
#STOPS:;
#BGCHANGES:;
#FGCHANGES:;

//--------------- dance-single - RxSteps ----------------
#NOTES:
     dance-single:
     RxSteps:
     Beginner:
     3:
     0,0,0,0,0:
0000
0000
0000
0000
,
1000
0000
0010
0100
,
0001
0000
1000
0001
,
0100
0000
0010
1000
,
0100
0000
0100
1000
,
0001
0000
0100
0001
,
0100
0000
0010
1000
,
0010
0000
0100
0001
,
0100
0000
0001
0010
,
0001
0000
0100
0000
,
0010
0000
0010
0000
,
1000
0000
0001
0000
,
0100
0000
0100
0000
,
0010
1000
0010
1000
,
1000
0001
1000
0001
,
0002
0003
0200
0300
,
0020
0000
0030
0000
,
1000
0000
0010
0000
,
0100
0001
0100
0000
,
1001
0000
0000
0000
,
1000
0010
0100
0100
,
0010
0000
1000
0000
,
0001
0010
0001
0010
,
0001
0000
0100
0000
,
0010
0010
1000
0000
,
0001
0000
0100
0100
,
0010
0000
1000
1000
,
0001
0000
0010
0010
,
0001
0000
1000
0000
,
0100
0100
1000
0000
,
0001
0001
0010
0000
,
0001
1000
0001
1000
,
0010
0000
0100
0000
,
0100
0001
0100
0000
,
0010
1000
0010
0000
,
1000
0001
1000
0000
,
0010
0100
0010
0000
,
1000
0001
1000
0000
,
0001
0010
0001
0000
,
1000
0100
1000
0000
,
0010
0000
1000
0000
,
0001
0000
0100
0000
,
0100
0000
0010
0000
,
1000
0000
0100
0000
,
1000
0000
0001
0100
,
0001
0000
0010
0000
,
0001
0000
1000
0000
,
0010
0000
0100
0000
,
0100
0010
1000
0001
,
0200
0300
0020
0030
,
2000
3000
0002
0003
,
0200
0300
0020
0030
,
2000
3000
0001
0000
,
0110
0000
0000
0000
,
1001
0000
0000
0000
,
0101
0000
0000
0000
,
1100
0000
0000
0000
,
1001
0000
0000
0000
,
0001
0000
0100
0000
,
0010
0000
1000
0000
,
0001
0000
0001
0000
,
0110
0000
0000
0000
,
1000
0000
0010
0000
,
0010
0000
0100
0000
,
0001
0000
0000
0000
,
1000
0000
0010
0000
,
0100
0000
0001
0000
,
0010
0000
0100
0000
,
1000
0000
0100
0000
,
0010
0000
0001
0000
,
0001
0000
0010
0000
,
0100
0000
0010
0000
,
0001
0000
1000
0000
,
0001
0000
0100
0000
,
0010
0000
1000
0000
,
0100
0000
0010
0000
,
0001
0000
0010
0000
,
0100
0000
1000
0000
,
1000
0000
0100
0000
,
0010
0000
0100
0000
,
1000
0000
0001
0000
,
0200
0000
0300
0000
,
0020
0000
0030
0000
,
2000
0000
3000
0000
,
0002
0000
0003
0000
,
0002
0000
0003
0000
,
0020
0000
0030
0000
,
0200
0000
0000
0000
,
2000
0000
0000
0000
,
3300
0000
0000
0000
;

//--------------- dance-single - RxSteps ----------------
#NOTES:
     dance-single:
     RxSteps:
     Easy:
     6:
     0,0,0,0,0:
0000
0000
0000
0000
,
1000
0000
0100
0000
1000
0001
1000
0001
,
0100
0000
0001
0000
0010
0001
0010
0001
,
1000
0000
0010
0000
1000
0001
0100
0001
,
0100
0000
0010
0000
1000
0010
0100
0001
,
1000
0000
0002
0000
0100
0003
0100
0001
,
1000
0010
1000
0000
0010
0100
0001
0100
,
0001
0000
0001
0000
1000
0001
1000
0010
,
1000
0002
0100
0000
0103
0001
0100
0001
,
1000
0010
1000
0000
0100
1000
0000
0010
,
0100
0010
0100
0000
0001
0100
0000
0001
,
1000
0010
1000
0000
0001
0100
0000
0010
,
1000
0002
1000
0003
1000
0001
0000
0000
,
0100
0000
0001
0000
0010
0000
0100
1000
,
0100
0010
0001
1000
,
0100
0010
0100
1000
,
0200
0000
0000
0300
0010
0000
0000
0000
,
0001
1000
0001
1000
,
0001
0010
0200
0300
,
1100
0000
1000
0000
0010
0100
0010
0000
,
1000
0000
0001
0000
0010
0001
0010
0000
,
0100
0000
0010
0000
0001
1000
0001
0000
,
0100
0000
0010
0000
1000
0010
1000
0000
,
0001
0000
0100
0000
0010
1000
0010
0000
,
0100
0001
2000
3000
,
0001
1000
0001
0000
0100
0000
0100
0000
,
0010
1000
0010
0000
0100
0000
0100
0000
,
0001
0010
0001
0000
0100
0010
0100
0000
,
0001
1000
0010
0000
0010
1000
0001
0000
,
0100
0010
0100
0000
0001
0000
0001
0000
,
1000
0010
1000
0000
0001
0000
0001
0000
,
0100
0010
0100
0000
0010
0000
1000
0000
,
0001
0100
0001
0100
0001
0000
0000
0000
,
1001
0000
1000
0000
0010
0100
0010
0000
,
1000
0000
0001
0000
0010
0001
0010
0000
,
0100
0000
1000
0000
0100
0010
0100
0000
,
1000
0000
0010
0000
0100
0001
0100
0000
,
0110
0000
1000
0000
0001
0100
0001
0000
,
1000
0000
0010
0000
0100
0010
0100
0000
,
0001
0000
0100
0000
0010
1000
0010
0000
,
0100
0001
0100
0001
0100
0001
2000
0000
,
3001
0000
1000
0000
0020
0000
0030
0100
,
0010
0000
1000
0000
0002
0000
0003
0100
,
0001
0000
1000
0000
0200
0000
0300
1000
,
0100
1000
0010
0010
,
0100
0000
0010
0000
2000
0000
3000
0001
,
1000
0000
0010
0000
0200
0000
0300
0001
,
0100
0000
0001
0000
0020
0000
0030
0001
,
0010
0000
0001
0000
1000
0010
1000
0010
,
1000
0001
0010
0100
,
1000
0010
0100
0001
,
0010
0001
0100
0010
,
1000
0100
1000
0010
,
0100
0000
0001
0000
1000
0000
0100
1000
,
0100
0000
0010
0000
0001
0000
0010
0001
,
0010
0100
1000
0010
,
0100
0010
1000
0000
,
0201
0000
0310
0000
,
1200
0000
0310
0000
,
0021
0000
0130
0010
,
0001
1000
0020
0030
,
0110
0000
0001
0000
,
1020
0000
0130
0000
,
1002
0000
0103
0001
,
1000
0010
0200
0000
,
0001
0010
0001
0320
,
1000
0100
1000
0230
,
0010
0001
0010
0302
,
1000
0010
1000
0023
,
0130
1000
0100
0010
,
0001
0100
0010
1000
,
0001
0100
0010
0100
,
0001
0100
0020
0000
,
1000
0100
1000
0230
,
0001
0010
0001
0320
,
0100
1000
0100
2030
,
0001
0100
0001
3200
,
0310
0001
0010
0100
,
1000
0010
0100
0001
,
1000
0010
0100
0010
,
1000
0000
0100
0000
0010
0001
0010
0000
,
0002
0003
0200
0300
,
0020
0030
2000
3000
,
0002
0003
0020
0030
,
0100
0010
0001
1000
,
0010
0010
0100
0001
,
1000
1000
0010
0100
,
0001
0001
1000
0001
,
1000
0100
0010
0001
,
0010
0000
0000
0000
;

//--------------- dance-single - RxSteps ----------------
#NOTES:
     dance-single:
     RxSteps:
     Medium:
     8:
     0,0,0,0,0:
0000
0000
0000
0000
,
1000
0000
0100
0000
0010
0001
0100
0010
,
0100
0000
0001
0000
0010
0100
1000
0010
,
0100
0000
0010
0000
1000
0001
0010
0001
,
1000
0000
0100
0000
1000
0010
0100
0001
,
0010
0000
0002
0000
1000
0003
1000
0001
,
0100
0010
0100
0000
0001
0010
0100
2000
,
0001
0000
3001
0000
1000
0100
0010
0100
,
1000
0002
0010
0000
0013
0001
0100
0010
,
1000
0100
0010
0000
0100
1000
0000
0010
,
0100
0001
0010
0000
0001
1000
0000
0001
,
0100
0010
0100
0000
0001
1000
0000
0010
,
0100
0002
0010
0003
0010
0001
0000
1000
,
0100
0010
0100
1000
0001
1000
0010
0100
,
0010
1000
0001
0010
0100
0010
0001
0100
,
0010
1000
0100
0010
0001
0100
0010
1000
,
0200
0000
0000
0300
0010
0200
0000
0000
,
1000
1000
1000
1300
,
0001
0100
0001
0100
0010
1000
0100
0000
,
0201
0310
1000
0001
0010
0100
0010
0001
,
1000
0010
0100
0001
1000
0100
1000
0001
,
0010
0000
1200
0310
0100
1000
0001
0100
,
0010
0100
0001
1000
0100
1000
0001
0010
,
0100
0000
0201
0310
1000
0100
0010
0001
,
1000
0001
0010
0200
2000
0000
3300
0000
,
0001
0010
0100
0010
0001
0100
0002
0000
,
1003
0100
0010
0100
1000
0010
1000
0000
,
0100
1000
0010
0100
0010
1000
0001
0100
,
0001
0000
1000
0000
0200
0300
0000
0000
0100
0000
0010
0000
0100
0000
1000
0000
,
0001
0010
0100
0010
0001
1000
0010
0000
,
0100
0010
1000
0100
0010
0100
1000
0000
,
0201
0310
1000
0100
0010
0001
1000
0010
,
0100
0001
1000
0020
0200
0000
0330
0000
,
1002
0013
0100
1000
0100
0010
0100
1000
,
0001
0100
0010
0100
0001
0010
0100
1000
,
0100
0010
0100
1000
0100
0010
0100
1000
,
0010
1000
0100
1000
0010
1000
0100
0010
,
0001
0100
0010
1000
0100
1000
0010
0100
,
0001
0010
0100
0010
0001
0010
0100
1000
,
0010
1000
0001
1000
0100
0010
0100
1000
,
0001
1000
0001
0100
0010
1000
0200
0000
,
0010
0000
1300
0000
0002
0010
0003
0010
,
0001
0000
1000
0000
0020
0100
0030
0100
,
0010
0000
1000
0000
0002
0100
0003
0100
,
0001
0000
1000
0000
0010
0100
0001
2000
,
0100
0000
3020
0030
0200
0001
0300
0001
,
1000
0000
0010
0000
2000
0100
3000
0100
,
0010
0000
0001
0000
0020
0100
0030
0100
,
1000
0000
0001
0000
1000
0010
0100
0001
,
1000
0010
1000
0100
1000
0010
1000
0001
,
1000
0010
1000
0100
1000
0010
1000
0001
,
0010
0001
1000
0001
0010
0001
1000
0010
,
0100
0010
1000
0001
0100
0001
1000
0100
,
0010
0001
0010
0100
0010
0001
0010
0001
,
1000
0010
0100
0010
1000
0010
0100
0001
,
0010
1010
0101
1100
,
0110
0000
1001
0000
0021
0130
1000
0000
,
0101
0000
0000
0000
0001
0000
0200
0000
0010
0300
0000
0000
0010
0000
2000
0000
,
0100
3000
0000
0000
0100
0000
0020
0000
0001
0030
0000
0000
0001
0000
0000
0000
,
1010
0000
0000
0000
1000
0000
0002
0000
0100
0003
0000
0000
0100
0000
0000
0000
,
0010
1000
0001
0010
0200
0000
0300
0020
,
0001
0000
0030
0200
1000
0000
0300
0010
,
0002
0000
0003
2000
0010
0000
0000
3200
,
0020
0300
0031
1000
,
0010
0000
0000
0000
0100
0000
0000
0000
0001
0000
0000
1000
0001
0000
0100
0000
,
0010
1000
0010
0100
0010
1000
0010
0100
,
0001
1000
0001
0010
0001
1000
0001
0010
,
0001
0100
0010
1000
0100
1000
0010
0100
,
0001
0010
0001
0100
0010
1000
0100
1000
,
0010
0100
0010
1000
0001
0100
0010
1000
,
0001
0010
0100
1000
0001
0010
0100
1000
,
0001
0100
0001
0010
0001
0100
0001
0010
,
0001
1000
0100
0020
0002
0000
0033
0000
,
1001
0110
1001
0110
,
0011
1100
0101
1010
,
0001
0010
0100
1000
0001
0010
0100
1000
,
0010
0100
0001
0100
0010
1000
0100
0000
,
1001
0110
1001
0110
,
1100
0011
1010
0101
,
1000
0100
0010
0001
1000
0100
0010
0001
,
0100
0010
1000
0010
0100
0001
0010
0000
,
0001
0000
0020
0000
0100
0030
0001
0000
,
0001
1000
0010
0200
,
0001
0300
0020
0000
0100
0030
2000
0000
,
3200
0000
0010
0300
1000
0000
0001
0000
,
0200
0000
0010
0300
0010
0000
1000
0000
,
0200
0000
0010
0300
1000
0000
0001
0000
,
0200
0000
0010
0300
0001
0000
1000
0000
,
0001
0010
0100
1000
,
0010
0000
0000
0000
;

//--------------- dance-single - RxSteps ----------------
#NOTES:
     dance-single:
     RxSteps:
     Hard:
     9:
     0,0,0,0,0:
0000
0000
0000
0000
,
1000
0000
0100
0000
0010
0001
0100
0010
,
0100
0000
0001
0000
0010
0100
1000
0010
,
0100
0000
0010
0000
1000
0001
0010
0001
,
1000
0000
0100
0000
1000
0010
0100
0001
,
0010
0000
0002
0000
1000
0003
1000
0001
,
0100
0010
0100
0000
0001
0010
0100
2000
,
0001
0000
3001
0000
1000
0100
0010
0100
,
1000
0002
0010
0000
0013
0001
0100
0010
,
1000
0200
0302
0003
0100
1000
0000
0010
,
0100
0001
0010
0000
0001
1000
0000
0001
,
0020
1030
0010
0000
0001
0100
0000
0010
,
1000
0002
0010
0003
0010
0001
0000
1000
,
0100
0010
0100
1000
0001
1000
0010
0100
,
0010
1000
0001
0010
0100
0010
0001
0100
,
0010
1000
0100
0010
0001
0100
0010
1000
,
0200
0000
0000
0300
0001
0200
0000
0000
,
1000
1000
1000
1300
,
0001
0100
0001
0100
0010
1000
0100
0000
,
0201
0310
1000
0001
0010
0100
0010
0001
,
1000
0010
0100
0001
0200
1300
0100
0001
,
0010
0000
1200
0310
0100
1000
0001
0100
,
0010
0100
0001
1000
0100
1000
0001
0010
,
0100
0000
0201
0310
1000
0100
0010
0001
,
1000
0001
0200
2300
0002
0000
3003
0000
,
1000
0000
0200
0300
0001
0000
0200
0300
1000
0000
0100
0000
0002
0000
0000
0000
,
1003
0000
0200
0300
0001
0000
0200
0300
1000
0000
0200
0300
0002
0003
0000
0000
,
0100
1000
0010
0100
0010
1000
0001
0100
,
0001
0000
1000
0000
0200
0300
0000
0000
0100
0000
0010
0000
0100
0000
1000
0000
,
0001
0000
0020
0030
1000
0000
0020
0030
0001
0000
0010
0000
0200
0000
0000
0000
,
0301
0000
0200
0300
1000
0000
0200
0300
0001
0000
0100
0000
1000
0000
0000
0000
,
0201
0310
1000
0100
0010
0001
1000
0010
,
0100
0001
1000
0020
0200
0000
0330
0000
,
1002
0013
0100
1000
0100
0010
0100
1000
,
0001
0100
0010
0100
0001
0010
0100
1000
,
0200
0300
0001
0000
0200
0300
1000
0000
0200
0300
0001
0000
0100
0000
1000
0000
,
0010
1000
0100
1000
0010
1000
0100
0010
,
0001
0100
0010
1000
0100
1000
0010
0100
,
0001
0010
0100
0010
0001
0010
0100
1000
,
0010
1000
0001
1000
0100
0010
0100
1000
,
0001
1000
0001
0100
0010
1000
0200
0000
,
0010
0000
1300
0000
0002
0010
0003
0010
,
0001
0000
1000
0000
0020
0100
0030
0100
,
0010
0000
1000
0000
0002
0100
0003
0100
,
0001
0000
1000
0000
0010
0100
0001
2000
,
0100
0000
3020
0030
0200
0001
0300
0001
,
1000
0000
0010
0000
2000
0100
3000
0100
,
0010
0000
0001
0000
0020
0100
0030
0100
,
1000
0000
0001
0000
1000
0010
0100
0001
,
1000
0010
1000
0100
1000
0010
1000
0001
,
1000
0000
0010
0000
1000
0000
0100
0000
1000
0000
0010
0000
1000
0000
0200
0300
,
0001
0000
0200
0300
1000
0000
0200
0300
0001
0000
0100
0000
1000
0000
0020
0030
,
0001
0000
0020
0030
1000
0000
0020
0030
0001
0000
0010
0000
1000
0000
0100
0000
,
0010
0001
0010
0100
0010
0001
0010
0001
,
1000
0010
0100
0010
1000
0010
0100
0001
,
0010
1010
0101
1100
,
0110
0000
1001
0000
0021
0130
1000
0000
,
0101
0000
0000
0000
0001
0000
0200
0000
0010
0300
0000
0000
0010
0000
2000
0000
,
0100
3000
0000
0000
0100
0000
0020
0000
0001
0030
0000
0000
0001
0000
0000
0000
,
1010
0000
0000
0000
1000
0000
0002
0000
0100
0003
0000
0000
0100
0000
0000
0000
,
0010
0000
1000
0000
0200
0300
0001
0000
2000
0000
0000
0000
3000
0000
0020
0000
,
0001
0000
0030
0200
1000
0000
0300
0010
,
0002
0000
0003
2000
0010
0000
0000
3200
,
0020
0300
0031
1000
,
0010
0000
0000
0000
0100
0000
0000
0000
0001
0000
0000
1000
0001
0000
0100
0000
,
0010
1000
0010
0100
0010
1000
0010
0100
,
0001
1000
0001
0010
0001
1000
0001
0010
,
0001
0000
0200
0300
1000
0000
0200
0300
0001
0000
0200
0300
1000
0000
0100
0000
,
0001
0000
0020
0030
1000
0000
0020
0030
0001
0000
0020
0030
1000
0000
0010
0000
,
0001
0100
0010
1000
0001
0100
0010
1000
,
0001
0010
0100
1000
0001
0010
0100
1000
,
0001
0100
0001
0010
0001
0100
0001
0010
,
0001
1000
0100
0020
0002
0000
0033
0000
,
1001
0110
1001
0110
,
0011
1100
0101
1010
,
0001
0010
0100
1000
0020
0031
1000
0100
,
0010
0100
1000
0001
0010
0100
0010
0000
,
1001
0110
1001
0110
,
1100
0011
1010
0101
,
1000
0100
0010
0001
0200
1300
0001
0010
,
0100
0010
0001
1000
0100
0010
0100
0000
,
0001
0020
0100
0031
,
0001
0000
0020
0000
1000
0030
0020
0000
,
0001
0230
1000
0310
,
0001
0020
1030
0001
,
0200
1000
0310
0002
,
1000
0023
0130
1000
,
0020
0031
1000
0100
,
0001
0010
0100
1000
,
0010
0000
0000
0000
;
