#TITLE:Oopsie Daisy;
#SUBTITLE:;
#ARTIST:JubyPhoinc Feat. KIRA;
#TITLETRANSLIT:;
#SUBTITLETRANSLIT:;
#ARTISTTRANSLIT:;
#GENRE:;
#CREDIT:RxSteps;
#MUSIC:Oopsie Daisy.ogg;
#BANNER:Oopsie Daisy.png;
#BACKGROUND:Oopsie Daisy-bg.png;
#CDTITLE:cdtitle.png;
#SAMPLESTART:36.026;
#SAMPLELENGTH:28.000;
#SELECTABLE:YES;
#OFFSET:1.974;
#BPMS:0.000=120.000;
#STOPS:;
#BGCHANGES:;
#FGCHANGES:;

//--------------- dance-single - RxSteps ----------------
#NOTES:
     dance-single:
     RxSteps:
     Beginner:
     2:
     0,0,0,0,0:
0000
0000
0000
0000
,
1000
0000
0000
0000
,
1000
0000
0000
0000
,
0001
0000
0000
0000
,
0100
0000
0000
0000
,
0100
0000
0000
0010
,
0000
0000
0000
1000
,
0000
0000
0001
0000
,
0100
0000
0100
0000
,
0010
0000
0010
0000
,
0010
0000
1000
0000
,
1000
0000
0000
0000
,
0001
0000
0000
0000
,
0100
0000
0000
0000
,
0100
0000
0000
0000
,
0010
0000
0000
0000
,
1000
0000
0000
0000
,
0010
0000
0000
0000
,
0001
0000
0000
0000
,
0001
0000
0000
0000
,
1000
0000
0000
0000
,
0100
0000
0100
0000
,
0001
0000
0001
0000
,
1000
0000
0000
0000
,
0100
0000
0100
0000
,
0001
0000
1000
0000
,
1000
0000
0000
0000
,
0100
0000
0000
0000
,
0010
0000
0000
0000
,
1000
0000
0000
0000
,
0001
0000
0000
0000
,
0001
0000
0000
0000
,
0100
0000
0000
0000
,
0100
0000
0000
0000
,
0010
0000
0000
0000
,
0001
0000
0001
0000
,
0100
0000
0100
0000
,
0010
0000
0000
0000
,
1000
0000
0000
0000
,
0100
0000
0000
0000
,
0001
0000
0000
0000
,
1000
0000
0000
0000
,
0010
0000
0000
0000
,
1000
0000
0000
0000
,
1000
0000
0010
0000
,
1000
0000
0001
0000
,
0100
0000
0000
0000
,
0001
0000
0000
0000
,
0010
0000
0000
0000
,
0001
0000
1000
0000
,
0010
0000
0000
0000
,
0100
0000
0000
0000
,
0100
0000
0000
0000
,
1000
0000
0000
0000
,
1000
0000
0000
0000
,
0010
0000
0000
0000
,
0100
0000
0010
0000
,
0100
0000
0000
0000
,
0001
0000
0000
0000
,
0001
0000
0000
0000
,
1000
0000
0010
0000
,
0000
0000
0000
0000
,
0100
0000
0000
0000
,
0100
0000
0000
0000
,
1000
0000
1000
0000
,
0010
0000
0010
0000
,
0001
0000
1000
0000
,
0010
0000
0000
0000
,
0100
0000
0000
0000
,
0001
0000
0000
0000
,
1000
0000
0000
0000
,
0010
0000
0000
0000
,
0100
0000
0000
0000
,
0010
0000
0000
0000
,
0010
0000
0000
0000
,
1000
0000
0001
0000
,
0100
0000
0000
0000
,
0100
0000
0000
0000
,
0010
0000
0000
0000
,
0100
0000
0010
0000
,
1000
0000
0000
0000
,
0001
0000
0000
0000
,
1000
0000
0000
0000
,
0010
0000
0000
0000
,
0010
0000
0000
0000
,
1000
0000
0000
0000
,
0001
0000
1000
0000
,
0001
0000
0000
0000
,
0010
0000
0000
0000
,
1000
0000
0000
0000
,
0100
0000
0100
0000
,
0001
0000
0000
0000
;

//--------------- dance-single - RxSteps ----------------
#NOTES:
     dance-single:
     RxSteps:
     Easy:
     4:
     0,0,0,0,0:
0000
0000
0000
0000
,
0001
0000
0000
0000
0000
0100
0000
0000
,
0100
0000
0010
0000
,
1000
0000
0000
0000
0000
0010
0000
0000
,
1000
1000
1000
0001
,
0100
0000
0010
0100
,
0010
0000
1000
0100
,
1000
0010
0100
0100
,
0002
0003
1000
0010
,
1000
0010
1000
0000
0001
0000
0100
0000
,
0100
0001
0010
0100
,
1000
1000
0010
0100
,
0010
0010
1000
0000
,
0002
0000
0000
0003
,
0200
0000
0000
0300
,
0020
0000
0000
0030
,
1000
0000
0010
0000
,
1000
1000
0001
0100
,
0000
0100
0010
1000
,
0002
0000
0000
0003
,
1000
1000
1000
0010
,
1000
0001
0100
0010
,
1000
1000
0001
0001
,
0200
0300
0001
0010
,
0100
1000
1000
0000
,
0010
1000
0001
0100
,
0010
0010
1000
0100
,
2000
3000
0001
0001
,
0100
0001
0010
0001
,
2000
0000
3000
0000
,
0020
0000
0030
0010
,
1000
0100
0010
0001
,
1000
0001
0100
0100
,
0020
0030
2000
3000
,
0002
0003
0200
0300
,
0001
0000
0100
0000
0001
0100
0001
0000
,
1000
0000
0000
0000
0001
1000
0001
0000
,
2000
0000
0000
3000
0000
0000
0000
0000
,
0010
1000
1000
0020
,
0030
0200
0300
0000
,
0002
0003
0010
0010
,
0001
0100
0010
1000
,
0010
0100
0001
1000
,
0020
0000
0000
0030
,
1000
0001
1000
0001
,
0001
1000
0010
0100
,
0001
0001
1000
1000
,
0020
0030
1000
0100
,
0010
0001
0001
0000
,
0100
0001
1000
0010
,
0100
0100
0001
0010
,
0002
0003
1000
1000
,
0010
1000
0100
0000
,
2200
0000
3300
0000
,
2002
0000
3003
0000
,
0022
0000
0033
0000
,
0001
0001
0100
0100
,
0020
0000
0030
0000
,
2000
3000
0010
1000
,
0001
1000
0010
0100
,
0001
0010
0001
1000
,
0000
0000
0000
0000
,
0002
0000
0003
0000
,
0200
0000
0300
0000
,
0001
0001
0001
1000
,
0010
0010
0100
0100
,
0001
1000
0010
0010
,
2000
0000
3000
0000
,
0020
0000
0030
0000
,
1000
0100
0010
0001
,
1000
0010
0100
0001
,
2000
0000
3000
0000
,
0020
0000
0030
0000
,
1000
0001
0100
0100
,
0001
0100
0100
0001
,
0001
1000
0100
0010
,
0001
0001
1000
1000
,
0200
0300
1000
0010
,
0100
0001
0001
0000
,
0010
0001
1000
0100
,
0010
0010
0001
0100
,
0002
0003
1000
1000
,
0100
1000
0010
0000
,
2020
0000
3030
0000
,
2002
0000
3003
0000
,
0202
0000
0303
0000
,
0001
0001
0010
0010
,
0200
0000
0300
0000
,
2000
3000
0100
1000
,
0001
1000
0100
0010
,
0001
0100
0001
1000
,
0002
0000
0003
0000
;

//--------------- dance-single - RxSteps ----------------
#NOTES:
     dance-single:
     RxSteps:
     Medium:
     7:
     0,0,0,0,0:
0000
0000
0000
0000
,
0001
0000
0100
0000
0000
0010
0000
0100
,
0010
0000
1000
0000
0000
0001
0000
0100
,
0001
0100
0000
0010
,
1000
1000
1000
0011
,
0001
0010
0100
0000
0100
0000
1000
0100
,
0000
1000
0100
0010
0100
0000
1000
0001
,
0000
1000
0010
1000
0002
0000
0003
0100
,
0001
0100
0010
0100
0020
0000
1030
0000
,
0001
1000
0001
0000
1010
0000
0000
0001
,
0100
0001
0100
0000
0010
0000
1000
0000
,
0100
1000
0100
0010
0002
0000
0003
1000
,
0001
0000
1000
0001
0000
0000
0000
0000
0200
0000
0000
0000
0000
0000
0000
0000
,
0302
0000
0000
0003
,
1000
0000
0001
1000
0010
0100
0010
0100
,
0002
0000
0003
1000
,
0020
0000
0030
0100
0010
0000
1000
0000
,
0001
0010
0100
1000
0001
1000
0002
0003
,
0000
0001
0010
0100
1000
0100
2000
0000
,
3000
0010
0000
0000
0200
0000
0000
0000
,
0001
0001
0010
0310
,
1000
0010
1000
0010
0100
0001
0100
0001
,
1000
0200
0310
1000
,
0002
0003
0000
1000
0001
1000
0001
0100
,
0001
0020
0130
0001
,
0010
0001
0010
0001
1000
0010
1000
0010
,
0200
0010
0301
1000
,
0200
0300
1000
0100
0010
0001
1000
0000
,
0100
1000
0010
0100
,
0002
0000
0000
0000
,
2003
0000
3000
0110
,
1001
0000
0001
0000
1000
0010
1000
0010
,
0000
0100
0001
0100
0010
0100
0002
0000
,
2003
3000
0010
0010
,
1000
0100
1000
0000
0020
0000
0130
0000
,
0001
0010
0100
0000
0100
0010
0100
0000
,
2000
0000
3000
0000
0001
1000
0001
0000
,
0200
0000
0000
0300
,
0010
0000
1000
0010
0100
0010
1000
0000
,
0000
0001
0100
0001
1000
0000
0010
0000
,
0200
0000
0302
0013
,
0001
0010
0100
1000
0100
2000
0000
3000
,
0000
0001
1000
0001
0100
0010
1000
0000
,
0020
0100
0100
1030
,
1000
0100
0010
0001
1000
0001
0100
0000
,
0001
0100
0001
0100
0010
1000
0010
1000
,
0001
0020
0130
0001
,
2000
3000
0000
0001
1000
0001
1000
0010
,
1000
0200
0310
1000
,
0100
1000
0100
1000
0001
0100
0001
0100
,
0020
0100
1030
0001
,
0020
0030
0001
0010
0100
1000
0001
0000
,
0010
0001
0100
0010
,
2020
0000
0000
0000
0000
3030
0000
0000
,
0022
0000
0000
0033
,
0001
0100
0001
1000
0001
0000
0001
0000
,
1000
0100
1000
0100
1000
0001
1000
0001
,
0200
0010
0001
0310
,
0002
0000
0100
0103
,
1000
0010
1000
0010
1000
0000
1000
0000
,
0002
0203
0320
2030
,
3002
0000
0000
0003
,
0100
0000
0001
0000
0000
1000
0000
0010
,
0100
0020
0030
0000
,
1010
0110
0101
0001
,
1000
1000
0010
0010
,
1000
0010
0100
0100
,
0001
0000
0000
0000
0000
0000
0000
0000
0000
0000
0000
0000
0100
0000
0000
0000
0000
0000
0000
0000
0000
0000
0000
0000
0001
0000
0000
0000
0000
0000
0000
0000
0000
0000
0000
0000
0100
0000
0000
0000
0000
0000
0000
0000
0000
0000
0000
0000
0020
0000
0000
0000
0000
0000
0000
0000
0000
0000
0000
0000
0000
0000
0000
0000
0000
0000
0000
0000
0000
0000
0000
0000
0000
0030
0000
0000
0000
0000
0000
0000
0000
0000
0000
0000
0000
0000
0000
0000
0000
0000
0000
0000
0000
0000
0000
0000
,
1000
0000
1000
0010
0100
0010
0100
0000
,
0220
0000
0330
0000
,
2200
0000
3300
0000
,
0202
0000
0303
0000
,
0001
0000
0000
0000
0001
0000
0000
1000
0001
0000
0000
0000
0000
0000
0000
0000
,
1000
0100
0010
0001
,
0010
0100
1000
1000
,
0001
0010
0001
0010
0100
1000
0100
1000
,
0001
0200
0310
0001
,
2000
3000
0000
0001
1000
0001
1000
0100
,
1000
0020
0130
1000
,
0010
1000
0010
1000
0001
0010
0001
0010
,
0200
0010
1300
0001
,
0200
0300
0001
0100
0010
1000
0001
0000
,
0100
0001
0010
0100
,
2200
0000
0000
0000
0000
3300
0000
0000
,
0202
0000
0000
0303
,
0001
0010
0001
1000
0001
0000
0001
0000
,
1000
0010
1000
0010
1000
0001
1000
0001
,
0020
0100
0001
0130
,
0002
0000
0010
0013
,
1000
0100
1000
0100
1000
0000
1000
0000
,
0002
0023
0230
2300
,
3002
0000
0003
0000
;

//--------------- dance-single - RxSteps ----------------
#NOTES:
     dance-single:
     RxSteps:
     Hard:
     8:
     0,0,0,0,0:
0000
0000
0000
0000
,
0001
0000
1000
0000
0000
0100
0000
0010
,
0001
0000
0100
0000
0010
0100
0000
0001
,
1000
0010
0100
0010
,
1000
0000
0001
0000
0100
0000
0010
1000
,
0001
0100
0010
0100
0002
0000
2000
0003
,
3000
0010
0100
0010
0002
0000
2000
0003
,
3000
0001
0010
0100
0010
0001
0100
0010
,
1000
0001
1000
0000
0010
0000
0100
0000
0001
0000
0000
0000
1010
0000
0000
0000
,
0001
0000
0100
0000
0010
0000
0100
0010
0100
0000
0000
0001
0000
0100
0001
0000
,
0100
0010
0100
0000
0010
0000
1000
0001
1000
0000
0010
0000
1000
0000
0100
0000
,
0000
0000
0010
0000
0100
0000
0001
0000
1000
0010
1000
0000
0001
0000
0100
0000
,
0010
0000
0100
0010
0000
1000
0001
0000
0200
0000
0000
0000
0301
0000
0000
0000
,
1000
0000
0010
1000
0200
0000
0320
0000
,
0130
0000
0010
0001
0100
0001
0010
0001
,
0100
0010
0100
0001
0020
0000
0200
0030
,
1300
0002
0003
0200
0302
0000
0023
0030
,
0001
0000
1000
0100
1000
0000
0010
1000
0010
0000
0100
0000
0001
0000
1000
0000
,
0010
0100
0010
1000
0100
1000
0010
1000
,
0001
0100
0010
0100
0001
1000
0020
0000
,
1030
0001
1000
0001
0100
0010
1000
0010
,
2001
0100
0001
3100
0110
1001
0110
1001
,
1000
0010
0100
0001
0200
0000
0310
0000
,
0022
0000
0000
0033
0000
0000
0001
0000
0010
0000
0100
0000
1000
0000
0010
0000
,
0100
0001
1000
0010
2000
0000
3100
0000
,
1002
0100
1000
0103
0110
1001
0110
1001
,
0001
1000
0010
0100
0002
0000
0020
0033
,
2200
3300
1000
0100
1000
0001
0100
0010
,
1000
0001
1000
0100
2000
0000
3001
0000
,
0100
0000
0010
0000
0100
0000
0001
0000
1000
0000
0001
1000
0000
0000
0010
0000
,
0000
1000
0010
0100
0010
1000
0001
0100
,
0010
0000
1000
0000
0100
0000
1000
0000
0001
0000
0100
0001
0000
0000
0100
0000
,
0000
0010
0100
0001
0100
0010
1000
0001
,
1000
0000
0100
1000
0000
0000
0010
0000
1000
0010
0000
0000
1000
0000
0001
0000
,
0010
0000
0001
0010
0000
0000
0100
0000
0020
0000
0000
0000
0032
0000
0003
0000
,
0100
0000
0001
0000
0010
0000
0001
0000
1000
0000
0010
1000
0000
0000
0100
0000
,
1000
0010
0100
0001
1100
0101
1100
0000
,
0010
0000
1000
0001
2000
0000
3020
0000
,
0230
0300
0010
0100
0010
1000
0001
0100
,
0001
1000
0100
0010
0002
0000
1003
0000
,
0100
0000
2000
0000
0000
3000
0002
0000
0200
0003
0300
0000
0010
0000
0000
0000
,
0100
0000
0001
0100
0000
0010
0100
0000
0010
0000
1000
0000
0100
0000
1000
0000
,
0001
0100
0010
1000
0001
0100
0010
0100
,
0001
1000
0010
0100
0001
0010
0200
0000
,
0310
0001
0100
0010
1000
0000
0101
0000
,
1001
0110
1001
0110
1002
0010
1000
0013
,
0001
1000
0010
0100
0020
0000
1030
0000
,
0202
0000
0000
0303
0000
0000
1000
0000
0001
0000
1000
0000
0010
0000
0100
0000
,
0010
1000
0100
1000
0020
0000
1030
0000
,
1001
0110
1001
0110
2001
0010
0001
3010
,
1000
0001
0100
0010
0200
0000
0301
0000
,
2200
3300
1000
0100
1000
0001
0100
0010
,
1000
0100
0010
0001
2000
0000
3010
0000
,
0011
1010
0001
0100
0002
0000
0103
0000
,
1100
0202
0303
1000
0200
0000
0310
0000
,
0101
1010
0001
0100
0020
0000
1030
0000
,
0001
0100
0010
1000
0001
0100
0010
1000
,
0201
0301
1000
0010
0200
0000
0301
0000
,
1020
2000
3030
0001
0200
0000
0310
0000
,
1200
1300
0001
0010
0200
0000
1300
0000
,
0011
0110
1010
0101
,
1000
0000
0001
0000
0000
0010
0000
0100
,
1000
0000
0010
0000
0000
0100
0000
0010
,
0100
0001
1000
0100
,
0011
1100
0110
0101
,
2000
0010
0100
3001
,
0120
1030
0011
1010
,
0001
0100
0001
0000
1000
0000
0100
0000
0010
0000
0001
0000
0000
0000
0100
0000
,
0001
0100
0000
0001
1000
0000
0000
0010
0000
1000
0010
0000
0000
0000
0100
0000
,
2001
0000
0100
0000
3010
0100
0001
0000
,
0120
0000
1000
0000
0130
0001
1000
0010
,
0012
0000
1000
0000
0103
0010
1000
0000
,
0201
0000
0010
0000
0301
1000
0010
0000
,
0100
0001
1000
0100
0010
0100
1000
0010
,
0100
0001
0010
0100
1000
0001
0110
0000
,
2001
0010
0001
3010
0110
1001
0110
1001
,
1000
0100
0010
0001
0020
0000
0130
0000
,
0202
0000
0000
0303
0000
0000
0001
0000
0100
0000
0010
0000
1000
0000
0100
0000
,
0010
0001
1000
0100
2000
0000
3010
0000
,
1002
0010
1000
0013
0110
1001
0110
1001
,
0001
1000
0100
0010
0002
0000
0103
0000
,
0022
0033
0100
0010
1000
0001
0010
0100
,
1000
0001
1000
0010
2000
0000
3001
0000
,
1100
0101
1000
0010
2000
0000
3010
0000
,
0011
2020
3030
0001
0020
0000
0130
0000
,
1010
0101
1000
0010
0200
0000
0301
0000
,
1000
0010
0100
0001
1000
0010
0100
0001
,
1020
1030
0001
0100
0020
0000
1030
0000
,
0201
0002
0303
1000
0020
0000
0130
0000
,
0021
0031
1000
0100
0020
0000
0031
0000
,
1100
0110
0101
2010
,
0002
0000
3003
0000
;
