#TITLE:Often;
#SUBTITLE:;
#ARTIST:ASTON;
#TITLETRANSLIT:;
#SUBTITLETRANSLIT:;
#ARTISTTRANSLIT:;
#GENRE:;
#CREDIT:RxSteps;
#MUSIC:Often.ogg;
#BANNER:Often.png;
#BACKGROUND:Often-bg.png;
#CDTITLE:cdtitle.png;
#SAMPLESTART:48.362;
#SAMPLELENGTH:28.454;
#SELECTABLE:YES;
#OFFSET:2.361;
#BPMS:0.000=97.000;
#STOPS:;
#BGCHANGES:;
#FGCHANGES:;

//--------------- dance-single - RxSteps ----------------
#NOTES:
     dance-single:
     RxSteps:
     Beginner:
     3:
     0,0,0,0,0:
0000
0000
0000
0000
,
0001
1000
0010
0000
,
0010
1000
0001
0001
,
0100
0001
1000
0000
,
0010
0100
0001
0010
,
0100
0000
1000
0000
,
0010
0000
0010
0100
,
0010
0000
1000
0001
,
0100
0000
0001
1000
,
0010
0100
0001
1000
,
0010
1000
0001
0001
,
0100
0010
1000
0100
,
0020
0030
0001
0100
,
0001
0100
0001
0000
1000
0000
1000
0000
,
0001
0100
0010
1000
,
0001
0100
0001
0000
0010
0000
0100
0000
,
2000
3000
0001
0010
,
0100
0010
0000
0001
,
0000
0000
1000
0000
0000
0100
1000
0100
,
0000
0010
0000
0001
,
0000
0001
1000
0100
,
0010
0010
0001
1000
,
0010
0010
0100
0001
,
0010
0001
1000
0010
,
0100
0100
0001
0010
,
0100
0010
0100
0000
1000
0000
0001
0000
,
0100
0100
0001
0001
,
0001
1000
0001
0000
0100
0000
0010
0000
,
2000
3000
0001
0100
,
0010
0010
1000
1000
,
0001
0001
0100
0010
,
1000
1000
0001
0001
,
0200
0300
0010
1000
,
0100
0100
1000
1000
,
0001
1000
0010
0100
,
0001
0000
0100
0001
,
0001
1000
0000
0010
,
1000
0100
1000
0000
0001
0000
0001
0000
,
1000
0010
0100
0100
,
0010
1000
0010
0000
0100
0000
0001
0000
,
2000
3000
0001
0100
,
0010
0100
0000
0001
,
0000
0000
1000
0000
0000
0010
0100
0010
,
0000
1000
0000
0001
,
0000
0100
0001
1000
,
0100
1000
1000
0001
,
0010
0000
0010
0001
,
0100
0000
0100
0010
,
1000
0001
0001
0100
,
0010
0100
0010
0000
1000
0000
0001
0000
,
0100
0001
0010
0001
,
1000
0001
1000
0000
0010
0000
1000
0000
,
0200
0300
1000
0100
,
0010
0010
0001
0001
,
1000
1000
0010
0100
,
0001
0001
1000
1000
,
0020
0030
0100
0001
,
0010
0001
0000
1000
,
0000
0010
0100
0100
,
0001
1000
0000
0010
,
0000
0100
0010
0010
,
1000
0001
0000
0100
,
0000
0000
0010
0000
0000
1000
0010
1000
,
0000
0001
0000
0100
,
0000
0020
0000
0000
,
0000
0030
1000
0100
,
0010
0001
0010
0000
0100
0000
1000
0000
,
0001
0100
0100
0001
,
1000
0001
1000
0000
0010
0000
0100
0000
,
0001
1000
1000
0010
,
0100
0001
0100
0000
0001
0000
1000
0000
,
0010
1000
0001
0001
,
0010
0001
0010
0000
0001
0000
1000
0000
,
2000
3000
0001
0100
,
0010
0010
1000
1000
,
0001
0001
0100
0100
,
0010
0010
1000
1000
,
0002
0003
1000
0100
,
0010
0000
0000
0000
;

//--------------- dance-single - RxSteps ----------------
#NOTES:
     dance-single:
     RxSteps:
     Easy:
     5:
     0,0,0,0,0:
0000
0000
0000
0000
,
0001
0000
1000
0010
1000
0000
0010
0000
,
1000
0000
0010
0100
0010
0000
1000
0000
,
0001
0000
0100
0001
0100
0000
0010
0000
,
1000
0000
0001
0100
0001
0010
0100
1000
,
0100
1000
0000
1000
0001
0100
0010
0100
,
0001
0000
0000
1000
0010
0100
0001
0010
,
0001
0010
0000
0001
1000
0010
1000
0001
,
0100
0000
0000
0001
1000
0100
0010
0001
,
1000
0000
0001
0100
0010
0100
0001
1000
,
0010
0100
0001
0001
,
1000
0100
0010
0001
1000
0010
0100
0010
,
2000
3000
0001
1000
0010
0000
0010
0100
,
0001
0000
1010
0000
0001
1000
0001
0100
,
0001
0010
0001
0010
0100
0000
0100
0010
,
0001
0000
1001
0000
1000
0010
1000
0001
,
0200
0300
0010
0000
1000
0100
0010
0001
,
0010
0000
0001
0000
0100
0000
0100
0010
,
1000
0010
0000
0000
0000
0010
1000
0001
,
1000
0001
0100
0010
1000
0000
1000
0001
,
0100
0001
0000
0000
1000
0100
0010
0001
,
0010
0000
0100
1000
0001
0100
0001
1000
,
0100
0000
1000
0000
0010
0100
0001
1000
,
0010
0100
0010
0000
1000
0001
0100
0001
,
2000
3000
0010
0000
0010
1000
0001
0100
,
0010
0000
1001
0000
0001
1000
0001
0100
,
0010
0000
1000
0001
1000
0010
1000
0100
,
1000
0100
0010
0000
0010
0100
1000
0001
,
2000
3000
0010
0000
1000
0001
0100
0010
,
1000
0100
1000
0010
0100
0001
0010
0001
,
1000
0010
0100
0000
0100
0010
1000
0001
,
0100
0010
0100
0001
1000
0010
1000
0001
,
0200
0300
0010
1000
0001
0010
0100
1000
,
0100
0000
0100
1000
0010
0000
0010
0000
,
0100
0001
0100
0000
0010
1000
0010
0000
,
0010
1000
0000
0001
0100
0000
0010
0000
,
0010
0100
0000
0001
1000
0000
1000
0000
,
0001
0000
0100
0000
0001
0000
0100
0000
0010
0000
2000
0000
0000
3000
0000
0000
,
0001
0000
0100
0000
0001
0000
0010
0000
0001
0000
2000
0000
0000
3000
0000
0000
,
0010
0000
0100
0000
0001
0000
1000
0000
0010
0000
0200
0000
0000
0300
0000
0000
,
0002
0003
1000
0001
1000
0100
0010
0001
,
0010
0000
0100
0000
1000
0000
1000
0001
,
1000
0010
0000
0000
0000
0010
1000
0010
,
1000
0001
0010
0001
,
0010
0100
1000
0000
0001
0100
0010
1000
,
0001
0100
0000
0001
1000
0001
0100
0010
,
0100
0000
0000
0001
1000
0000
1000
0010
,
0100
0010
0000
0010
0100
0001
1000
0001
,
1000
0000
0010
0000
0010
0100
0001
1000
,
0010
0000
0011
0000
0001
0010
0001
0010
,
0100
1000
0100
0000
0100
0010
0100
1000
,
0100
0000
1100
0000
1000
0010
0100
0010
,
2000
3000
0001
1000
0001
0010
0100
1000
,
0010
0100
0010
1000
0001
1000
0010
0100
,
0001
0010
0001
0000
0001
0010
0100
1000
,
0100
0010
0100
1000
0100
0010
0100
1000
,
0002
0003
0100
0001
0100
0010
1000
0001
,
0100
0000
0000
0000
0001
0000
1000
0001
,
1000
0010
0000
0000
0100
0000
0100
0010
,
0000
1000
0010
1000
0010
0000
0100
0001
,
0100
0001
0000
0000
1000
0000
1000
0000
,
0001
1000
0001
1000
0001
0000
0001
1000
,
0010
1000
0000
0000
0000
0010
1000
0010
,
0100
0000
0000
0000
0001
0000
1000
0010
,
1000
0002
0000
0000
0000
0000
0000
0000
,
2000
0000
3003
0000
1000
0001
0100
0010
,
0100
0000
1001
0000
1000
0010
0100
0010
,
1000
0000
0110
0000
0001
0100
0001
0100
,
0010
0000
0010
0100
0001
1000
0001
1000
,
0020
0030
1000
0000
1000
0100
0010
0001
,
1000
0001
1000
0010
1000
0010
0100
0001
,
0100
0000
1001
0000
0001
0100
0001
1000
,
0010
0100
0001
1000
0100
0010
0001
1000
,
0002
0003
0100
0001
1000
0010
0100
0001
,
1000
0010
0100
0001
1000
0010
0100
0001
,
0010
0001
0010
0000
0010
0001
0010
0100
,
1000
0001
0010
0100
0010
0001
0010
0100
,
2000
3000
0001
0100
0010
1000
0001
1000
,
0010
0100
0000
0000
0000
0000
0000
0000
;

//--------------- dance-single - RxSteps ----------------
#NOTES:
     dance-single:
     RxSteps:
     Medium:
     7:
     0,0,0,0,0:
0000
0000
0000
0000
,
0001
0000
1000
0010
0100
0000
0010
0000
,
1000
0000
0010
0100
0001
0000
0010
0000
,
0100
0000
1000
0100
0010
0000
0100
0000
,
1000
0000
0000
0000
0001
0000
0100
0000
0001
1000
0001
0000
0100
0000
0010
0000
,
1000
0000
0001
0000
0000
0000
0100
0000
0001
1000
0001
0000
0100
0000
0010
0000
,
1000
0000
0000
0000
0000
0000
0101
0000
1000
0010
2000
0000
0001
0000
3010
0000
,
1000
0000
0100
0000
0000
0000
0100
0000
0010
0001
0020
0000
0100
0000
0031
0000
,
2000
0000
0000
0000
0000
0000
3100
0000
0010
0001
0010
0000
0100
0000
1000
0000
,
0201
0000
0310
0000
1000
0000
0100
0000
0010
0000
0100
0000
1000
0000
0010
0100
,
0010
1000
0100
0000
0101
0000
0110
0000
,
1000
0100
0010
0001
1000
0010
0100
0010
,
1000
0001
1000
0001
1000
0000
0010
0000
0100
0010
0100
0000
0001
0000
0200
0000
,
0010
0000
0301
0000
1020
0000
0130
0000
0001
0000
0010
0000
0100
0000
0010
0001
,
0010
0100
1000
0010
0100
0010
1000
0200
,
0010
1300
2100
3100
0010
0100
1000
0010
,
0100
0001
0100
0001
0100
0000
0010
0000
1000
0001
1000
0000
0001
0000
0100
0000
,
0010
1000
0001
1000
0100
0000
0100
1000
,
0010
0000
0100
0001
0200
0000
0000
0000
0300
0000
0010
0000
1000
0000
0001
0000
,
0100
0001
0010
0100
1000
0000
1000
0010
,
0100
0000
0010
1000
0010
0000
0000
0000
1000
0001
1000
0000
0100
0000
1000
0000
,
0201
0000
0310
0000
1000
0000
0100
0000
0010
0001
0010
0000
0100
0000
1000
0100
,
1000
0000
0000
0000
1002
0000
0103
0000
0010
1000
0010
0000
0100
0000
0001
0000
,
1000
0000
0100
0000
0010
0000
0001
0000
1000
0010
1000
0000
0001
0000
1000
0000
,
0010
0100
0010
0100
0010
0000
1000
0000
0010
0100
0010
0000
1000
0000
0020
0000
,
0100
0000
1030
0000
1200
0000
0310
0000
0001
0000
1000
0000
0010
0000
0100
0001
,
0100
0000
0010
0000
1000
0000
0001
0100
0001
0000
1000
0000
0010
0000
0100
0000
,
0001
0000
1000
0000
0001
0000
0100
0010
0100
0000
0001
0000
1000
0000
0001
0000
,
0010
0100
0010
0100
0010
0000
0001
0000
1000
0010
1000
0000
0100
0000
0020
0000
,
0001
0000
0230
0000
1000
0000
0320
0000
0001
0000
0130
0000
1000
0000
0001
0100
,
0001
0000
0010
0000
1200
0000
0310
0000
0100
1000
0100
0000
0010
0000
0002
0000
,
0100
2003
0100
3002
0100
2003
0100
3001
,
0100
0010
0100
0010
0100
0000
0001
0000
1000
0010
1000
0000
0001
0000
0100
0000
,
0010
0000
0100
0010
0100
0000
0001
2000
0020
3030
0000
0000
0022
0000
0033
0000
,
1000
0001
1000
0001
1000
0000
0000
0000
0110
0000
0000
0000
1001
0000
0000
0000
,
0001
0100
0001
0000
0010
0000
0100
1000
0100
0000
0000
0000
1010
0000
0000
0000
,
0021
0000
0130
1000
0010
0000
1001
0000
,
0001
0000
0100
0000
0001
0000
0100
0000
0010
0000
1000
0010
0000
1000
0000
0000
,
0100
0000
0010
0000
0001
0000
0010
0000
0100
0000
1000
0100
0000
0010
0000
0000
,
0010
0000
0001
0000
1000
0000
0100
0000
0010
0000
0001
0100
0000
0010
0000
0000
,
1000
0100
1000
0100
1000
0000
0001
0000
0100
0001
0100
0000
0010
0000
1000
0000
,
0001
0100
0010
0100
0001
0000
1000
0010
,
0100
0000
0001
1000
0001
0000
0000
0000
0000
0000
0001
0000
1000
0000
0001
0000
,
0010
0100
0010
0001
1000
0000
0001
0100
,
0010
0000
1000
0001
1000
0000
0000
0000
0010
1000
0010
0000
0100
0000
0010
0000
,
1000
0000
0001
0000
0000
0000
0001
0000
1000
0100
1000
0000
0002
0000
0010
0000
,
0103
0000
0000
0000
0000
0000
1010
0000
0001
0100
0002
0000
1000
0000
0103
0000
,
0001
0000
0010
0000
0000
0000
0010
0000
0100
1000
0200
0000
0010
0000
1300
0000
,
0001
0000
0000
0000
1000
0001
1000
0000
0100
1000
0100
0000
0010
0000
0001
0000
,
1020
0000
0130
0000
0001
0000
0010
0000
0100
0000
0010
0000
0001
0000
0100
0010
,
0100
0001
1000
0100
0010
0201
0310
1000
,
0200
0010
1300
0001
1000
0010
0100
0010
,
1000
0001
1000
0001
1000
0000
0010
0000
0100
0010
0100
0000
0001
0000
2000
0000
,
0010
3002
0010
2003
0010
3002
0010
2003
,
0010
0000
3002
0000
1000
0000
0003
0000
0001
1000
0001
0000
0100
0000
0020
0000
,
1000
0230
0001
0320
1000
0230
0001
0310
,
1000
0010
1000
0010
1000
0000
0001
0000
0100
0010
1000
0000
0100
0000
0010
0000
,
0001
0100
0010
0100
0001
0000
1000
0100
,
0010
0000
0001
0010
0002
0000
0000
0000
0100
0000
0000
0000
1003
0000
0001
0000
,
0100
0001
1000
0010
1000
0001
0100
0010
,
1000
0000
0001
0100
0002
0000
0000
0000
0010
0000
0000
0000
0100
0000
0003
0000
,
0001
0010
0100
1000
0200
0000
0310
0100
,
1000
0000
0010
0100
0010
0000
0000
0000
0000
0000
0010
0000
1000
0000
0001
0000
,
0100
0010
0100
0001
2000
3000
0001
0010
,
0001
0000
1000
0100
2000
0000
0010
0000
3002
0000
0103
0000
1000
0000
0010
0000
,
0200
0000
0000
0000
0300
0000
0000
0000
0100
0001
0100
0000
0010
0000
1000
0000
,
0011
0000
0001
0000
1000
0000
0010
0000
0100
0001
0100
0000
0001
0000
0010
0001
,
0010
0000
0000
0000
1002
0000
0013
0000
0100
1000
0100
0000
0010
0000
0001
0000
,
0100
0000
0001
0000
1000
0000
0100
0000
1000
0001
1000
0000
0010
0000
1000
0000
,
0100
0010
0100
0010
0100
0000
1000
0000
0001
0010
0001
0000
1000
0000
0010
0000
,
0200
0000
0001
0000
0310
0000
1000
0000
0001
0000
1000
0000
0100
0000
0010
0001
,
0010
0000
0100
0000
1000
0000
0010
0100
0010
0000
1000
0000
0001
0000
0010
0000
,
0200
0000
1000
0000
0310
0000
0100
1000
0100
0000
0010
0000
0001
0000
1000
0000
,
0001
0100
0001
0100
0001
0000
1000
0000
0001
0010
0001
0000
0100
0000
0020
0000
,
1000
0000
0230
0000
0001
0000
0320
0000
1000
0000
0130
0000
0001
0000
1000
0010
,
1000
0000
0001
0000
0011
0000
1000
0000
0001
0100
0001
0000
1000
0000
0002
0000
,
0010
2003
0010
3002
0010
2003
0010
3001
,
1000
0010
1000
0010
1000
0000
0001
0000
0100
0010
0100
0000
0001
0000
1000
0000
,
0010
0100
0000
0000
0000
0000
0000
0000
;

//--------------- dance-single - RxSteps ----------------
#NOTES:
     dance-single:
     RxSteps:
     Hard:
     8:
     0,0,0,0,0:
0000
0000
0000
0000
,
0001
0000
1000
0010
0100
0000
0010
0000
,
1000
0000
0010
0100
0001
0000
0010
0000
,
0100
0000
1000
0200
0001
0300
0100
0000
,
1000
0000
0000
0000
0001
0000
0100
0000
0010
0100
0001
0010
0100
1000
0010
0100
,
0001
0000
0100
0000
0000
0000
0100
0000
0001
0020
0100
0000
0031
0000
0010
0000
,
0100
0000
0000
0000
0000
0000
0101
0000
1000
0010
0200
0000
0001
0000
0310
0000
,
1000
0000
0100
0000
0000
0000
0100
0000
0010
0002
1000
0000
0103
0000
0001
0000
,
2000
0000
0000
0000
0000
0000
3100
0000
0010
0001
0010
0000
0100
0000
1000
0000
,
0201
0000
0310
0000
1000
0000
0200
0000
0301
0000
0100
0000
1000
0000
0010
0100
,
0010
1000
0001
0010
0100
1020
0130
0001
,
0010
0100
0010
0001
0200
1300
0001
0010
,
1000
0001
1000
0001
1000
0000
0110
0000
0001
0010
0001
0000
0100
0000
0010
0000
,
1000
0000
0011
0000
1020
0000
0130
0000
0001
0000
0010
0000
0100
0000
0010
0001
,
0010
0100
1000
0020
0031
0010
1000
0100
,
0010
0101
2010
3100
0010
0100
1000
0010
,
0100
0001
0100
0001
0100
0000
0010
0000
1000
0001
0010
0000
0001
0000
0100
0000
,
0010
0100
0001
1000
0100
0000
0100
1000
,
0010
0000
0100
0001
2000
0000
0000
0000
3000
0000
0010
0000
1000
0000
0001
0000
,
0100
0001
0010
0100
1000
0000
1000
0010
,
0100
0000
0010
1000
0100
0000
0000
0000
1000
0001
0010
0000
0100
0000
1000
0000
,
0201
0000
0310
0000
1000
0000
0100
0000
0010
0100
1000
0000
0010
0000
0100
0010
,
0100
0000
0000
0000
1002
0000
0103
0000
0010
1000
0100
0000
0010
0000
0001
0000
,
0200
0000
1300
0000
0001
0000
0010
0000
1000
0100
0010
0000
0001
0000
1000
0000
,
0010
0100
0010
0100
0010
0000
1000
0000
0010
0100
0001
0000
1000
0000
0100
0000
,
0010
0000
0101
0000
1200
0000
0310
0000
0001
0000
1000
0000
0010
0000
0100
0001
,
0100
0000
0010
0000
1000
0000
0100
1000
0001
0000
0100
0000
0001
0000
0020
0000
,
1030
0000
0010
0000
0001
0000
0010
0100
1000
0000
0200
0000
0301
0000
1000
0000
,
0010
0100
0010
0100
0010
0000
0001
0000
1000
0010
1000
0000
0100
0000
0010
0000
,
0001
0000
0100
0000
1010
0000
1000
0000
0101
0000
0001
0000
1000
0000
0001
0100
,
0001
0000
0010
0000
1200
0000
0310
0000
0100
1000
0100
0000
0010
0000
0001
0000
,
0100
0010
1010
1000
0011
0001
1010
1000
,
0001
0100
0001
0100
0001
0000
1000
0000
0010
0100
0001
0000
0010
0000
0100
0010
,
0001
0000
0001
1000
0010
0000
0010
0100
0001
1000
0001
1000
0020
0030
0100
0001
,
1000
0100
1000
0100
0010
0000
0010
0001
0010
0100
1000
0010
0100
0000
0100
0010
,
1000
0001
0100
0000
1100
0000
1000
0100
0020
0000
0030
0000
0001
0010
0100
1000
,
0010
0100
0010
0100
0020
0030
1000
0000
0201
0000
0000
0000
0310
0000
1000
0000
,
0200
0000
0301
0000
1000
0000
0010
0000
0001
0000
0100
0010
0000
1000
0000
0000
,
0100
0000
0010
0000
0001
0000
0010
0000
0100
0000
1000
0100
0000
0010
0000
0000
,
0010
0000
0001
0000
0200
0000
1300
0000
0001
0000
0010
0100
0000
0001
0000
0000
,
1000
0100
1000
0100
1000
0000
0010
0000
0100
0001
1000
0000
0100
0000
0010
0000
,
0001
0100
0010
0100
0001
0000
1000
0010
,
0100
0000
0001
1000
0100
0000
0000
0000
0000
0000
0100
0000
1000
0000
0001
0000
,
0020
1030
0001
0100
1000
0000
0001
0100
,
0010
0000
1000
0001
0100
0000
0000
0000
0100
0010
1000
0100
0010
0001
0100
0010
,
1000
0000
0010
0000
0000
0000
0010
0000
1000
0200
0010
0000
1300
0000
0100
0000
,
0010
0000
0000
0000
0000
0000
1010
0000
0001
0100
0020
0000
1000
0000
0130
0000
,
0001
0000
0010
0000
0000
0000
0010
0000
0100
2000
0001
0000
3010
0000
1000
0000
,
0001
0000
0000
0000
0010
0100
1000
0000
0100
1000
0100
0000
0010
0000
0001
0000
,
1020
0000
0130
0000
0001
0000
0020
0000
1030
0000
0010
0000
0001
0000
0100
0010
,
0100
0001
1000
0100
0010
0201
0310
1000
,
0100
0010
0100
1000
0020
0031
1000
0100
,
0001
1000
0001
1000
0001
0000
0110
0000
0001
0010
0001
0000
0100
0000
0010
0000
,
1000
0000
0010
0000
0101
0000
0001
0000
1010
0000
1000
0000
0001
0000
1000
0010
,
1000
0000
0100
0000
0021
0000
0130
0000
0010
0001
0010
0000
0100
0000
1000
0000
,
0010
0100
0101
0001
1100
1000
0101
0001
,
1000
0010
1000
0010
1000
0000
0001
0000
0100
0010
1000
0000
0100
0000
0010
0000
,
0001
0100
0010
0100
0001
0000
1000
0200
,
0301
0000
0100
1000
0020
0000
0000
0000
0100
0000
0030
0000
1000
0000
0001
0000
,
0010
0001
0020
1030
0010
0001
0100
0010
,
1000
0000
0010
0100
0002
0000
0000
0000
0010
0000
0000
0000
0100
0000
0003
0000
,
0001
0010
0100
1000
0200
0000
0310
0100
,
1000
0000
0001
0100
0010
0000
0000
0000
0000
0000
0010
0000
1000
0000
0001
0000
,
0100
0020
0031
1000
0200
0300
0001
0010
,
0100
0000
0010
0100
2000
0000
0010
0000
3002
0000
0103
0000
1000
0000
0010
0000
,
0200
0000
0000
0000
0300
0000
0000
0000
0100
0001
1000
0000
0010
0000
0100
0000
,
0021
0000
0130
0000
1000
0000
0010
0000
0100
0010
1000
0000
0100
0000
0010
0100
,
0010
0000
0000
0000
1002
0000
0013
0000
0100
1000
0010
0000
0100
0000
0001
0000
,
0020
0000
1030
0000
0001
0000
0100
0000
1000
0010
0100
0000
0001
0000
1000
0000
,
0100
0010
0100
0010
0100
0000
1000
0000
0100
0010
0001
0000
1000
0000
0010
0000
,
0100
0000
0011
0000
1020
0000
0130
0000
0001
0000
1000
0000
0100
0000
0010
0001
,
0010
0000
0100
0000
1000
0000
0010
1000
0001
0000
0010
0000
0001
0000
0200
0000
,
1300
0000
0100
0000
0001
0000
0100
0010
1000
0000
0020
0000
0031
0000
1000
0000
,
0100
0010
0100
0010
0100
0000
0001
0000
1000
0100
1000
0000
0010
0000
0100
0000
,
0001
0000
0010
0000
1100
0000
1000
0000
0011
0000
0001
0000
1000
0000
0001
0010
,
0001
0000
0100
0000
1020
0000
0130
0000
0010
1000
0010
0000
0100
0000
0001
0000
,
0010
0100
1100
1000
0101
0001
1100
1000
,
0001
0010
0001
0010
0001
0000
1000
0000
0100
0010
0001
0000
0010
0000
0100
0000
,
1000
0001
0000
0000
0000
0000
0000
0000
;
