#TITLE:My Band;
#SUBTITLE:;
#ARTIST:D12;
#TITLETRANSLIT:;
#SUBTITLETRANSLIT:;
#ARTISTTRANSLIT:;
#GENRE:;
#CREDIT:RxSteps;
#MUSIC:My Band.ogg;
#BANNER:My Band.png;
#BACKGROUND:My Band-bg.png;
#CDTITLE:cdtitle.png;
#SAMPLESTART:72.049;
#SAMPLELENGTH:20.000;
#SELECTABLE:YES;
#OFFSET:1.951;
#BPMS:0.000=120.000;
#STOPS:;
#BGCHANGES:;
#FGCHANGES:;

//--------------- dance-single - RxSteps ----------------
#NOTES:
     dance-single:
     RxSteps:
     Beginner:
     4:
     0,0,0,0,0:
0000
0000
0000
0000
,
0001
0100
0010
1000
,
0001
0000
0100
0001
0000
0000
1000
0000
,
0001
0010
0001
1000
,
0100
1000
1000
0001
,
0100
0010
1000
0001
,
0100
0100
0001
1000
,
0100
0010
0001
1000
,
0001
0000
0000
0100
0000
0001
0100
0000
,
0001
0010
0100
1000
,
0100
0000
1000
0001
0000
0000
1000
0100
,
1000
0100
0010
0010
,
0001
0100
0001
1000
,
1000
0100
0010
0001
,
0100
0000
0010
0000
1000
0000
0001
1000
,
0001
0100
0010
1000
,
0001
0000
0100
0001
0000
0000
0000
0000
,
0001
1000
0010
1000
,
0001
1000
0001
0100
,
0010
0010
1000
0100
,
1000
0001
0100
0001
,
1000
0010
0010
1000
,
0001
0000
0100
0000
0010
0100
0010
0000
,
1000
0001
0010
0100
,
1000
1000
0001
0100
,
0010
1000
0001
0100
,
0020
0030
2000
3000
,
0001
0100
0001
1000
,
0010
0010
0100
0100
,
0001
1000
0010
1000
,
1000
0001
0100
0100
,
0001
0010
0100
1000
,
0001
1000
0010
1000
,
0001
0100
0001
0010
,
0001
1000
0100
0100
,
1000
0100
1000
0000
0001
1000
0001
0000
,
0100
0001
0100
0000
0001
0000
1000
0000
,
0010
1000
0100
0010
,
0001
0000
0010
0000
0100
0000
1000
0100
,
1000
0001
0100
0010
,
0100
0001
1000
0010
,
0010
1000
0001
0100
,
0010
0000
0100
0000
0001
0000
0100
0010
,
0100
0001
1000
0100
,
0010
0000
0001
0000
0010
0000
0001
0010
,
0000
0000
0001
1000
0000
0000
0010
1000
,
0000
0000
0001
0100
0000
0000
0010
1000
,
0000
0000
0010
0100
0000
0000
0001
0010
,
0000
0000
0001
1000
0000
0000
0020
0200
,
0000
0000
0000
0000
,
0330
0000
0000
0001
0000
1000
0000
0000
,
0010
1000
0100
0010
,
0001
0000
0000
1000
0000
0000
1000
0000
0000
0000
0001
0000
0000
0100
0000
0000
,
0001
0100
0010
0010
,
1000
0000
0001
1000
0001
0000
1000
0000
,
0100
0010
0100
1000
,
0001
0100
0001
0000
1000
0001
1000
0000
,
0010
1000
0001
0001
,
1000
0010
0100
0001
,
1000
0010
1000
0000
0001
0000
0100
0000
,
0100
0001
0010
0100
,
1000
0001
0100
0100
,
0001
1000
0010
0010
,
1000
0000
0001
0100
0001
0000
1000
0000
,
0010
0010
1000
0001
,
1000
0000
0010
0000
1000
0010
1000
0000
,
0001
0100
0001
1000
,
1000
0001
0100
0010
,
0000
1000
0000
0000
0000
0000
0000
0000
0001
0000
0100
0000
0001
0000
0000
0000
,
1000
0010
0010
1000
,
0001
0001
0100
0010
,
1000
1000
0001
0100
,
0000
0000
1001
0000
0000
0000
0000
0000
0000
1000
0000
0000
,
0010
0000
1000
0000
0010
0100
0010
0000
,
1000
0000
0001
0000
0010
0001
0010
0000
,
0001
0010
0100
1000
,
0001
0000
1000
0000
0010
1000
0010
1000
,
0010
1000
0001
0100
,
0010
0000
1000
0100
0000
0000
1000
0001
,
1000
0001
0100
0010
,
1000
0001
0100
0001
,
0001
1000
0010
0100
,
0010
0000
1000
0000
0001
0000
0100
0001
,
0100
0001
1000
0010
,
0100
0001
1000
0010
,
0010
1000
1000
0001
,
0100
0000
0010
0000
1000
0000
0001
0100
,
0001
1000
0010
0010
,
1000
0000
0100
0000
1000
0000
0100
0000
1000
0000
0000
0000
0000
0000
0000
0110
,
0000
0000
1000
0001
,
0100
0010
0010
0010
,
1000
0001
0100
0001
,
0010
0001
0010
0000
0001
1000
0001
0000
,
1000
0010
1000
0001
,
0100
0100
0010
0010
,
1000
0001
0001
1000
,
0020
0000
0200
0330
,
0001
0000
1000
0000
0001
1000
0001
0000
,
1000
0010
0100
0100
,
0001
1000
0010
0010
,
1000
0010
1000
0000
0100
0000
0100
0000
,
1000
0000
0001
0000
0100
0001
0100
0000
,
0001
0000
1000
0000
0010
1000
0010
0000
,
0100
0001
0010
0100
,
1000
0000
0001
0001
,
1000
0010
1000
0000
0001
0000
0100
0000
,
0020
0000
2030
3000
,
0002
0003
1000
0010
,
0100
0020
0000
0000
2000
0000
3030
0000
,
0001
1000
0010
0010
,
0200
0000
0000
0310
,
1000
0010
1000
0000
0001
1000
0001
0000
,
0100
0001
0010
0100
,
1000
0100
0000
0010
0000
0001
0000
0010
,
0000
0100
0000
1000
0000
0010
0000
1000
,
0000
0010
0000
0100
0000
0001
0000
0100
,
0000
0001
0000
1000
0000
0001
0000
0100
,
0000
0100
0000
0010
0000
1000
0000
0001
,
0000
0100
0000
0010
0000
0010
0000
1000
,
0000
0001
0000
0100
0000
0010
0000
0000
,
0100
0000
0000
0000
0010
0000
0000
1000
0010
0000
0000
0000
1001
0000
0000
0000
,
0001
1000
0001
0100
,
0010
0000
1000
0010
0000
0000
1000
0001
,
1000
0001
0010
0100
,
1000
0010
1000
0001
,
0001
0100
0010
1000
,
0001
0000
0100
0000
0001
0000
0100
0010
,
0100
0001
1000
0010
,
0010
0000
0000
1000
0000
0000
0001
0100
,
0000
0000
0001
0010
0000
0000
0001
1000
,
0000
0000
0010
1000
0000
0000
0001
0100
,
0000
0000
0010
0100
0000
0000
0001
1000
,
0000
0000
1000
0001
0000
0000
0200
0002
,
0000
0000
0000
0000
,
0000
0000
0303
0000
,
1000
0001
0100
0001
,
1000
0000
0000
0010
0000
0000
0100
0000
,
0001
1000
0010
0010
,
1000
0000
0100
0000
1000
0001
1000
0000
,
0001
0000
0100
0000
0010
0100
0010
0000
,
1000
0000
0001
0000
0100
0010
0100
0000
,
0001
0000
0010
0000
0100
1000
0100
0000
,
1000
0000
0100
0000
0010
0000
0001
0010
,
0001
1000
0001
0100
,
0010
0010
1000
1000
,
0001
0000
1000
0000
0010
0100
0010
0000
,
1000
0000
0001
0000
0100
0001
0100
0000
,
0001
0000
1000
0000
0010
1000
0010
0000
,
1000
0000
0100
0000
0010
0001
0010
0000
,
0001
0000
1000
0000
0000
0200
0000
0300
;

//--------------- dance-single - RxSteps ----------------
#NOTES:
     dance-single:
     RxSteps:
     Easy:
     6:
     0,0,0,0,0:
0000
0000
0000
0000
,
0001
1000
0001
0100
0001
1000
0100
0010
,
0001
1000
0001
0100
0000
0100
0010
1000
,
0002
0003
0100
0010
0100
0010
1000
0000
,
0000
0001
0010
0000
0010
0001
1000
0100
,
0010
0000
0100
1000
0000
0001
1000
0010
,
0100
0001
0100
0010
1000
0000
0001
1000
,
0010
0000
0010
1000
0100
0010
0001
1000
,
0020
0000
0000
0230
0300
0010
1000
0000
,
0001
0100
0010
0100
0010
1000
0001
0010
,
0001
0010
0001
0100
0000
0000
0001
1000
,
0010
0100
0010
1000
0001
1000
0010
0100
,
0001
1000
0001
0100
0000
0000
1010
0000
,
0101
0000
0001
0100
0001
1000
0001
0100
,
0001
1000
0100
1000
0000
0000
0100
0010
,
0001
0010
0001
1000
0010
0100
0001
1000
,
0001
0100
0010
1000
0000
0000
0000
0000
,
0010
1000
0110
1001
,
0001
0100
0010
0100
0001
1000
0100
0000
,
0100
0000
1000
0000
0001
1000
0001
0000
,
0100
0001
0100
0010
0100
0001
0010
0000
,
0001
1000
0010
0100
0001
1000
0001
0000
,
1000
0010
0100
0001
0010
0100
1000
0000
,
1000
0100
0010
0001
0010
0100
0010
0000
,
0001
0000
1000
0000
0010
0100
0010
0000
,
1000
0000
0001
0100
0010
1000
0010
0000
,
0200
0001
0010
0310
,
1000
0001
0100
0000
0100
0001
0100
0020
,
1000
0000
0100
0000
1030
0010
1000
0000
,
0001
0010
0100
1000
0100
0010
0001
0000
,
1000
0001
0100
0001
0100
0010
1000
0000
,
1000
0010
0100
0001
1000
0010
0100
0001
,
0100
0010
1000
0001
0010
0001
1000
0000
,
0100
0010
0001
0010
0100
0010
0001
0000
,
1000
0001
1000
0010
1000
0001
1000
0000
,
0001
0100
0001
0000
0110
0000
1001
0000
,
0001
1000
0010
0100
0010
0100
0010
1000
,
0001
0100
0010
0100
0001
0010
0100
1000
,
0010
0100
0010
1000
0000
0000
0001
0010
,
0100
0010
0100
0010
0001
0010
0100
1000
,
0001
1000
0010
0100
0000
0000
0101
0000
,
1100
0000
0100
1000
0100
0010
0001
1000
,
0010
1000
0001
0100
0000
0000
0001
0010
,
0100
0010
0100
1000
0001
1000
0010
1000
,
0001
1000
0010
0100
0000
0000
1000
0010
,
0000
0000
1000
0100
0000
0000
0100
1000
,
0000
0000
0010
0100
0000
0000
0010
1000
,
0000
0000
0001
0100
0000
0000
0100
0010
,
0000
0000
0100
0001
0000
0000
0001
1000
,
0000
0000
0010
0100
0001
0010
0100
1000
,
0100
0010
0100
1000
0010
1000
0000
0010
,
0100
0001
1000
0001
0100
0010
1000
0010
,
0100
0000
0000
0000
0110
0000
0000
0110
0000
0000
0000
0000
0000
0000
0000
0000
,
1000
0001
0100
0010
1000
0010
0100
0010
,
1000
0001
0100
0010
1000
0001
0100
0010
,
0100
0001
1000
0010
1000
0100
1000
0010
,
1000
0001
0100
0001
1000
0010
0100
0001
,
0200
0010
0010
0301
,
1000
0001
0010
0100
1000
0000
0010
0000
,
1000
0100
1000
0001
0100
0001
0200
0000
,
0010
0001
0310
0000
,
1000
0010
0100
0000
0001
0000
0001
0000
,
1000
0000
0010
0100
0010
0100
0001
1000
,
0010
0100
0010
1000
0001
0100
0010
0000
,
1001
0110
1001
0110
,
1000
0001
1000
0010
1000
0001
1000
0010
,
0100
0001
1000
0001
0100
0010
1000
0000
,
0001
0010
0100
1000
0100
0010
0001
0000
,
0000
0200
0000
0000
0300
0000
0000
0000
0001
0000
1000
0000
0001
0000
0000
0000
,
0100
0010
0100
0010
0100
0001
0100
0001
,
1000
0010
1000
0001
0100
0001
0100
0000
,
0010
2000
0000
0000
0020
0000
3030
0000
,
0000
0000
0000
0000
2002
0000
0000
0000
0000
0000
0000
0000
3003
0000
0000
0000
0000
0000
1000
0000
0000
0010
0000
0000
,
1000
0001
1000
0001
0100
0001
0010
0001
,
0010
0100
1000
0100
0010
0000
0010
0000
,
0001
1000
0001
0100
0010
0100
0010
0000
,
1000
0001
1000
0100
1000
0001
1000
0001
,
1000
0010
0100
0001
1000
0100
1000
0001
,
0100
0010
1000
0001
0000
0000
1000
0100
,
0010
0100
1000
0001
0100
0010
1000
0001
,
0100
0010
1000
0100
0000
0000
0101
0000
,
1010
0000
1000
0010
1000
0001
1000
0010
,
0100
0001
1000
0010
0000
0000
1000
0100
,
0010
0100
0010
0100
1000
0100
0010
0001
,
1000
0001
0100
0010
0000
0000
1100
0000
,
0001
1000
0001
0100
0010
1000
0001
0000
,
0001
0100
0010
1000
0010
1000
0001
0100
,
0010
1000
0001
0100
0001
1000
0010
0000
,
1000
0000
0001
0000
1000
0000
0002
0000
2000
0000
3003
0000
0000
0000
0000
0110
,
0000
0000
0001
1000
0001
1000
0010
0100
,
0001
1100
0011
1100
,
0001
0100
0010
0100
0001
0100
0001
1000
,
0010
1000
0001
1000
0010
1000
0001
0100
,
0010
1000
0001
0100
0001
1000
0010
0000
,
2000
0000
3000
0001
0100
0001
0000
0000
,
1100
0101
0110
2001
,
0020
3000
0000
0000
0200
0000
0330
0000
,
0001
0100
0010
0100
0010
1000
0010
0000
,
1000
0001
1000
0010
0000
0100
0010
0000
,
0100
0001
0100
0001
1000
0000
1000
0000
,
0010
0100
0010
0000
0110
0000
1001
0000
,
1000
0010
1000
0000
0001
0010
0001
0000
,
1100
0000
0110
0000
0001
1000
0001
0000
,
0001
0100
0010
0100
0001
1000
0100
0000
,
0100
1000
0001
1000
0010
0100
0001
0100
,
0010
1000
0010
0100
0001
0100
0001
1000
,
0020
0000
0000
2030
0000
0000
3000
0000
,
0101
0000
0000
0001
1000
0001
0100
0010
,
1000
0000
0200
0000
0000
0300
0000
0000
2000
0000
0000
0000
3000
0000
0000
0000
,
0001
0010
0100
1000
0000
0001
1000
0000
,
0001
0010
0100
0000
0100
0010
0001
0000
,
0001
1000
0010
0000
0010
1000
0100
0000
,
1000
0100
0010
0001
1000
0001
1000
0010
,
1000
0001
0000
0100
0000
0010
0000
1000
,
0000
0010
0000
0100
0000
0001
0000
1000
,
0000
0100
0000
0010
0000
0001
0000
0100
,
0000
0001
0000
1000
0000
0001
0000
0100
,
0000
0010
0000
1000
0000
0100
0000
1000
,
0000
0001
0000
1000
0000
0010
0000
0100
,
0000
0001
0000
0010
0000
0001
0000
0000
,
1000
0000
0000
0100
0000
0000
0010
0000
0001
0000
0000
0000
0011
0000
0000
0000
,
1000
0001
0100
0001
1000
0010
0100
0001
,
0100
0010
0100
0001
0000
0000
1000
0100
,
0010
0100
0010
0100
1000
0001
0100
0010
,
1000
0001
0100
0001
0000
0000
1010
0000
,
0011
0000
0010
0001
0010
0100
1000
0001
,
0100
0001
1000
0001
0000
1000
0100
0010
,
0001
0010
0001
0010
0100
1000
0100
1000
,
0200
0000
0000
0320
0000
0000
0031
0010
,
0000
0000
0002
1000
0000
0000
1003
0002
,
0000
0003
0200
0010
0000
0300
0100
0002
,
0000
0003
0001
2000
0000
0000
3020
0100
,
0030
0000
0002
0100
0000
0003
2000
0002
,
3000
0003
0100
0010
1000
0001
0100
0001
,
1000
0010
1000
0001
0100
0001
1000
0001
,
0100
0010
0100
0001
1000
0010
1000
0001
,
2000
0000
0000
3020
0000
0000
0130
0000
,
0001
1000
0001
0100
0010
0100
0002
0000
,
1003
0001
1000
0010
0100
0010
1000
0000
,
0001
0000
1000
0000
0100
0000
0010
0000
0001
0000
2000
0000
0000
0000
0000
3000
,
0001
1000
0001
0100
0010
1000
0010
1000
,
0001
1000
0001
0100
0010
0200
0300
0001
,
0100
0010
0100
0001
1000
0001
1000
0100
,
1000
0100
0010
0001
0010
0100
1000
0001
,
1000
0100
0010
0001
,
1001
0110
1001
0110
,
1000
0000
0001
0000
0100
0010
0100
0000
,
0101
0110
1100
1000
,
0010
0000
1000
0010
0100
0001
0100
0001
,
1000
0001
0100
0010
2000
0200
0000
0000
,
3300
0000
0000
0000
;

//--------------- dance-single - RxSteps ----------------
#NOTES:
     dance-single:
     RxSteps:
     Medium:
     8:
     0,0,0,0,0:
0000
0000
0000
0000
,
0001
0010
0001
0100
0010
1000
0001
0010
,
0001
1000
0001
0100
0000
0100
0010
1000
,
0002
0003
0100
0010
0100
0010
1000
0000
,
0000
0000
0001
0000
0010
0000
0100
0000
0010
0000
0001
0000
1000
0001
1000
0000
,
0010
0000
1000
0100
0000
0101
0000
1200
,
0310
0001
0100
0010
1000
0000
0011
0000
,
2010
0000
3010
1000
0100
0010
0001
0100
,
0010
1000
0100
0010
0100
1000
0010
0000
,
0021
0130
1000
0100
0010
0001
1000
0010
,
0100
0010
1000
0001
0000
0000
0021
0130
,
2000
3100
0010
0001
0100
0010
1000
0001
,
0100
0001
0010
0001
0000
0100
1010
0000
,
0101
1000
0010
0100
0001
1000
0001
0100
,
0001
0010
0100
1000
0000
0000
1200
0310
,
0001
0001
0010
0100
1000
0010
1000
0100
,
1000
0000
0010
0000
0100
0000
0001
0000
0000
0000
0000
0000
0000
0001
0100
0000
,
0100
0001
0000
0000
1000
0000
0000
0000
0110
0000
0000
0000
1001
0000
0000
0000
,
0001
0000
0100
0000
0010
0000
0100
0000
0001
0000
1000
0000
0100
1000
0000
0000
,
0110
0000
0000
0000
1100
0000
0000
0000
1000
0010
0100
0000
0100
0000
0000
0000
,
0001
1000
0010
1000
0001
0100
0010
0000
,
0021
0000
0130
0010
0001
0010
0100
0000
,
1200
0000
0310
0000
0001
0000
1000
0000
0010
0000
0100
0010
0100
0010
0000
0000
,
1001
0000
1200
0310
0200
1300
0100
0000
,
0101
0000
0110
0000
1002
0013
0001
0000
,
1100
0000
0001
0100
0010
1000
0010
0000
,
1000
0100
0000
0000
0001
0100
0000
0000
0010
0100
0000
0000
0100
0001
0000
0000
,
0020
0000
0000
0000
0031
0000
0000
0000
0001
1000
0001
0000
0100
0000
0010
1000
,
0010
0000
0100
0001
0100
0000
0010
0000
1000
0000
0001
0000
1000
0000
0000
0000
,
0001
0010
0100
1000
0010
0100
0001
0000
,
1100
0000
0000
0000
0011
0000
0001
0000
0100
0000
0010
1000
0000
0000
0000
0000
,
0001
0100
0001
1000
1000
0010
0100
0001
,
0100
0010
1000
0100
0010
0100
1000
0000
,
1020
0130
0001
0010
0100
0010
0001
0000
,
1010
0000
0021
0130
1000
0010
0100
0000
,
0001
1000
0001
0000
0110
0000
1001
0000
,
1000
0000
0010
0000
0100
0000
0001
1000
0001
0000
0100
0000
0010
0000
1000
0000
,
0001
0100
0010
0100
0001
0010
0100
1000
,
0010
0100
0010
1000
0000
0000
0201
0310
,
1000
0100
0010
0100
1000
0010
0100
0010
,
1000
0100
0010
0100
0000
0010
0101
0000
,
1200
0310
0100
1000
0100
0010
0001
0100
,
0010
0100
0001
1000
0000
1010
0010
0100
,
0001
0100
0010
1000
0010
0100
0010
1000
,
0001
0100
0010
1000
0000
0000
1000
0020
,
0000
0030
2000
0100
0000
0000
3100
2000
,
0000
0000
3020
0100
0000
0030
0010
2000
,
0000
0000
0100
3002
0000
0003
0200
0010
,
0000
0300
0200
0001
0000
0300
0001
2000
,
0000
3000
0010
0100
0001
0010
0100
1000
,
0100
0010
0100
2000
0000
0001
3000
1000
,
0010
0100
0010
1000
0100
0010
0001
0010
,
0001
0000
0000
0000
0110
0000
0000
0110
0000
0000
1000
0000
0000
0100
0000
0000
,
1000
0001
0010
0100
1000
0010
0100
0010
,
1000
0001
0100
0010
1000
0001
0010
0001
,
0100
0000
0001
0000
1000
0000
0010
0000
1000
0001
1000
0000
0001
0000
0010
0000
,
0001
0100
0010
0100
0001
0010
0100
1000
,
0200
0010
1300
0001
,
0010
0001
0010
0200
1000
0000
0310
0100
,
1000
0000
0100
0000
1000
0000
0001
0010
0001
0000
1000
0010
0000
0000
0000
1000
,
0010
0000
0000
0100
0010
0000
0000
1000
0100
0000
0010
0000
0100
0000
0000
0000
,
1000
0000
0010
0000
0100
0000
0000
0000
0201
0000
0300
0000
0010
0000
1000
0010
,
0100
0000
0000
0010
1000
0000
0001
0000
0010
0000
0100
0000
1000
0000
0010
0000
,
0100
0000
0001
0000
1000
0000
0001
1000
0001
0000
0100
0000
0010
0000
0000
0000
,
1001
0110
0011
1100
,
1000
0100
0010
0100
1000
0001
1000
0010
,
0100
0001
0010
0001
0100
0010
1000
0000
,
0102
0000
0000
0000
0000
0000
0013
0000
0000
0000
0000
0000
0100
0000
0000
0000
0000
0000
1000
0000
0000
0000
0000
0000
0100
0000
0000
0000
0010
0000
0000
0000
0000
0001
0000
0000
0000
0000
0000
0000
0000
0000
1000
0000
0000
0000
0000
0000
,
0000
0200
0000
0000
0300
0000
0000
0000
1000
0000
0001
0000
1000
0000
0000
0001
,
0100
0000
0000
0010
1000
0000
0000
0010
0100
0000
0000
0100
0001
0000
0000
1000
,
0100
0000
0000
0001
0100
0000
0000
0010
0200
0000
0300
0000
0001
0000
1000
0000
,
0100
1000
0100
0010
0001
1000
0010
0100
,
0000
0000
0000
0000
2002
0000
0000
0000
0000
0000
0000
0000
3003
0000
0000
0000
0000
0000
1000
0000
0000
0010
0000
0000
,
0100
0000
0001
0000
0010
0000
0100
0000
0010
0000
0001
0100
0000
0000
0001
0000
,
1000
0000
0100
0000
0010
0000
0001
0000
0100
0000
0000
0010
1000
0000
0000
0000
,
1000
0010
0100
0010
1000
0100
0010
0000
,
0010
0001
1000
0100
1000
0001
1000
0001
,
1000
0010
0100
0001
1000
0100
1000
0001
,
0100
0010
1000
0001
0000
0000
1200
0310
,
0001
0010
0100
1000
0010
0100
0001
0010
,
0100
0010
0100
1000
0000
0010
0101
0000
,
1010
0001
0100
0010
1000
0001
1000
0010
,
1000
0100
0010
0001
0000
0000
0021
0130
,
1000
1000
0100
0010
0001
0100
0001
0010
,
0001
0100
0010
1000
0000
0000
1100
0000
,
0001
1000
0100
0010
0100
1000
0001
0000
,
0001
0100
0010
1000
0100
0010
0001
0100
,
0010
1000
0001
0100
0001
1000
0010
0000
,
1000
0000
0001
0000
1000
0000
0002
0000
1000
0000
0000
1003
0000
0000
0000
0110
,
0000
0000
0001
0100
0010
1000
0100
0010
,
0001
1100
0011
1100
,
0001
0100
0010
0100
0001
1000
0010
0100
,
0010
1000
0001
1000
0100
0010
0001
0010
,
0100
0010
0001
0100
0001
0010
0100
0000
,
0100
1000
0001
1000
0010
0100
0010
0000
,
1100
0101
0110
2001
,
0020
3030
0000
1000
0010
0100
0010
1000
,
0001
0000
0100
0000
0010
0100
0000
0000
0001
1000
0001
0000
0010
0000
0000
0000
,
1200
0000
0310
0000
0001
0000
0100
0010
0000
1000
0010
1000
0000
0001
0000
0000
,
0100
0000
0001
0000
0010
0000
0100
0000
1000
0001
0000
0001
1000
0000
1000
0000
,
0100
0010
0001
0000
0110
0000
1001
0000
,
1000
0010
0100
0000
0001
0010
0100
0000
,
1100
0000
0110
0000
0001
1000
0100
0000
,
0001
0100
0010
0100
0001
1000
0100
0000
,
0100
1000
0010
0100
0010
1000
0001
0100
,
0010
1000
0010
0100
0001
0010
0100
1000
,
0010
0100
0010
1000
0001
0010
0100
0000
,
0202
0300
0003
1000
0100
1000
0010
1000
,
0001
0000
0220
0000
0000
0330
0000
0000
2002
0000
0000
0000
3003
0000
0000
0000
,
0001
0000
0010
0000
0100
0000
1000
0000
0000
0010
0001
0000
1100
0000
0000
0000
,
0001
0000
1000
0001
1000
0010
0000
0000
0010
0100
0010
0000
1000
0000
0000
0000
,
0001
0000
1000
0000
0010
0000
0000
0000
1000
0010
1000
0000
0001
0000
0000
0000
,
1000
0100
0010
0001
0100
0010
1000
0100
,
1000
0001
0000
0200
0000
0010
0000
0302
,
0000
0013
0000
0100
0000
1000
0000
0002
,
0000
0100
0000
0010
0000
1000
0000
0203
,
0000
0302
0000
2003
0000
3002
0000
0023
,
0000
0100
0000
0001
0000
0230
0000
0310
,
0000
0002
0000
2003
0000
0010
0000
0100
,
0000
0001
0000
3020
0000
2030
0000
0000
,
3001
0000
0000
0010
0000
0000
0100
0000
1000
0000
0000
0000
0101
0000
0000
0000
,
1000
0010
0100
0010
1000
0100
0010
0001
,
0100
0010
0100
0001
0000
0000
1020
0130
,
0001
0010
0100
0010
0001
1000
0010
1000
,
0001
0100
0010
1000
0000
0100
1010
0000
,
0021
0130
0010
0001
0010
0100
1000
0010
,
0100
0010
1000
0001
0000
0101
0100
0010
,
1000
0100
0010
0100
0010
0001
1000
2000
,
0200
0300
0000
0002
0003
0000
3010
2000
,
0000
3000
0002
0010
0000
0000
0013
0002
,
0000
0003
0200
0010
0000
0300
0100
0002
,
0000
0003
0001
2000
0000
0000
3020
0100
,
0030
0000
0002
0100
0000
0003
2000
0002
,
3000
0003
0100
0010
1000
0100
0010
0001
,
1000
0000
0010
0000
1000
0000
0002
0000
0100
0000
0000
1000
0003
0000
0001
0000
,
0100
0010
0100
0001
0010
0100
0010
0200
,
2000
0300
0000
3020
0000
0000
0130
0000
,
1200
0000
0310
0000
0001
0000
0010
0000
0100
0000
0010
0000
0100
1000
0000
1000
,
0001
0000
0001
1000
0000
1000
0000
0001
0100
0000
0010
0000
1000
0000
0000
0000
,
0001
0000
1000
0000
0100
0000
0010
0000
0001
0000
1000
0010
0000
0010
0000
1000
,
0001
1000
0100
0010
0100
1000
0010
0100
,
0001
1000
0001
0100
0010
0100
0100
0001
,
0100
0001
0000
1000
0100
0000
0000
0001
1000
0000
0010
0000
0100
0000
0001
0000
,
0010
0100
0010
0001
1000
0010
0100
0010
,
1000
0000
0001
1000
0000
1000
0001
0000
1000
0000
0100
0000
0010
0000
0000
0000
,
1001
0110
1100
0101
,
1000
0000
0001
0100
0000
0100
0000
0001
1000
0000
0010
0000
0100
0000
0000
0000
,
0011
0000
1010
0000
0110
0000
1000
0001
,
0100
0000
0100
0001
0000
1000
0000
0010
0100
0000
0001
0000
0010
0000
0001
0000
,
1000
0010
0100
0001
2000
0200
0000
0000
,
3300
0000
0000
0000
;

//--------------- dance-single - RxSteps ----------------
#NOTES:
     dance-single:
     RxSteps:
     Hard:
     9:
     0,0,0,0,0:
0000
0000
0000
0000
,
0001
0010
0001
0100
0010
1000
0001
0010
,
0001
1000
0001
0100
0000
0100
0010
1000
,
0002
0003
0100
0010
0100
0010
1000
0000
,
0000
0000
0001
0010
0000
0100
0000
0010
0001
0000
1000
0001
1000
0001
1000
0000
,
0010
0000
1000
0100
0000
0101
0000
1200
,
0310
0001
0100
0010
1000
0000
0011
0000
,
2010
0000
3010
1000
0100
0010
0001
0100
,
0010
1000
0200
0301
0100
1000
0010
0000
,
0021
0130
1000
0100
0010
0001
1000
0010
,
0100
0010
1000
0001
0000
0000
0011
0110
,
2100
3100
0010
0001
0100
0010
1000
0200
,
0301
1000
0010
0001
0000
0100
1010
0000
,
0101
1000
0010
0100
0001
1000
0001
0100
,
0001
0010
0100
1000
0000
0000
1100
0110
,
0011
0001
0010
0100
1000
0010
1000
0100
,
1000
0000
0010
0000
0100
0000
0001
0000
0000
0000
0000
0000
0000
0001
0100
0000
,
0100
0001
0000
0000
1000
0000
0000
0000
0110
0000
0000
0000
1001
0000
0000
0000
,
0001
0000
0200
0000
1300
0000
0001
0000
0010
0000
1000
0000
0100
1000
0000
0000
,
0110
0000
0000
0000
1100
0000
0000
0000
1000
0010
0100
0000
0100
0000
0000
0000
,
0001
1000
0010
1000
0200
0301
1000
0000
,
0021
0000
0130
0010
0001
0010
0100
0000
,
1200
0000
0310
0000
0001
0000
1000
0000
0010
0000
0100
0010
0100
0010
0000
0000
,
1001
0000
1200
0310
0200
1300
0100
0000
,
0101
0000
0110
0000
1000
0020
0031
0000
,
1100
0000
0001
0100
0010
1000
0010
0000
,
1000
0100
0010
0001
1000
0100
0010
0001
1000
0100
1000
0100
1000
0200
0000
0000
,
0320
0000
0000
0000
0031
0000
0000
0000
0001
1000
0001
0000
0100
0000
0010
1000
,
0010
0000
0100
0001
0100
0000
0010
1000
0010
1000
0010
0000
0100
0000
0000
0000
,
0001
0010
0100
1000
0010
0100
0001
0000
,
1100
0000
0000
0000
0011
0000
0001
0000
0100
0000
0010
1000
0000
0000
0000
0000
,
0001
0100
0001
1000
1000
0010
0100
0001
,
0100
0010
1000
0100
0010
0100
1000
0000
,
1020
0130
0001
0010
0100
0010
0001
0000
,
1010
0000
0021
0130
1000
0010
0100
0000
,
0001
1000
0001
0000
0110
0000
1001
0000
,
1000
0000
0010
0000
0100
0000
0001
1000
0001
0000
0100
0000
0010
0000
1000
0000
,
0001
0200
1300
0100
0001
0010
0100
1000
,
0010
0100
0010
1000
0000
0000
0101
0110
,
1010
1000
0001
0010
0001
1000
0200
0301
,
0100
1000
0010
0100
0000
0010
0101
0000
,
1200
0310
0100
1000
0100
0010
0001
0100
,
0010
0100
0001
1000
0000
1010
0110
0101
,
0001
0100
0010
1000
0020
0031
0010
1000
,
0010
0100
0010
1000
0000
0000
1000
0020
,
0000
0030
2000
0100
0000
0000
3100
2000
,
0000
0000
3020
0001
0000
0030
0010
0200
,
0000
0300
0100
0002
0000
0000
0203
1000
,
0000
0300
0200
0010
0000
0300
0001
2000
,
0000
3000
0010
0100
0001
0010
0100
1000
,
0200
0301
0100
2000
0000
0001
3000
1000
,
0010
0100
0010
1000
0200
0301
1000
0010
,
0001
0000
0000
0000
0110
0000
0000
0110
0000
0000
1000
0000
0000
0100
0000
0000
,
1000
0001
0020
1030
0001
0100
1000
0010
,
1000
0000
0001
0000
0100
0010
0100
0010
0100
0000
0001
0000
0010
0000
0001
0000
,
0100
0000
0001
0000
1000
0000
0010
0000
1000
0001
1000
0000
0001
0000
0010
0000
,
0001
0200
1300
0100
0001
0010
0100
1000
,
0001
0100
0001
0100
0001
0100
0002
0000
1000
0000
0000
0000
0103
0000
0000
0000
,
0100
0001
0010
0200
1000
0000
0310
0100
,
1000
0100
1000
0100
1000
0000
0001
0010
0001
0000
1000
0010
0000
0000
0000
1000
,
0010
0100
0001
0100
0010
1000
0010
0100
0001
0000
0010
0000
0001
0000
0000
0000
,
1000
0000
0010
0000
0100
0000
0000
0000
0201
0000
0300
0000
0010
0000
1000
0010
,
0100
0000
0000
0001
0100
0001
0100
0001
0100
0001
0000
0000
1000
0000
0010
0100
,
0010
0000
1000
0001
0000
0000
0100
0010
1000
0001
0100
0010
0000
0000
0000
0000
,
1001
0110
0011
1100
,
1000
0000
0100
0000
0010
0000
0100
0000
1000
0100
1000
0100
1000
0000
0010
0000
,
0100
0001
0010
0001
0100
0010
1000
0000
,
0102
0000
0000
0000
0000
0000
0013
0000
0000
0000
0000
0000
0100
0000
0000
0000
0000
0000
1000
0000
0000
0000
0000
0000
0100
0000
0000
0000
0010
0000
0000
0000
0000
0001
0000
0000
0000
0000
0000
0000
0000
0000
1000
0000
0000
0000
0000
0000
,
0000
0200
0000
0000
0300
0000
0000
0000
1000
0000
0001
0000
1000
0000
0000
0001
,
0100
0000
0000
0010
1000
0000
0000
0010
0100
0000
0000
0100
0001
0000
0000
1000
,
0100
0000
0000
0001
0100
0000
0000
0010
0200
0000
0300
0000
0001
0000
1000
0000
,
0100
1000
0100
0010
0001
1000
0010
0100
,
0000
0000
0000
0000
2002
0000
0000
0000
0000
0000
0000
0000
3003
0000
0000
0000
0000
0000
1000
0000
0000
0010
0000
0000
,
0100
0000
0001
0000
0010
0000
0100
0000
0010
0000
0001
0100
0000
0000
0001
0000
,
1000
0000
0100
0000
0010
0000
0001
0000
0100
0000
0000
0010
1000
0000
0000
0000
,
1000
0010
0100
0010
1000
0100
0010
0000
,
0010
0001
1000
0100
1000
0001
1000
0001
,
1000
0010
0100
0001
0020
1030
0001
0100
,
0010
0100
1000
0001
0000
0000
1100
0110
,
0012
0013
0100
1000
0010
0100
0001
0020
,
1030
0001
0100
1000
0000
0010
0101
0000
,
1010
0001
0100
0010
1000
0001
1000
0010
,
1000
0100
0010
0001
0000
0000
0011
0110
,
1100
1000
0100
0010
0001
0100
0001
0010
,
0001
0100
0010
1000
0000
0000
1100
0000
,
0001
1000
0100
0010
0100
1000
0001
0000
,
0001
0100
0010
1000
0100
0010
0001
0100
,
0010
1000
0200
0301
0100
1000
0010
0000
,
1000
0000
0001
0000
1000
0000
0002
0000
1000
0000
0000
1003
0000
0000
0000
0110
,
0000
0000
0001
0100
0010
1000
0100
0010
,
0001
1100
0011
1100
,
0001
0100
0010
0100
0001
1000
0010
0200
,
1300
0001
0010
1000
0100
0010
0001
0020
,
1030
0010
0001
0100
0001
0010
0100
0000
,
0100
1000
0001
0200
1300
0001
0010
0000
,
1100
0101
0110
2001
,
0020
3030
0000
1000
0010
0100
0010
1000
,
0001
0000
0100
0000
0010
0100
0000
0000
0001
1000
0001
0000
0010
0000
0000
0000
,
1200
0000
0310
0000
0001
0000
0100
0010
0000
1000
0010
1000
0000
0001
0000
0000
,
0100
0000
0001
0000
0010
0000
0100
0000
1000
0001
0000
0001
1000
0000
1000
0000
,
0100
0010
0001
0000
0110
0000
1001
0000
,
1000
0000
0010
0000
0100
0000
0000
0000
0001
0100
0001
0100
0001
0000
0000
0000
,
1100
0000
0000
0000
0110
0000
0000
0000
0001
0010
0001
0010
0001
0000
0000
0000
,
0001
0100
0010
0100
0001
1000
0100
0000
,
0100
1000
0010
0100
0010
1000
0001
0100
,
0020
0031
0010
0100
0001
0010
0100
1000
,
0020
0031
1000
0100
0001
0010
0100
0000
,
0202
0300
0003
1000
0100
1000
0010
1000
,
0001
0000
0220
0000
0000
0330
0000
0000
2002
0000
0000
0000
3003
0000
0000
0000
,
0001
0100
0001
0100
0010
0000
1000
0100
0000
0010
0001
0000
1100
0000
0000
0000
,
0001
0000
1000
0001
0100
0010
0000
0000
0010
0100
0010
0000
1000
0000
0000
0000
,
0001
0000
1000
0000
0010
0000
0000
0000
1000
0010
1000
0000
0001
0000
0000
0000
,
1000
0100
0010
0001
0100
0010
1000
0100
,
1000
0001
0000
0200
0000
0010
0000
0302
,
0000
0013
0000
0100
0000
1000
0000
0002
,
0000
0100
0000
0010
0000
1000
0000
0203
,
0000
0302
0000
2003
0000
3002
0000
0023
,
0000
2030
0000
3002
0000
0203
0000
0310
,
0000
0001
0000
2000
0000
0010
0000
0100
,
0000
0001
0000
3020
0000
2030
0000
0000
,
3001
0000
0000
0010
0000
0000
0100
0000
1000
0000
0000
0000
0101
0000
0000
0000
,
1000
0020
0031
0010
1000
0100
0010
0001
,
0100
0010
0100
0001
0000
0000
1010
0110
,
0201
0310
1000
0100
1000
0001
0020
1030
,
0010
0001
0100
0010
0000
0100
1010
0000
,
0021
0130
0010
0001
0010
0100
1000
0010
,
0100
0010
1000
0001
0000
0101
0110
1010
,
1000
0100
0010
0100
0010
0001
1000
2000
,
0200
0300
0000
0002
0003
0000
3010
2000
,
0000
3000
0002
0010
0000
0000
0013
0002
,
0000
0003
0200
1000
0000
0300
0100
0020
,
0000
0030
0010
2000
0000
0000
3020
0001
,
0000
0030
0020
0100
0000
0030
2000
0002
,
3000
0003
0100
0010
1000
0100
0010
0001
,
0020
0000
1030
0000
0010
0000
0002
0000
0100
0000
0000
1000
0003
0000
0001
0000
,
0100
0010
0100
0001
0020
1030
0001
0200
,
2000
0300
0000
3020
0000
0000
0031
0000
,
1200
0000
0310
0000
0001
0010
0001
0010
0001
0000
0010
0000
0100
1000
0000
0001
,
0100
0000
0010
1000
0000
1000
0000
0001
0100
0000
0010
0000
1000
0000
0000
0000
,
0001
0100
0001
0000
0100
0001
0100
0001
0100
0000
0010
1000
0000
0010
0000
1000
,
0001
0000
1000
0001
0000
0001
0010
0000
0100
0000
1000
0000
0100
0000
0010
0000
,
0001
1000
0001
0100
0010
0100
0100
0001
,
0100
0001
0000
1000
0100
0000
1000
0001
1000
0000
0010
0000
0100
0000
0001
0000
,
0010
0100
0010
0001
1000
0010
0100
0010
,
1000
0000
0001
0010
0000
0010
0001
0000
1000
0000
0100
0000
0010
0000
0000
0000
,
1001
0000
0000
0000
0110
0000
0000
0000
1000
0100
0010
0001
0010
0000
0100
0000
,
1000
0000
1000
0010
0000
0100
0000
0001
0010
0000
0010
0000
0001
0000
0010
0000
,
0100
0000
0100
1000
0000
0100
0000
0010
0100
1000
0100
0000
1000
0000
0001
0000
,
0100
0000
0100
0001
0000
1000
0000
0010
0100
0000
0001
0000
0010
0000
0001
0000
,
1000
0010
0100
0001
2000
0200
0000
0000
,
3300
0000
0000
0000
;
