#TITLE:Make Me Believe;
#SUBTITLE:Feat. Octavia Rose;
#ARTIST:Jamie Berry;
#TITLETRANSLIT:;
#SUBTITLETRANSLIT:;
#ARTISTTRANSLIT:;
#GENRE:;
#CREDIT:RxSteps;
#MUSIC:Make Me Believe.ogg;
#BANNER:Make Me Believe.png;
#BACKGROUND:Make Me Believe-bg.png;
#CDTITLE:cdtitle.png;
#SAMPLESTART:24.239;
#SAMPLELENGTH:24.202;
#SELECTABLE:YES;
#OFFSET:1.979;
#BPMS:0.000=119.000;
#STOPS:;
#BGCHANGES:;
#FGCHANGES:;

//--------------- dance-single - RxSteps ----------------
#NOTES:
     dance-single:
     RxSteps:
     Beginner:
     4:
     0,0,0,0,0:
0000
0000
0000
0000
,
1000
0010
0010
1000
,
1000
0100
0010
0001
,
1000
0001
0100
0100
,
0001
0010
0100
1000
,
1000
0100
1000
0000
0001
0000
0100
0010
,
0100
0000
0001
0000
1000
0000
1000
0001
,
1000
0000
0010
0000
0100
0000
0001
0100
,
0001
0000
1000
0000
0010
0100
0010
0000
,
1001
0000
0001
0100
,
0010
1000
0010
0000
0100
0000
0100
0000
,
0001
1000
0001
0000
0010
0000
0010
0000
,
0001
0000
0010
0000
0100
0010
0100
0000
,
1000
0000
0001
0000
1000
0001
1000
0000
,
0010
0100
0010
0010
,
1000
0100
0010
0010
,
0001
0000
0100
0000
0010
1000
0010
0000
,
1000
0010
0100
0001
,
1000
0010
0100
0001
,
0001
1000
0100
0010
,
0001
0010
0001
0000
1000
0010
1000
0000
,
0001
0000
0100
0000
0010
0100
0010
0000
,
1000
0000
0001
0000
0100
0001
0100
0000
,
0001
1000
0100
0010
,
0001
1000
0001
0000
0100
0000
0010
0000
,
2000
3000
0200
0300
,
0020
0030
0200
0300
,
1000
0001
1000
0000
0010
0000
0010
0000
,
0100
0001
0010
0100
,
1000
0000
1000
0100
1000
0000
0001
0000
,
0010
0000
0010
0001
0010
0000
0100
0000
,
1000
0000
0001
0000
0100
0010
0100
0020
,
2000
0000
3030
0000
,
0110
0000
1000
0001
,
0010
0001
0100
0010
,
1000
0010
1000
0000
0001
0000
0100
0000
,
0001
0010
0001
0010
0001
0000
1000
0000
,
0110
0000
1000
0010
,
1000
0001
0100
0001
0100
0000
0010
0000
,
1000
0100
1000
0000
0001
0100
0001
0000
,
1000
0000
0000
0001
0000
0000
0100
0000
0000
0010
0000
0000
1000
0000
0010
0000
,
1000
0001
0010
0100
,
1000
0001
0010
0100
,
1000
0100
0010
0001
,
1000
0001
1000
0001
1000
0010
0100
0000
,
1001
0000
1000
0010
,
0100
0001
0100
0000
0010
0000
0010
0000
,
1000
0100
1000
0100
1000
0000
0001
0000
,
0100
0100
0010
0100
,
1001
0000
0000
0000
0001
0000
1000
0010
,
1000
0000
0010
0000
0100
0000
0001
0100
,
0001
0000
1000
0000
0010
0000
1000
0100
,
1000
0000
0010
0000
0100
0010
0100
0000
,
0001
1000
0100
1000
,
0100
0000
0010
0000
0001
0010
0001
0010
,
0001
1000
0010
0010
,
0100
0001
0010
0100
,
1000
0000
0001
0100
0001
0000
0100
0000
,
0010
1000
0101
0000
,
1000
0001
0010
0001
,
1000
0001
1000
0001
1000
0000
0010
0000
,
0020
0030
2000
3000
,
0002
0003
0020
0030
,
0001
1000
0001
0000
0100
0000
0100
0000
,
0010
1000
0100
0010
,
0001
0000
0001
0010
0001
0000
1000
0000
,
0100
0000
0100
1000
0100
0000
0010
0000
,
0001
1000
0100
0100
,
2000
0000
0000
0000
,
0002
0000
0000
0000
,
0000
0000
3003
0000
,
1000
0010
0100
0010
,
1000
0001
0010
0000
,
1001
0000
0001
1000
,
0100
1000
0010
0100
,
0001
0100
0001
0000
1000
0000
0010
0000
,
1000
0100
1000
0100
1000
0000
0001
0000
,
0110
0000
1000
0001
,
0100
0001
0010
0100
,
1000
0100
1000
0000
0001
0000
0010
0000
,
0001
0000
0000
1000
0000
0000
0001
0000
0000
0100
0000
0000
0001
0000
0100
0000
,
0001
1000
0001
0001
,
1000
0001
0100
0001
0100
0000
0100
0000
,
0001
1000
0001
0000
1000
0000
0010
0000
,
0100
0000
0001
0100
0001
0100
0001
0000
,
1000
0010
1000
0000
0001
0000
0100
0000
,
0001
0010
0001
0000
0001
0000
1000
0000
,
0001
0100
0010
1000
,
0100
0000
0000
0010
0000
0000
0001
0000
0000
0010
0000
0000
0100
0000
1000
0000
,
0100
0000
0000
1000
0000
0000
0001
0000
0000
1000
0000
0000
0001
0000
0100
0000
,
0001
0000
0000
1000
0000
0000
0001
0000
0000
0100
0000
0000
0010
0000
0100
0000
,
0010
0000
0000
0000
;

//--------------- dance-single - RxSteps ----------------
#NOTES:
     dance-single:
     RxSteps:
     Easy:
     7:
     0,0,0,0,0:
0000
0000
0000
0000
,
1000
0100
0010
0000
0010
0100
1000
0000
,
1000
0001
0100
0000
0100
0001
0010
0000
,
0010
0001
0100
0000
0001
1000
0100
0000
,
0100
1000
0010
0000
0010
0100
0001
0000
,
1000
0010
0100
0010
1000
0000
0001
0010
,
0100
1000
0100
1000
0001
0000
0010
0001
,
1000
0010
0100
0010
0100
0000
0001
0100
,
0010
1000
0001
1000
0010
1000
0100
0000
,
1001
0000
0011
0000
0001
1000
0010
0000
,
0010
1000
0100
0000
0101
0000
1100
0000
,
1000
0001
0100
0001
0010
0000
0010
0001
,
1000
0000
0100
0010
0001
0100
0010
0000
,
1001
0000
0110
0000
1000
0001
1000
0010
,
0100
0001
0010
0001
1000
0000
1000
0001
,
0100
0010
0100
0010
1000
0000
0001
0010
,
0100
0000
0100
1000
0001
0100
0010
0000
,
1000
0001
0100
0010
0200
0300
0001
0010
,
0001
0010
0100
1000
0200
0000
0010
0300
,
1000
0001
1000
0010
1000
0001
0100
0000
,
1100
0000
0101
0000
1000
0001
0100
0001
,
1000
0010
0100
0010
1000
0001
0100
0000
,
0100
0010
1000
0100
0010
0001
0010
0000
,
0010
0001
1000
0010
0200
0000
0001
0300
,
0010
1000
0010
0100
0001
1000
0010
1000
,
0002
0000
0013
0200
1000
0300
1000
0100
,
0020
0000
0031
0100
1000
0000
0001
0000
,
0100
0010
0100
0001
1000
0100
1000
0001
,
0100
0020
1000
0130
,
0001
0000
1000
0010
0100
0000
0100
0000
,
0010
0000
1000
0100
0010
0000
0010
0100
,
2000
0000
0001
3000
0010
1000
0010
0200
,
0002
0000
0000
0303
,
0110
0000
1001
0000
1000
0010
0100
0010
,
1000
0001
0100
0010
0100
0001
1000
0000
,
0011
0000
1100
0000
0001
0010
0100
0010
,
0001
1000
0001
2000
0010
0000
3001
0000
,
0110
0000
1010
0000
1000
0100
0010
0100
,
1000
0001
0020
0000
0100
0000
0031
0000
,
1010
0000
0011
0000
1000
0010
1000
0001
,
0010
0000
0000
0001
0000
0000
0100
0000
0000
0010
0000
0000
1000
0000
0001
0000
,
1000
0010
0100
0001
1000
0010
0100
0001
,
1000
0010
0100
0001
1000
0010
0100
0001
,
1000
0100
0010
0001
,
1000
0010
0100
0010
1000
0001
0100
0000
,
1001
0000
1100
0000
1000
0001
0100
0000
,
0100
0001
0010
0000
1010
0000
0011
0000
,
0001
1000
0010
1000
0100
0000
0100
1000
,
0001
0000
0010
0100
1000
0010
0100
0000
,
1001
0000
0110
0000
0001
1000
0001
0100
,
0010
1000
0100
1000
0001
0000
0001
1000
,
0010
0100
0010
0100
0001
0000
1000
0100
,
0010
0000
0010
0001
1000
0010
0100
0000
,
0100
0010
1000
0001
1000
0010
0100
0010
,
1000
0100
0010
0000
0010
0001
0010
0100
,
0010
0100
1000
0200
0010
0000
1000
0300
,
0010
0001
1000
0001
1000
0010
0100
0010
,
1000
0000
1000
0001
0100
0010
0200
0000
,
0001
0310
1001
0110
,
1000
0001
0010
0001
0010
0100
1000
0000
,
1000
0001
0100
0010
0100
0001
1000
0010
,
2000
0000
3100
0020
0001
0030
0001
0010
,
0200
0000
1300
0010
0001
0000
1000
0000
,
0010
0100
0010
1000
0001
0010
0001
1000
,
0010
0200
0001
0310
,
1000
0000
0001
0100
0010
0000
0010
0000
,
0100
0000
0001
0010
0100
0000
0100
0010
,
0002
0000
1000
0003
0100
0001
0100
0020
,
2000
0000
0000
0030
,
0200
0000
0000
0000
,
0000
0000
0000
3000
,
1000
0310
0002
0010
,
1003
0000
0001
0000
0010
0001
0100
0000
,
0110
0000
1001
0000
1000
0100
0010
0100
,
1000
0001
0010
0100
0010
0001
1000
0000
,
0101
0000
1010
0000
0001
0100
0010
0100
,
0001
1000
0001
2000
0100
0000
3001
0000
,
0110
0000
1001
0000
0001
0010
0100
0010
,
0001
1000
0100
0010
0100
1000
0001
0000
,
1010
0000
0101
0000
1000
0010
0100
0010
,
1000
0000
0000
0001
0000
0000
0010
0000
0000
0100
0000
0000
1000
0000
0010
0000
,
1000
0001
0100
0010
0100
0001
1000
0100
,
1000
0010
0100
0002
1000
0003
1000
0001
,
0100
0010
0100
0001
1000
0001
0100
0010
,
1000
0000
1000
0010
0100
0010
1000
0000
,
0101
0000
1010
0000
0001
0100
0010
0100
,
0001
1000
0001
1000
0100
0000
0100
1000
,
0001
0010
0001
0010
0100
1000
0100
1000
,
0100
0000
0000
0010
0000
0000
0001
0000
0000
1000
0000
0000
0010
0000
1000
0000
,
0001
0000
0000
0100
0000
0000
0010
0000
0000
1000
0000
0000
0100
0000
0010
0000
,
0001
0000
0000
1000
0000
0000
0100
0000
0000
0010
0000
0000
0001
0000
0100
0000
,
0010
0000
0000
0000
;

//--------------- dance-single - RxSteps ----------------
#NOTES:
     dance-single:
     RxSteps:
     Medium:
     9:
     0,0,0,0,0:
0000
0000
0000
0000
,
0001
0000
1000
0000
0010
0100
0010
0000
1000
0000
0100
0000
0010
0001
0010
0000
,
0100
0000
1000
0000
0001
0010
0100
0000
1000
0000
0001
0000
1000
0100
1000
0000
,
0010
0000
0100
0000
0010
1000
0010
0000
0100
0000
0001
0000
1000
0010
0100
0000
,
0001
0000
1000
0000
0001
0000
0010
0000
0100
0000
1000
0000
0001
1000
0000
0000
,
0001
0100
0000
0100
0001
0000
1000
0000
0100
0000
1000
0000
0100
0000
0010
0000
,
0001
0010
0000
0010
0001
0000
1000
0000
0001
0000
0010
0000
0100
0000
1000
0000
,
0010
0100
0000
0100
0010
0000
1000
0000
0001
0000
0100
0000
0010
0000
1000
0000
,
0001
0010
0000
0010
0001
0000
1000
0000
0100
0000
0010
0001
0000
0000
0000
0000
,
1001
0000
0110
0000
1002
0003
0100
0000
0010
0000
0010
0000
1000
0000
0100
0000
,
0010
0000
0100
0000
1000
0000
0100
0000
0110
0000
0000
0000
1002
0003
0100
0000
,
0010
0100
0001
0001
1000
0010
0011
1000
,
0010
0000
0100
0000
0001
0000
1000
0000
0010
0100
0000
0000
0001
1000
0000
0000
,
0100
1000
0000
1000
0100
0000
0010
0000
0101
0000
0000
0000
1020
0030
0100
0000
,
0001
0100
0000
0100
0001
0000
1000
0000
0201
0300
0000
0000
1200
0300
0010
0000
,
0001
0010
0100
0010
0001
1000
0100
1000
,
0001
0000
0010
0000
0100
0000
1000
0000
0001
0000
0010
0200
0000
0000
0300
0000
,
0010
0000
0001
1000
0001
0000
0100
0000
0001
0000
1000
0000
0010
0000
0100
0000
,
0010
0000
1000
0001
1000
0000
0100
0000
1000
0000
0001
0100
0000
0100
0001
0000
,
1000
0000
0010
0100
0010
0000
1000
0000
0010
0000
0100
0000
0001
0000
0000
0000
,
0110
0000
0000
0000
1100
0000
0000
0000
0021
0030
0100
0000
1000
0000
0001
0000
,
0010
0001
0100
0010
1000
0100
0010
0000
,
1010
0000
0011
0000
0110
0000
1002
0003
,
0100
0010
1000
0001
0100
0010
0100
0001
,
1000
0100
0010
0001
1000
0100
0010
0002
,
0100
0000
0000
0003
0010
0000
0200
0000
1000
0000
0000
0300
0010
0000
0002
0000
,
0100
0000
0000
0003
1000
0000
0100
0000
0020
0000
0000
0000
0001
0000
0030
0100
,
1000
0000
0010
0000
0100
0000
0001
0000
0010
0000
0001
0000
0200
0300
0000
0010
,
1000
0000
0000
0001
0100
0000
0000
0010
1000
0000
0000
1000
0100
0000
0000
0020
,
0001
0000
0030
0100
1000
0000
0001
0000
0100
0000
0010
0000
1000
0001
0000
0001
,
1000
0000
0000
0100
0010
0000
0000
1000
0001
0000
0000
0000
0100
0010
0000
0010
,
0100
0000
0000
0000
2100
0000
3000
0000
0001
0000
0010
0000
0100
1000
0100
0000
,
0020
0000
0031
0010
,
0201
0300
0010
0000
1100
0000
0010
0000
0001
0000
1000
0000
0100
0000
1000
0000
,
0001
0100
0010
1000
0100
0010
0001
0010
,
1200
0300
0010
0000
0201
0300
0010
0000
1000
0000
0100
0000
0010
0000
0100
0000
,
1000
0100
1000
0000
0001
0000
0100
0000
0010
1000
0000
0100
0000
0000
0000
0000
,
0110
0000
1001
0000
1200
0300
0010
0000
0001
0000
0100
0000
0010
0000
0100
0000
,
0001
0000
0010
0000
0100
2000
0000
0020
3000
0000
0000
0000
0130
0000
0000
0000
,
2010
3000
0100
0000
0021
0030
0100
0000
1000
0000
0010
0000
0100
0000
0001
0000
,
1100
0000
0000
0000
0101
0000
0000
0000
1200
0300
0010
0000
0100
0000
1000
0000
,
0001
0000
0010
0000
0001
0000
0000
0100
0010
0000
0000
0100
0001
0000
0000
0010
,
0001
0000
0000
0010
0100
0000
0000
0010
0001
0000
0000
1000
0010
0000
0000
1000
,
0100
0000
0000
0100
0001
0000
1000
0000
0010
0000
0100
0000
0010
0000
1000
0000
,
0100
0000
1000
0000
0100
0000
0010
0000
0001
0000
0100
0000
0001
1000
0000
0000
,
0110
1001
0110
0001
0100
0100
0001
0010
,
0100
0000
0010
0000
0001
0000
0100
0000
1010
0000
0000
0000
0021
0030
0100
0000
,
1000
0100
0100
1000
0001
0010
0100
1000
,
0001
0000
0100
0000
0010
0000
1000
0000
0010
0100
0010
0000
1000
0100
0000
0000
,
0010
0001
0000
0001
0010
0000
0100
0000
1100
0000
0000
0000
2001
3000
0100
0000
,
0010
0001
0000
0001
0010
0000
0001
0000
1010
0000
0000
0000
0201
0300
0010
0000
,
1000
0100
0010
0100
1000
0010
0100
0010
,
1000
0000
0100
0000
0010
0000
0001
0000
0100
0000
0010
1000
0000
0000
0000
0001
,
1000
0000
0010
0100
0000
0100
0010
0000
1000
0000
0001
0000
0100
0000
0010
0000
,
0100
0000
0001
0000
1000
0001
0000
0000
0010
0000
0000
0000
0101
0000
0000
0000
,
1200
0310
0011
1100
,
0001
0000
0010
0000
0001
0000
1000
0000
0010
0000
0100
0010
0000
0010
0100
0000
,
0001
0000
0100
0000
0010
1000
0010
1000
0010
0000
1000
0000
0100
0000
1000
0000
,
0001
0000
0010
0000
0100
0000
0000
0000
0101
0000
0000
0000
2010
3000
0000
0100
,
1000
0100
0010
0001
1000
0010
0100
0010
,
1000
0000
0001
0000
0010
0000
0100
0000
1000
0100
0000
0100
1000
0000
0001
0000
,
1000
0000
0000
0000
0100
0000
0020
0000
0001
0000
0000
0030
0100
0000
2000
0000
,
0010
0000
0000
3000
0001
0000
0010
0000
0200
0000
0000
0000
1000
0000
0300
0010
,
0001
0000
0100
0000
0010
0000
1000
0000
0100
0000
1000
0000
0020
0030
0000
0100
,
0001
0000
0000
1000
0010
0000
0000
0100
0001
0000
0000
0001
0010
0000
0000
0200
,
1000
0000
0300
0010
0001
0000
1000
0000
0010
0000
0100
0000
0001
1000
0000
1000
,
0001
0000
0000
0100
0010
0000
0000
0010
0100
0000
0000
0001
1000
0000
0000
1000
,
0010
0000
0000
0000
0012
0000
0003
0000
0100
0000
0001
0000
1000
0200
0000
0000
,
0020
0300
0032
0023
,
0200
0000
0000
0000
0000
0000
0000
0300
,
0130
0010
0001
0010
0100
1000
0010
0100
,
0001
0010
0001
0100
0010
0100
0001
1000
,
0100
0000
0010
0000
0001
0000
0100
0000
0010
0000
1000
0000
0001
0100
0000
0000
,
1020
0030
0100
0000
0011
0000
0100
0000
1000
0000
0010
0000
0100
0000
0010
0000
,
1000
0010
0100
0001
0010
0100
1000
0100
,
0021
0030
0100
0000
1020
0030
0100
0000
0001
0000
0010
0000
0100
0000
0010
0000
,
0001
0010
0001
0000
1000
0000
0010
0000
0100
0001
0000
0010
0000
0000
0000
0000
,
0110
0000
1001
0000
0021
0030
0100
0000
1000
0000
0001
0000
0100
0000
0001
0000
,
1000
0100
0010
0001
0100
0010
1000
0010
,
0201
0300
0010
0000
1200
0300
0010
0000
0001
0000
0100
0000
0010
0000
0100
0000
,
0002
0003
0000
1000
0100
0000
0000
0001
0100
0000
0000
1000
0100
0000
0000
0000
,
1001
0000
0110
0000
1002
0003
0010
0000
0100
0000
0100
0000
1000
0000
0010
0000
,
0100
0000
0010
0000
1000
0000
0100
0000
0011
0000
0000
0000
1020
0030
0100
0000
,
0010
1000
0001
1000
0010
0010
0100
0001
,
1000
0000
0100
0000
0010
0000
0001
0000
0010
0100
1000
0000
0100
0010
0000
0000
,
0010
0001
0000
0001
0010
0000
0100
0000
1001
0000
0000
0000
0110
0000
0000
0000
,
0001
0100
0000
0100
0001
0000
1000
0000
0110
0000
0000
0000
0021
0030
0100
0000
,
1000
0100
0010
0100
1000
0010
0100
0001
,
0010
0000
0000
0010
0001
0000
0000
0001
0100
0000
0000
0010
1000
0000
0000
0001
,
0200
0000
0000
0320
0000
0000
0230
0000
0000
0302
0000
0000
0013
0000
0100
0000
,
2000
0000
0000
3020
0000
0000
0230
0000
0000
0301
0000
0000
0010
0000
0100
0000
,
1001
0000
0000
0000
;

//--------------- dance-single - RxSteps ----------------
#NOTES:
     dance-single:
     RxSteps:
     Hard:
     10:
     0,0,0,0,0:
0000
0000
0000
0000
,
0001
0000
0100
0000
0010
0100
0001
0000
1000
0000
0100
0000
0010
0001
0100
0000
,
0010
0000
1000
0000
0001
0010
0100
0000
1000
0000
0100
0000
0010
0001
1000
0000
,
0010
0000
0100
0000
0010
1000
0100
0000
0010
0000
0100
0000
1000
0100
0010
0000
,
0001
0000
1000
0000
0001
0000
0200
0300
1000
0000
0100
0000
0001
0010
0000
0000
,
0001
0100
0000
0100
0001
0000
1000
0000
0100
0000
1000
0000
0001
0010
0100
1000
,
0100
0010
0000
0010
0001
0000
0200
0300
1000
0000
0100
0000
0001
0100
0010
1000
,
0010
0100
0000
0100
0010
0000
1000
0000
0001
0000
0010
0100
1000
0100
0010
0000
,
0001
0010
0000
0010
0001
0000
1000
0000
0100
0000
0020
1030
0000
0000
0000
0000
,
1001
0000
0110
0000
1002
0003
0100
0000
0010
0000
0010
0000
1000
0000
0200
0300
,
0001
0000
0100
0000
1000
0000
0010
0000
0102
0003
0010
0000
0100
0000
1020
0030
,
0100
0000
0011
0000
1010
0000
0021
0030
0100
0000
0100
0000
0010
0000
0001
0000
,
1000
0000
0020
0030
0001
0000
1000
0000
0100
0010
1000
0000
0001
0010
0000
0000
,
0100
1000
0000
1000
0100
0000
0010
0000
2001
3000
0010
0000
1002
0003
0010
0000
,
0001
0100
0000
0100
0010
0000
1000
0000
0201
0300
0010
0000
1200
0300
0010
0000
,
0001
0000
0020
0030
1000
0000
0010
0000
0001
0000
0200
0300
1000
0000
0100
0000
,
0001
0000
0010
0000
0100
0000
1000
0000
0200
0300
0002
2000
0000
0003
0000
3000
,
0010
0000
0001
0100
0010
0000
0100
0000
0001
0000
1000
0000
0010
0000
0100
0000
,
0010
0000
1000
0100
0010
0000
0100
0000
1000
0000
0001
0100
0000
0100
0001
0000
,
0010
0000
0100
0010
0001
0000
1000
0000
0010
0000
0100
0000
0001
0000
1000
0100
,
0010
0000
0001
0010
0000
0010
0001
0000
0100
0000
1020
0030
1000
0000
0001
0000
,
0012
0003
0010
0000
0100
0000
1000
0000
0200
0300
0002
0000
0103
0000
0000
0000
,
1010
0000
0011
0000
0110
0000
1002
0003
,
0100
0000
0010
0000
1000
0000
0200
0300
0001
0000
1000
0000
0010
0000
0001
0000
,
0200
0300
1000
0000
0001
0000
0010
0000
1000
0000
0100
0000
0010
0000
0002
0000
,
0100
0000
0000
0003
0010
0000
0200
0000
1000
0000
0000
0300
0010
0000
0002
0000
,
0100
0000
0000
0003
1000
0000
0100
0000
0020
0000
0000
0000
0001
0000
0030
0100
,
1000
0000
0010
0000
0100
0000
0001
0000
0010
0000
0001
0000
0200
0300
0000
0010
,
1000
0000
0000
0001
0100
0000
0000
0010
1000
0000
0000
1000
0100
0000
0000
0020
,
0001
0000
0030
0100
1000
0000
0001
0000
0100
0000
0010
0000
1000
0001
0000
0001
,
1000
0000
0001
0100
0010
0000
1000
0100
0010
0000
0001
0000
0100
0010
0000
0010
,
0100
0000
0000
0000
2100
0000
3000
0000
0001
0000
0010
0000
0001
0100
0010
0000
,
0200
0000
0301
0010
,
0201
0300
0010
0000
1100
0000
0010
0000
0001
0000
0200
0300
1000
0000
0100
0000
,
0001
0100
0010
1000
0100
0010
0001
0010
,
1200
0300
0010
0000
0201
0300
0010
0000
1000
0000
0200
0300
0001
0000
0100
0000
,
1000
0100
0010
0000
0001
0000
0100
0000
0020
0032
0000
2000
0000
3003
0000
0000
,
0110
0000
1001
0000
1200
0300
0010
0000
0001
0000
0200
0300
1000
0000
0100
0000
,
0001
0000
0010
0000
0200
2300
0000
0020
3000
0000
0000
0000
0031
0000
0000
0000
,
2010
3000
0100
0000
0021
0030
0100
0000
1000
0000
0010
0000
0100
0000
0001
0000
,
1200
0300
0010
0000
0201
0300
0010
0000
1100
0000
0010
0000
0100
0000
1000
0000
,
0001
0000
0010
0000
0001
0000
0000
0100
0010
0000
0000
0100
0001
0000
0000
0010
,
0001
0000
0000
0010
0100
0000
0000
0010
0001
0000
0000
1000
0010
0000
0000
1000
,
0100
0000
0000
0100
0001
0000
1000
0000
0010
0000
0100
0000
0010
0000
1000
0000
,
0100
0000
1000
0000
0100
0000
0010
0000
0001
0000
0200
0000
1300
0001
0000
0000
,
0110
0000
1001
0000
0110
0000
0001
0000
0100
0000
0100
0000
0001
0000
0020
0030
,
1000
0000
0010
0000
0001
0000
0100
0000
2010
3000
0100
0000
0010
0000
0201
0300
,
0010
0000
1100
0000
0101
0000
1200
0300
0010
0000
0010
0000
0100
0000
1000
0000
,
0001
0000
0200
0300
1000
0000
0001
0000
0010
0100
0001
0000
1000
0100
0000
0000
,
0010
0001
0000
0001
0010
0000
0100
0000
1002
0003
0100
0000
2001
3000
0100
0000
,
1000
0010
0000
0010
0100
0000
0001
0000
1020
0030
0100
0000
0021
0030
0100
0000
,
1000
0000
0200
0300
0001
0000
0100
0000
1000
0000
0020
0030
0001
0000
0010
0000
,
1000
0000
0100
0000
0010
0000
0001
0000
0020
0030
2000
0002
0000
3000
0000
0103
,
1000
0000
0001
0100
0000
0100
0001
0000
1000
0000
0001
0000
0100
0000
0010
0000
,
0100
0000
0001
0000
1000
0200
0000
0000
0010
0300
0000
0000
0101
0000
0000
0000
,
1200
0310
0011
1100
,
0001
0000
0010
0000
0100
1000
0000
1000
0100
0010
0000
0010
0100
0000
1000
0000
,
0001
0000
0100
0000
0010
0100
0010
0100
0010
0000
1000
0000
0100
0000
1000
0000
,
0001
0000
0010
0000
0100
0010
0001
0000
1100
0000
0000
0000
0101
0000
0000
0001
,
1000
0100
0010
0001
1000
0010
0100
0010
,
1000
0000
0200
0300
0001
0000
1000
0000
0010
0100
0000
0100
0010
0000
0001
0000
,
1000
0000
0000
0000
0100
0000
0020
0000
0001
0000
0000
0030
0100
0000
2000
0000
,
0010
0000
0000
3000
0001
0000
0010
0000
0200
0000
0000
0000
1000
0000
0300
0010
,
0001
0000
0100
0000
0010
0000
1000
0000
0100
0000
1000
0000
0020
0030
0000
0100
,
0001
0000
0000
1000
0010
0000
0000
0100
0001
0000
0000
0001
0010
0000
0000
0200
,
1000
0000
0300
0010
0001
0000
1000
0000
0010
0000
0100
0000
0001
1000
0000
1000
,
0001
0000
1000
0010
0100
0000
0001
0010
0100
0000
1000
0000
0010
0100
0000
0100
,
0010
0000
0000
0000
0012
0000
0003
0000
0100
0000
0001
0000
1000
0200
0000
0000
,
0020
0300
0032
0023
,
2000
0000
0000
0000
0000
0000
0000
3000
,
1030
0010
0001
0010
0100
1000
0010
0100
,
0001
0010
0001
0100
0010
0100
0001
1000
,
0200
0300
0001
0000
1000
0000
0010
0000
0001
0000
1000
0000
0010
0100
0000
0000
,
1020
0030
0100
0000
0011
0000
0100
0000
1000
0000
0020
0030
0001
0000
0010
0000
,
1000
0010
0100
0001
0010
0100
1000
0100
,
0021
0030
0100
0000
1020
0030
0100
0000
0001
0000
0020
0030
1000
0000
0010
0000
,
0001
0010
0100
0000
1000
0000
0010
0000
0200
2300
0000
0002
0000
3003
0000
0000
,
0110
0000
1001
0000
0021
0030
0100
0000
1000
0000
0200
0300
0001
0000
0100
0000
,
1000
0100
0010
0001
0100
0010
1000
0010
,
0201
0300
0010
0000
1200
0300
0010
0000
0001
0000
0200
0300
1000
0000
0100
0000
,
0002
0003
0000
1000
0100
0000
0000
0001
0100
0000
0000
1000
0100
0000
0000
0000
,
1001
0000
0110
0000
1002
0003
0010
0000
0100
0000
0100
0000
1000
0000
0020
0030
,
0001
0000
0010
0000
1000
0000
0100
0000
0012
0003
0100
0000
0010
0000
1200
0300
,
0010
0000
0101
0000
1100
0000
0201
0300
0010
0000
0010
0000
0100
0000
0001
0000
,
1000
0000
0200
0300
0001
0000
1000
0000
0010
0100
1000
0000
0001
0100
0000
0000
,
0010
1000
0000
1000
0010
0000
0100
0000
2001
3000
0100
0000
1002
0003
0100
0000
,
0001
0010
0000
0010
0100
0000
1000
0000
0021
0030
0100
0000
1020
0030
0100
0000
,
0001
0000
0200
0300
1000
0000
0100
0000
0001
0000
0020
0030
1000
0000
0010
0000
,
0002
0003
0000
1000
0100
0000
0000
0001
0100
0000
0000
1000
0100
0000
0000
0001
,
0200
0000
0000
0320
0000
0000
0032
0000
0000
2003
0000
0000
3100
0000
0010
0000
,
2000
0000
0000
3200
0000
0000
0302
0000
0000
2003
0000
0000
3010
0000
0001
0000
,
1010
0000
0000
0000
;
