#TITLE:Love Me;
#SUBTITLE:;
#ARTIST:Felix Cartal & Lights;
#TITLETRANSLIT:;
#SUBTITLETRANSLIT:;
#ARTISTTRANSLIT:;
#GENRE:;
#CREDIT:RxSteps;
#MUSIC:Love Me.ogg;
#BANNER:Love Me.png;
#BACKGROUND:Love Me-BG.png;
#CDTITLE:cdtitle.png;
#SAMPLESTART:52.847;
#SAMPLELENGTH:21.026;
#SELECTABLE:YES;
#OFFSET:2.025;
#BPMS:0.000=117.000;
#STOPS:;
#BGCHANGES:;
#FGCHANGES:;

//--------------- dance-single - RxSteps ----------------
#NOTES:
     dance-single:
     RxSteps:
     Beginner:
     1:
     0,0,0,0,0:
0000
0000
0000
0000
,
0001
0000
0000
0000
0000
0000
0000
1000
,
0000
0000
0000
0000
,
0010
0000
0000
0000
0000
0000
0000
0010
,
0000
0000
0000
0000
,
1000
0000
0000
0000
,
1000
0000
0000
0000
,
0001
0000
0000
0000
,
0001
0000
0000
0000
,
0000
0010
0000
0000
,
1000
0000
0000
0000
,
0100
0000
0000
0000
,
0100
0000
0000
0000
,
0001
0000
0000
0000
0000
0000
0000
0001
,
0000
0000
0000
0000
,
0100
0000
0000
0000
0000
0000
0000
0100
,
0000
0000
0000
0000
,
0010
0000
0000
0000
0000
0000
0000
1000
,
0000
0000
0000
0000
,
1000
0000
0000
0000
0000
0000
0000
0010
,
0000
0000
0000
0000
,
1000
0000
0000
0001
,
0000
0000
0000
0000
,
0100
0000
0000
0000
0000
0000
0000
0001
,
0000
0000
0000
0000
,
0010
0000
0000
0010
,
0000
0000
0000
0000
,
0001
0000
0000
0000
,
1000
0000
0000
0000
,
1000
0000
0000
0000
0000
0000
0000
0001
,
0000
0000
0000
0000
,
0100
0000
0000
0000
0000
0000
0000
0010
,
0000
0000
0000
0000
,
0010
0000
0000
0000
0000
0000
0000
0100
,
0000
0000
0000
0000
,
0001
0000
0000
0000
,
1000
0000
0000
0000
,
0100
0000
0000
0000
,
0100
0000
0000
0000
,
1000
0000
0000
0000
0000
0000
0000
0001
,
0000
0000
0000
0000
,
0000
0100
0000
0000
,
0010
0000
0000
0000
,
0010
0000
0000
0000
,
1000
0000
0000
0000
,
0100
0000
0000
0000
0000
0000
0000
1000
,
0000
0000
0000
0000
,
0001
0000
0000
0000
0000
0000
0000
0001
,
0000
0000
0000
0000
,
0100
0000
0000
0000
0000
0000
0000
0001
,
0000
0000
0000
0000
,
1000
0000
0000
0000
0000
0000
0000
0010
,
0000
0000
0000
0000
,
0001
0000
0000
1000
,
0000
0000
0000
0000
,
0010
0000
0000
0000
0000
0000
0000
1000
,
0000
0000
0000
0000
,
0001
0000
0000
0001
,
0000
0000
0000
0000
,
1000
0000
0000
0000
,
0100
0000
0000
0000
,
0100
0000
0000
0000
0000
0000
0000
0010
,
0000
0000
0000
0000
,
0010
0000
0000
0000
0000
0000
0000
1000
,
0000
0000
0000
0000
,
0001
0000
0000
0000
0000
0000
0000
0100
,
0000
0000
0000
0000
,
0001
0000
0000
0000
,
0001
0000
0000
0000
0000
1000
0000
0000
,
0000
0000
0000
0000
0000
0000
0000
1000
,
0000
0000
0000
0000
0000
0000
0000
0001
,
0000
0000
0000
0000
0000
0000
0000
0100
,
0000
0000
0000
0000
,
0000
0000
0010
0000
0000
0000
0000
0010
,
0000
0000
0000
0000
0000
0000
0000
1000
,
0000
0000
0000
0000
,
1000
0000
0001
0000
,
0100
0000
0000
0100
,
0000
0000
0000
0000
,
0001
0000
0000
0000
0000
0000
0000
0001
,
0000
0000
0000
0000
,
1000
0000
0000
0010
,
0000
0000
0010
0000
,
0100
0000
0000
0000
,
0100
0000
0000
0000
,
0001
0000
0000
1000
,
0000
0000
0000
0000
,
0010
0000
0000
0000
0000
0000
0000
0100
,
0000
0000
0000
0000
,
0001
0000
0000
1000
,
0000
0000
0010
0000
,
1000
0000
0000
0000
,
0010
0000
0000
0000
,
1000
0000
0000
0000
;

//--------------- dance-single - RxSteps ----------------
#NOTES:
     dance-single:
     RxSteps:
     Easy:
     3:
     0,0,0,0,0:
0000
0000
0000
0000
,
1000
0000
0000
0010
0000
0010
0000
1000
,
0000
0010
0000
0100
0000
0100
0000
0000
,
0001
0000
0000
0100
0000
0100
0000
0001
,
0000
0000
0000
0010
0000
0000
0001
0000
,
1000
0001
0100
0001
,
0001
0010
0100
1000
,
1000
0010
1000
1000
,
0001
0000
0000
0010
0000
0000
0000
0001
,
0000
1000
0010
0100
,
0001
0100
0100
0001
,
1000
0001
0100
0100
,
0010
0000
0000
1000
0000
0000
0000
0000
,
0110
0000
0000
0000
0000
0000
0000
1000
,
0000
0000
0001
0001
,
0100
0001
1000
0100
,
0010
0001
1000
1000
,
0002
0000
0003
0000
0100
0000
0000
0001
,
0000
0100
0000
0000
0010
0000
0010
0000
,
1000
0000
0100
1000
,
0100
1000
0001
0100
,
0020
0000
0030
2000
,
0000
0000
3000
0000
,
0002
0000
0003
0000
0000
0100
0000
0100
,
0000
0001
0100
0000
,
0001
0010
0100
1000
,
0100
1000
1000
0000
,
0001
1000
0010
0100
,
0020
0000
0030
0000
0000
1000
0000
0000
,
1010
0000
0000
2000
0000
3000
0000
0001
,
0000
0100
0000
0001
0000
0001
0000
0000
,
1001
0000
0000
2000
0000
3000
0000
0001
,
0000
0000
0000
0100
0000
0010
0000
0000
,
0110
0000
0000
0002
0000
0003
0000
2000
,
0000
3000
0000
0010
0000
0010
0000
0000
,
1000
0001
0100
0010
,
0200
0000
0300
0000
,
0001
0010
0100
1000
,
1000
0010
0100
0001
,
0002
0000
0003
0000
1000
0000
0000
0020
,
0000
0030
0000
2000
0000
0000
3000
0000
,
0000
0101
0000
0001
,
0100
0100
0010
1000
,
0020
0030
2000
3000
,
0001
0000
0000
0100
0000
0000
0000
0000
,
1001
0000
0000
0000
0000
0000
0000
0001
,
0000
0000
1000
1000
,
0010
1000
0001
0010
,
0100
1000
0001
0001
,
2000
0000
3000
0000
0010
0000
0000
1000
,
0000
0010
0000
0000
0100
0000
0100
0000
,
0001
0000
0010
0001
,
0010
0001
1000
0010
,
0200
0000
0300
0002
,
0000
0000
0003
0000
,
2000
0000
3000
0000
0000
0010
0000
0010
,
0000
1000
0010
0000
,
1000
0100
0010
0001
,
0010
0001
0001
0000
,
1000
0001
0100
0010
,
0200
0000
0300
0000
0000
0001
0000
0000
,
0101
0000
0000
0002
0000
0003
0000
1000
,
0000
0010
0000
1000
0000
1000
0000
0000
,
1001
0000
0000
0002
0000
0003
0000
1000
,
0000
0000
0000
0010
0000
0100
0000
0000
,
0110
0000
0000
2000
0000
3000
0000
0002
,
0000
0003
0000
0100
0000
0100
0000
0000
,
0001
1000
0010
0100
,
0020
0000
0030
0000
0000
2000
3000
0000
,
0001
0000
1000
0000
0000
0010
0000
0100
,
0000
0010
0000
0000
1000
0000
0000
0010
,
0000
0100
0000
0000
0001
0000
0000
0010
,
0000
0002
0000
0000
0003
0000
1000
0000
,
0000
0000
0100
0000
0000
1000
0000
0010
,
0000
0200
0000
0000
0300
0000
0000
0001
,
0000
0002
0000
0000
0003
0000
0000
0000
,
1000
0010
0100
0001
,
2000
0000
3000
0010
,
0000
0100
0100
0000
,
0001
0000
0000
0000
0000
0100
0000
0000
,
0000
0010
0010
0000
,
1000
0001
0100
0010
,
1000
0001
0100
0010
,
0010
0100
0001
1000
,
0200
0000
0300
1000
0000
0000
0000
0000
,
1000
0100
0010
0020
,
0030
0100
0100
0000
,
1000
0000
0001
0000
0000
0100
0000
0001
,
0000
0010
0020
0030
,
0001
0010
0100
2000
,
3000
0010
0010
0000
,
1000
0001
0100
0010
,
2000
0000
3000
0010
0000
0100
0000
0000
,
0002
0000
0000
0000
,
0000
0000
0000
0000
,
0003
0000
0000
0000
;

//--------------- dance-single - RxSteps ----------------
#NOTES:
     dance-single:
     RxSteps:
     Medium:
     6:
     0,0,0,0,0:
0000
0000
0000
0000
,
0001
0010
0000
0001
0000
1000
0000
0100
,
0000
0100
0000
1000
0000
0010
0000
0000
,
0100
0001
0000
0010
0000
0010
0000
0001
,
0100
0001
0000
0100
0000
0100
0001
0000
,
0010
0001
0000
0000
1000
0010
0100
0001
,
2000
0000
3010
0000
0010
0100
0001
0100
,
0010
1000
0010
0000
0010
0000
0100
0000
,
0002
0003
0010
0001
,
0000
0000
1100
0000
1000
0100
1000
0001
,
0010
0001
0010
0000
0001
0010
0100
1000
,
0200
0000
0320
0000
0130
0010
0001
0000
,
0002
0000
0003
1000
0000
0000
0010
0000
,
0100
0000
0010
0100
0010
0000
0000
1001
,
0000
0000
0001
0100
0001
0000
0001
0000
,
1000
0100
0000
0000
1000
0100
0010
0001
,
0010
0100
1000
0100
2000
0000
3000
0000
,
0101
0000
0001
0100
0001
0000
0000
1010
,
0000
1000
0010
0100
0001
0000
0001
0000
,
1000
0010
0000
0000
1000
0010
0100
0001
,
0100
0010
0100
0001
1000
0100
0000
0000
,
2000
0000
3002
0000
0203
0300
0001
0100
,
0000
0010
1000
0000
2000
0000
3000
0000
,
0002
0003
0100
0010
0000
2000
3000
0010
,
0000
0010
0100
0000
0200
0000
0300
0000
,
0001
0010
0100
1000
0001
0010
0100
0010
,
0200
0320
0032
0003
,
1000
0001
0100
0010
1000
0001
0100
0010
,
2000
0000
3000
0001
0000
1000
0010
0000
,
0011
0000
0000
0001
0000
0001
0000
1000
,
0010
0100
0010
1000
0010
0100
0000
0000
,
0001
0100
0010
0100
0001
0100
0010
1000
,
0010
2000
0000
3001
0000
0010
0001
0000
,
1010
0000
0000
1000
0000
1000
0000
0001
,
0100
0002
0000
0010
0000
0010
0003
0000
,
1001
0000
0001
0100
0020
0030
2000
0000
,
3200
0000
0300
2000
0000
3000
0002
0000
,
0103
0000
0001
0010
0001
1000
0001
0000
,
1000
0001
0020
0000
0031
0000
1000
0100
,
2000
0000
3010
0000
1000
0010
0000
0200
,
0000
0000
0300
0001
0100
0010
2000
0000
,
3000
0000
0011
0000
0001
1000
0001
0010
,
0002
2003
3200
0320
,
0130
0010
0100
0000
2000
0000
3000
0000
,
0001
1000
0001
1000
0001
0100
0010
0000
,
1001
0000
0001
0100
0010
0000
0000
1001
,
0000
0000
1000
0010
1000
0000
1000
0000
,
0001
0010
0000
0000
0001
0010
0100
1000
,
0100
0010
0001
0010
0002
0000
0003
0000
,
1010
0000
1000
0010
1000
0000
0000
0101
,
0000
0001
0100
0010
1000
0000
1000
0000
,
0001
0100
0000
0000
0001
0100
0010
1000
,
0010
0100
0010
1000
0001
0010
0000
0000
,
0002
0000
2003
0000
3020
0030
1000
0010
,
0000
0100
0001
0000
0002
0000
0003
0000
,
2000
3000
0010
0100
0000
0002
0003
0100
,
0000
0100
0010
0000
0020
0000
0030
0000
,
1000
0100
0010
0001
1000
0100
0010
0100
,
0020
0230
2300
3000
,
0001
1000
0010
0100
0001
1000
0010
0100
,
0002
0000
0003
1000
0000
0001
0100
0000
,
1100
0000
0000
1000
0000
1000
0000
0001
,
0100
0010
0100
0001
0100
0010
0000
0000
,
1000
0010
0100
0010
1000
0010
0100
0001
,
0100
0002
0000
1003
0000
0100
1000
0000
,
0101
0000
0000
0001
0000
0001
0000
1000
,
0010
2000
0000
0100
0000
0100
3000
0000
,
1001
0000
1000
0010
0200
0000
0302
0000
,
0023
0000
0030
0001
0000
1000
0010
0000
,
1000
0000
0001
0010
0000
0010
0000
0001
,
0000
1000
0001
0000
0100
0010
0000
0010
,
0000
1000
0010
0000
0100
0001
0000
1000
,
0000
0001
0100
0001
0100
0010
1000
0100
,
0000
0000
1000
0100
0000
0100
0000
0010
,
0000
0001
0010
0001
0010
0001
0000
1000
,
0000
1000
0001
0100
0001
0010
0000
0000
,
0001
0010
0100
0010
0100
1000
0001
0000
,
2000
0000
3002
0000
0023
0030
0001
0010
,
0000
0100
1000
0000
2000
0000
3000
0000
,
0002
0003
0010
0100
0000
1000
0000
0100
,
0000
0100
0010
0000
0020
0000
0030
0000
,
0001
0100
0010
1000
0001
0100
0010
0100
,
0020
0230
0302
0003
,
1000
0001
0010
0100
1000
0001
0010
0100
,
2000
0000
3000
0002
0003
1000
0100
0000
,
0101
0000
0001
0000
0001
0000
1000
0010
,
0000
0010
0100
0000
0100
0000
0000
0000
,
1001
0000
1000
0001
0000
0200
0300
0001
,
0000
0010
0002
0000
2003
0000
3000
0000
,
0011
0000
0001
0000
1000
0000
0010
1000
,
0000
1000
0100
0000
0200
0000
0300
1000
,
0001
0000
0100
0010
1000
0000
1000
0000
,
0020
0000
0030
0100
0000
0001
0010
0000
,
0002
0200
0000
0000
0000
0000
0000
0000
,
0000
0000
0000
0000
,
0303
0000
0000
0000
;

//--------------- dance-single - RxSteps ----------------
#NOTES:
     dance-single:
     RxSteps:
     Hard:
     7:
     0,0,0,0,0:
0000
0000
0000
0000
,
1000
0002
0000
0100
0000
0013
0000
1000
,
0000
0200
0000
0010
0000
1300
0000
0000
,
0001
0010
0000
0100
0000
0001
0000
1000
,
0001
0000
0100
0000
0000
0000
0001
0000
0000
0000
1000
0010
0000
0000
0000
0000
,
0010
0000
0000
0100
0001
0000
0100
0000
0001
0000
1000
0000
0010
0000
1000
0000
,
0001
0000
0100
0000
0001
1000
0000
0000
0010
0100
0000
0000
0001
0000
0010
0000
,
0001
0000
1000
0000
0001
0100
0000
0000
0100
1000
0000
0001
1000
0000
0001
0000
,
0100
0000
0001
0010
0000
0000
0000
1000
0001
0000
0100
0000
0000
0001
0100
0000
,
0001
0000
0000
0000
1100
0000
0000
0000
0001
0100
0000
0000
0010
1000
0000
0000
,
0010
0000
0100
0000
0001
0100
0000
0000
0001
1000
0000
0000
0100
0000
1000
0000
,
0001
0000
0010
0000
0001
1000
0000
0000
0100
1000
0000
0000
0100
0000
1000
0000
,
0001
0100
0000
0000
0000
0000
0010
0000
1000
0000
0001
0000
0100
0000
0000
0000
,
0001
0000
1000
0100
0010
0000
0100
0101
,
0000
0000
0001
1000
0010
0100
0010
0100
,
0001
1000
0011
0000
1000
0100
0010
0010
,
0001
0010
0001
0010
0100
1000
0001
0000
,
0110
0000
1000
0001
0010
0100
0010
1010
,
0000
0001
0100
0010
1000
0010
0100
0010
,
1000
0001
0110
0000
1000
0001
0010
0001
,
0001
1000
0010
0100
0001
1000
0010
0000
,
0200
0000
0001
0000
0320
0030
1000
0001
,
0000
0020
0001
0000
0230
0000
0300
0000
,
2000
0000
0010
0001
0000
3200
0000
0010
,
0000
2300
3020
0000
0230
0000
0300
0000
,
0001
0010
0100
1000
0010
0100
0001
1000
,
0001
0100
0010
0100
0001
1000
0000
0100
,
1000
0010
0100
0010
1000
0001
0010
0100
,
0020
0000
0030
0002
0003
1000
0020
0000
,
0130
0010
1000
0001
0010
0001
0200
0310
,
0000
0101
0000
1100
0000
0012
0003
1000
,
0010
0100
0010
1000
0001
0010
0001
0100
,
1000
0010
1000
0001
0000
0110
1001
0000
,
1000
0100
1000
0001
0010
0001
0100
0010
,
0001
2000
0000
0001
0000
0200
3300
0000
,
0110
0000
0001
0010
0200
0000
1300
0000
,
0202
0000
0000
0003
0000
0000
0310
0000
0000
0000
0000
1000
0001
0000
0000
0000
,
1000
0000
0000
0010
1000
0000
0010
0000
1000
0000
0001
0000
0100
0000
0001
0000
,
1000
0000
0010
0000
1000
0001
0000
0000
0100
0010
0000
0000
1000
0000
0100
0000
,
1000
0000
0001
0000
1000
0010
0000
0000
0010
0001
0000
0000
1000
0000
0010
0000
,
0100
0000
0001
0100
0000
0000
0000
0001
1000
0000
0001
0000
1000
0000
0010
1000
,
0000
0000
0000
0000
0011
0000
0000
0000
1000
0010
0000
0000
0100
0001
0000
0000
,
0100
0000
0010
0000
1000
0010
0000
0000
1000
0001
0000
0000
0010
0001
0000
0000
,
1000
0000
0010
0000
1000
0010
0000
0000
1000
0001
0000
0000
0100
0000
0001
0000
,
1000
0000
0010
0000
0100
0000
0000
0001
0100
0000
0001
0000
0010
0000
0000
0000
,
0001
0000
0100
0010
0100
0000
0010
1010
,
0000
0000
1000
0001
0100
0010
0100
0010
,
1000
0001
1100
0000
0001
0010
0100
0100
,
1000
0100
1000
0100
0010
0001
1000
0000
,
0110
0000
0001
1000
0100
0010
0100
0101
,
0000
1000
0010
0100
0001
0100
0010
0100
,
0001
1000
0110
0000
0001
1000
0100
1000
,
1000
0001
0100
0010
1000
0001
0100
0000
,
0020
0000
1000
0000
0230
0300
0001
1000
,
0000
0200
1000
0000
0320
0000
0030
0000
,
0002
0000
0100
1000
0000
0023
0000
0100
,
0000
0032
0203
0000
0320
0000
0030
0000
,
1000
0100
0010
0001
0100
0010
1000
0001
,
1000
0010
0100
0010
1000
0002
0003
0010
,
0001
0100
0010
0100
0001
1000
0100
0010
,
0200
0000
0300
2000
3000
0001
0200
0000
,
0310
0100
0001
1000
0100
1000
0020
0130
,
0000
1010
0000
0011
0000
2100
0000
3001
,
0100
0010
0100
0001
1000
0100
1000
0010
,
0001
0100
0001
1000
0000
0110
1001
0000
,
0001
0010
0001
1000
0100
1000
0010
0100
,
1000
0002
0000
1000
0000
0020
0033
0000
,
0110
0000
1000
0100
0020
0000
0031
0000
,
2020
0000
0000
3000
0000
0000
0130
0000
0000
0000
0011
0000
1010
0000
0000
0000
,
0001
0000
0100
0001
0000
1000
0000
0100
,
0000
0010
0001
0000
1000
0100
0000
0101
,
0000
1000
0001
0010
0100
1000
0000
0110
,
0000
1000
0100
1000
0001
0010
0001
1000
,
0000
0000
0010
0100
0000
0001
0000
1000
,
0000
0010
0100
0001
1000
0100
0000
1000
,
0000
0100
0010
0001
0010
0100
0000
0000
,
1000
0010
0100
0001
0010
0001
1000
0000
,
0020
0000
1000
0000
0130
0000
1000
0200
,
0300
0010
0001
0000
1000
0000
0001
0000
,
0100
0000
0010
1000
0000
0100
0000
1000
,
0000
0001
0020
0000
0230
0000
0310
0000
,
0001
1000
0010
0100
0001
1000
0010
2000
,
0000
3001
1000
0010
0100
0001
0010
0100
,
1000
0001
0010
0100
1000
0010
0100
0010
,
1000
0001
0010
0001
0100
0001
1000
0000
,
0110
1000
0001
0100
0010
1000
0010
0100
,
0001
0100
0001
0010
0100
0010
0001
1000
,
0010
0100
0010
1000
0010
0001
0100
0010
,
0100
0001
1000
0001
0100
0001
0010
0001
,
1100
1000
0001
0010
0001
0100
0010
0100
,
1000
0001
1000
0001
0010
0001
0100
0010
,
1001
1000
0010
0100
0001
0010
0001
1000
,
0010
1000
0100
0010
0100
1000
0001
0000
,
0200
0020
0000
0000
0000
0000
0000
0000
,
0000
0000
0000
0000
,
0330
0000
0000
0000
;
