#TITLE:Love Like Mine;
#SUBTITLE:;
#ARTIST:Stela Cole;
#TITLETRANSLIT:;
#SUBTITLETRANSLIT:;
#ARTISTTRANSLIT:;
#GENRE:;
#CREDIT:RxSteps;
#MUSIC:Love Like Mine.ogg;
#BANNER:Love Like Mine.png;
#BACKGROUND:Love Like Mine-bg.png;
#CDTITLE:cdtitle.png;
#SAMPLESTART:75.531;
#SAMPLELENGTH:26.966;
#SELECTABLE:YES;
#OFFSET:2.671;
#BPMS:0.000=89.000;
#STOPS:;
#BGCHANGES:;
#FGCHANGES:;

//--------------- dance-single - RxSteps ----------------
#NOTES:
     dance-single:
     RxSteps:
     Beginner:
     3:
     0,0,0,0,0:
0000
0000
0000
0000
,
1000
0001
0100
0010
,
0010
0000
1000
0000
0001
0100
0001
0100
,
0001
1000
0010
0010
,
0100
0001
0100
0000
0010
1000
0010
1000
,
0010
0100
0001
1000
,
0010
0100
0010
0000
1000
0001
0100
0001
,
0100
0001
1000
0010
,
1000
0100
1000
0000
0001
0000
0010
0000
,
0100
0000
1000
0100
1000
0000
0001
0000
,
0100
0001
0100
0000
0010
0000
1000
0000
,
0002
0003
2000
3000
,
0001
0010
0100
1000
,
0002
0003
1000
0001
,
0001
0000
1000
0000
0020
0000
0000
0030
,
1000
0000
1001
0000
0000
0000
0001
0010
,
0001
0000
0010
0000
0100
0010
0100
0010
,
0001
0000
0011
0000
0000
0000
1000
0001
,
1000
0000
0010
0000
1000
0002
0000
0003
,
0100
0010
1000
1000
,
0010
0100
0010
0000
1000
0000
0100
0000
,
0010
0000
0001
0000
0001
0000
1000
0001
,
1000
0000
0010
0000
0100
0002
0000
0003
,
1000
0010
0010
0000
,
1000
0000
0010
0100
0010
0000
1000
0001
,
1000
0010
0100
0001
,
0001
0010
0001
0000
1000
0200
0000
0300
,
1000
0001
0100
0100
,
0001
1000
0001
1000
0001
0000
0100
0000
,
0100
0010
1000
0100
,
1000
0100
1000
0000
0001
0020
0000
0030
,
0001
0000
1001
0000
0000
0000
1000
0100
,
1000
0000
0100
0000
0010
0100
0010
0100
,
1000
0000
1100
0000
0000
0000
0001
1000
,
0001
0000
0100
0000
0001
2000
0000
3000
,
0010
0100
0001
0001
,
0100
0010
0100
0000
0001
0000
0010
0000
,
0100
0000
1000
0000
1000
0000
0001
1000
,
0001
0000
0100
0000
0010
2000
0000
3000
,
0001
0000
0100
0010
0010
0000
2000
0000
,
3000
0000
0001
0000
0100
0010
0100
0000
,
0001
0000
1000
0010
0010
0000
0200
0000
,
0300
0000
0001
0100
0100
0020
0000
0030
,
2000
3000
0002
0003
,
0100
0001
0100
0000
0010
1000
0010
0000
,
0100
0001
0002
0003
,
0100
0000
0100
0000
0010
1000
0010
0000
,
1000
0100
0010
0001
,
0010
0010
0100
0100
,
1000
0001
0001
0000
,
1000
0000
0100
0000
0010
0100
0010
0000
,
0002
0003
0100
0001
,
1000
0010
1000
0000
0001
0000
0010
0000
,
0001
0000
1001
0000
0000
0000
1000
0010
,
1000
0000
0010
0000
0100
0010
0100
0010
,
1000
0000
1010
0000
0000
0000
0001
1000
,
0001
0000
0010
0000
0001
2000
0000
3000
,
0100
0010
0001
0001
,
0010
0100
0010
0000
0001
0000
0100
0000
,
0010
0000
1000
0000
1000
0000
0001
1000
,
0001
0000
0010
0000
0100
2000
0000
3000
,
0001
0000
0100
0010
0010
0000
2000
0000
,
3000
0000
0001
0000
0100
0000
0001
0010
,
0001
0000
1000
0010
0010
0000
0200
0000
,
0300
0000
0001
0000
1000
0001
1000
0000
,
0010
0000
1000
0001
0001
0000
0200
0000
,
0300
0000
0010
0000
1000
0001
1000
0000
,
0100
0000
0010
0001
0001
0000
0200
0000
,
0300
0000
0001
0000
1000
0100
1000
0000
,
0002
0003
0000
0000
;

//--------------- dance-single - RxSteps ----------------
#NOTES:
     dance-single:
     RxSteps:
     Easy:
     5:
     0,0,0,0,0:
0000
0000
0000
0000
,
1000
0001
0100
0001
1000
0100
0010
0001
,
0010
0001
1000
0010
1000
0001
0100
0010
,
1000
0100
1000
0001
0100
0010
0100
0001
,
1000
0010
0010
1000
0001
1000
0010
0100
,
0001
0010
0010
0001
1000
0010
1000
0001
,
0100
0100
0010
1000
0001
0100
0001
1000
,
0010
0100
0100
0001
0010
0100
1000
0100
,
1000
1000
0001
0001
1000
0010
0100
0001
,
1000
0100
1000
0100
0010
0001
0010
0001
,
1000
0001
0100
0010
1000
0001
0200
0000
,
0320
0030
2000
3000
,
0001
0010
0100
1000
0001
0000
0001
0010
,
0200
0300
2000
3002
,
0103
0001
1000
0010
0100
0001
0001
0001
,
1000
0000
0110
0000
1100
0000
0001
1000
,
0010
0100
0010
1000
1000
0001
0100
0010
,
1000
0000
0011
0000
0110
0000
1000
0100
,
0010
0001
0010
0010
0001
0100
0100
0100
,
0001
1000
0010
0100
0001
1000
0001
0100
,
0001
0001
1000
0010
0200
0000
0010
0000
,
0301
0000
1100
0000
0101
0000
1000
0001
,
0010
0001
0010
0100
0100
1000
0100
0010
,
0001
0000
1000
0100
0010
0000
0010
0001
,
1000
0010
0100
0001
0100
0010
1000
0001
,
1000
0000
0010
0010
0200
0000
0301
0000
,
1000
0010
1000
0001
0100
0001
0010
0100
,
1000
0000
0001
0100
0010
0000
0010
1000
,
0001
0100
0001
1000
0010
0100
0010
0000
,
1000
0001
0100
0100
0001
1000
0100
1000
,
0010
0100
0001
0100
0001
0010
0100
1000
,
0001
0000
0110
0000
0011
0000
1000
0001
,
0100
0010
0100
0001
0001
1000
0010
0100
,
0001
0000
1100
0000
0110
0000
0001
0010
,
0100
1000
0100
0100
1000
0010
0010
0010
,
1000
0001
0100
0010
1000
0001
1000
0010
,
1000
1000
0001
0100
0020
0000
0100
0000
,
1030
0000
0011
0000
1010
0000
0001
1000
,
0100
1000
0100
0010
0010
0001
0010
0100
,
1000
0010
0100
0001
0001
1000
0020
0000
,
0130
0000
0010
0100
0001
1000
0001
1000
,
0010
0100
0001
1000
1000
0001
0020
0000
,
0130
1000
0100
0010
0010
0001
0100
0010
,
2000
3000
0002
0003
,
0100
0001
0100
0000
0010
1000
0010
0000
,
0100
0000
0001
1000
0002
0000
0003
0000
,
0100
0010
1000
0100
0010
0100
1000
0000
,
0001
1000
0100
0010
0001
1000
0100
0010
,
0001
0010
0001
1000
0010
0100
0010
0000
,
1000
0000
0001
0100
0010
0000
0000
0000
,
1000
0001
1000
0010
0100
0001
0010
0000
,
0002
0000
1000
0000
0103
0000
0001
1000
,
0010
1000
0001
1000
0010
0000
1000
0000
,
0001
0000
0110
0000
0101
0000
1000
0001
,
0010
0100
0010
0001
0001
1000
0100
0010
,
0001
0000
1010
0000
0110
0000
0001
0100
,
0010
1000
0010
0010
1000
0100
0100
0100
,
1000
0001
0010
0100
1000
0001
1000
0100
,
1000
1000
0001
0010
0200
0000
0010
0000
,
1300
0000
0101
0000
1100
0000
0001
1000
,
0010
1000
0010
0100
0100
0001
0100
0010
,
1000
0001
0100
0010
0020
0000
1000
0000
,
0130
0000
0001
0100
0001
0010
0100
1000
,
0100
1000
0001
0100
0200
0000
0010
0000
,
0301
0100
0001
1000
0010
0100
0001
0010
,
0100
0010
0001
0010
0020
0000
0100
0000
,
0031
0010
0001
1000
0001
0100
0010
0100
,
0001
1000
0001
0100
0200
0000
0010
0000
,
0301
0100
0001
1000
0100
0010
0001
0020
,
0200
0330
0000
0000
;

//--------------- dance-single - RxSteps ----------------
#NOTES:
     dance-single:
     RxSteps:
     Medium:
     8:
     0,0,0,0,0:
0000
0000
0000
0000
,
1000
0001
0100
0001
0010
0100
0010
0001
,
1000
0010
0100
0010
1000
0001
0010
0100
,
1000
0010
0100
0010
1000
0000
0001
0000
0100
0000
0010
0000
0100
0000
0001
0010
,
0100
0000
0010
0001
0100
0010
1000
0000
0001
0000
0100
0010
1000
0100
1000
0000
,
0001
0000
0010
0001
1000
0100
0010
0000
0100
0000
1000
0000
0010
0000
0100
0010
,
1000
0001
0100
0010
1000
0000
0100
0000
0010
0000
0100
1000
0100
0010
0001
0000
,
1000
0000
0001
0010
0100
0010
0001
0000
0020
0000
0100
0000
0031
0000
1000
0000
,
0001
0010
0100
1000
0100
0000
0010
0100
2000
3000
0010
0200
0300
0001
0000
0000
,
1000
0001
0100
0010
1000
0000
0010
0000
0100
0000
0001
0000
1000
0001
0010
0000
,
0100
0010
0001
0010
0100
0010
0100
1000
0010
0000
0100
0000
0001
0010
0100
1000
,
0001
0020
0000
0000
0100
0000
0000
0000
0032
0000
0000
0000
0003
1000
0001
0000
,
0100
0010
0100
0001
1000
0100
0010
0001
0010
0100
1000
0000
0001
0100
0010
1000
,
0200
0020
0000
0000
0000
0000
0300
0000
0130
0000
0000
0000
1000
0001
0100
0000
,
0010
1000
0001
1000
0010
0100
0010
1000
0100
0010
0001
0000
1000
0000
0100
0000
,
0022
0000
0033
0000
1200
0000
0010
0000
2000
0000
0300
3000
0001
0100
0010
0000
,
0010
0100
0001
0010
0100
0000
1000
0000
0020
0000
1000
0000
0230
0000
0301
0000
,
2200
0000
3300
0000
0201
0000
0010
0000
0302
0000
0003
0000
1000
0010
0100
0000
,
0100
0010
1000
0001
0020
0000
0100
0000
0031
0000
1100
0000
0110
0000
0011
0000
,
1000
0200
0300
0010
0001
0000
0010
0100
0000
1000
0010
0100
0010
1000
0000
0000
,
0001
0100
0010
0100
0001
0000
0010
0000
0200
0000
1000
0000
0320
0000
0001
0000
,
0200
0000
0330
0000
1001
0000
0110
0000
0201
0000
0000
0000
0310
0100
0001
0000
,
0010
0001
0100
0010
1000
0000
0100
0000
0010
0000
0101
0000
0110
0000
1200
0000
,
0310
0001
0010
0200
1000
0000
0320
0000
0001
0000
0100
0000
0031
0000
1000
0010
,
0100
0000
0100
0010
1000
0000
0001
0000
0010
0100
1000
0100
0010
0000
0001
0000
,
1000
0010
0100
0010
1000
0100
1000
0000
0001
0000
0100
0000
0010
0000
0100
0001
,
0010
0100
0010
0001
1000
0000
1000
0001
0010
0000
1100
0000
0110
0000
0102
0000
,
0013
0100
1000
0100
0010
0000
0001
0100
0020
0000
1000
0000
0130
0000
0001
0010
,
0100
0000
0000
0000
0000
0000
0100
0000
0000
0010
0000
0000
0001
0000
0000
0000
0000
0000
1000
0000
0000
0010
0000
0000
0100
0000
0000
0000
0000
0000
0100
0000
0000
0010
0000
0000
0000
0000
2000
0000
0000
0000
3000
0000
0000
0000
0000
0000
,
0021
0000
0130
0000
0201
0000
0310
0000
1000
0000
0001
0000
0110
0000
1000
0100
,
0010
0100
0010
0001
1000
0010
0100
0001
1000
0000
0110
0000
1001
0000
0110
0000
,
2200
0000
3300
0000
0021
0000
0100
0000
0002
0000
0030
0003
1000
0010
0100
0000
,
0100
0010
1000
0100
0010
0000
0001
0000
0200
0000
0001
0000
0320
0000
1030
0000
,
0022
0000
0033
0000
1020
0000
0100
0000
2030
0000
3000
0000
0001
0100
0010
0000
,
0010
0100
0001
1000
0200
0000
0010
0000
1300
0000
0011
0000
0110
0000
1100
0000
,
0001
0020
0030
0100
1000
0000
0100
0010
0000
0001
0100
0010
0100
0001
0000
0000
,
1000
0010
0100
0010
1000
0000
0100
0000
0020
0000
0001
0000
0230
0000
1000
0000
,
0020
0000
0330
0000
1001
0000
0110
0000
1020
0000
0000
0000
0130
0010
1000
0000
,
0100
1000
0010
0100
0001
0000
0010
0000
0100
0000
1010
0000
0110
0000
0021
0000
,
0130
0000
0000
0000
0000
0000
0000
0000
1000
0000
0000
0000
0000
0000
0000
0000
0001
0000
0000
0000
0000
0000
0000
0010
0000
0001
0000
0000
0000
0000
0000
1000
0000
0100
0000
0000
0000
0000
0000
0000
0020
0000
0000
0000
0000
0000
0000
0000
0001
0000
0000
0000
0000
0000
0000
0000
0130
0000
0000
0000
0000
0000
0000
0000
,
1000
0000
1000
0000
0010
1000
0100
0000
0100
1000
0001
0010
0100
0000
0010
0000
,
0201
0000
0000
0000
0000
0000
0000
0000
0310
0000
0000
0000
0000
0000
0000
0000
1000
0000
0000
0000
0000
0000
0000
0001
0000
0100
0000
0000
0000
0000
0000
0010
0000
1000
0000
0000
0000
0000
0000
0000
0001
0000
0000
0000
0000
0000
0000
0000
0020
0000
0000
0000
0000
0000
0000
0000
0100
0000
0000
0000
0000
0000
0000
0000
,
0032
0000
0000
0000
0000
0000
0000
0000
1003
0000
0000
0000
0000
0000
0000
0000
1000
0000
0000
0000
0000
0000
0000
0010
0000
0100
0000
0000
0000
0000
0000
0001
0000
2000
0000
0000
0000
0000
0000
0000
0010
0000
0000
0000
0000
0000
0000
0000
0100
0000
0000
0000
0000
0000
0000
0000
3001
0000
0000
0000
0000
0000
0000
0000
,
1000
0001
0100
0000
0010
1000
0010
0100
0002
0000
0000
0000
0003
0000
0000
1000
,
0001
0000
0010
0000
0001
0000
1000
0100
0010
0100
1000
0001
0100
0010
0000
0000
,
1000
0001
0100
0010
1000
0000
1000
0010
0200
0000
0000
0000
0300
0000
0001
0010
,
0100
0000
0000
0000
0000
0000
0000
0000
1000
0000
0000
0000
0000
0000
0000
0000
0010
0000
0000
0000
0000
0000
0000
0200
0000
0000
0000
0300
0000
0000
0000
0000
0001
0000
0000
0000
1000
0000
0000
0000
0010
0000
0000
0000
0100
0000
0000
0000
0001
0000
0000
0000
0010
0000
0000
0000
0000
0000
0000
0000
0000
0000
0000
0000
,
0010
0001
0100
0000
0010
1000
0001
0100
0001
0000
1000
0000
0100
0000
0010
0002
,
0010
0003
0020
0000
0100
0030
0100
1000
0100
0010
0100
1000
0001
0010
0000
0000
,
0010
0001
1000
0010
0100
0000
0100
0010
2000
0000
0000
0000
3001
0000
0100
0010
,
0100
0000
0000
0000
0000
0000
0000
0000
0000
0000
0000
0000
0000
0000
0000
0000
0000
0000
0000
0000
0000
0000
0000
0000
0001
0000
0000
0000
0000
0000
0000
0000
0000
0000
0000
0000
0000
0000
0000
0000
0000
0000
0000
0000
0000
0000
0000
0000
1000
0000
0000
0000
0000
0000
0000
0000
0000
0000
0000
0000
0000
0000
0000
0000
0000
0000
0000
0000
0000
0020
0000
0000
0000
0000
0000
0000
0000
0000
0000
0000
0000
0030
0000
0000
0000
0000
0000
0000
0000
0000
0000
0000
0000
0000
0000
0000
1000
0000
0000
0000
0000
0000
0000
0000
0000
0000
0000
0000
0010
0000
0000
0000
0000
0000
0000
0000
0000
0000
0000
0000
0100
0000
0000
0000
0000
0000
0000
0000
0000
0000
0000
0000
0001
0000
0000
0000
0000
0000
0000
0000
0000
0000
0000
0000
1000
0000
0000
0000
0000
0000
0000
0000
0000
0000
0000
0000
0000
0000
0000
0000
0020
0000
0000
0000
0000
0000
0000
0000
0000
0000
0000
0000
0000
0000
0000
0000
0000
0000
0000
0000
0000
0000
0000
0000
0000
0000
0000
0000
0000
0000
0000
0000
,
0230
0000
0000
0000
0001
0000
0010
0000
0302
0000
0000
0000
0013
0100
1000
0000
,
0100
1000
0010
0100
0001
0000
1000
0000
0002
0000
0000
0000
0200
0000
0303
0000
,
2020
0000
3030
0000
0201
0000
0010
0000
0002
0000
0300
0003
1000
0100
0010
0000
,
0010
0100
1000
0010
0100
0000
0001
0000
0020
0000
0100
0000
0230
0000
1300
0000
,
0202
0000
0303
0000
1200
0000
0010
0000
2300
0000
3000
0000
0001
0010
0100
0000
,
0100
0010
0001
1000
0020
0000
0100
0000
1030
0000
0101
0000
0110
0000
1010
0000
,
0001
0200
0300
0010
1000
0000
0010
0100
0000
0001
0010
0100
0010
0001
0000
0000
,
1000
0100
0010
0100
1000
0000
0010
0000
0200
0000
0001
0000
0320
0000
1000
0000
,
0200
0000
0330
0000
1001
0000
0110
0000
1200
0000
0000
0000
0310
0100
1000
0000
,
0010
1000
0100
0010
0001
0000
0100
0000
0010
0000
1100
0000
0110
0000
0201
0000
,
0310
0000
0000
0000
0000
0000
0000
0000
1000
0000
0000
0000
0000
0000
0000
0000
0100
0000
0000
0000
0000
0010
0000
0001
0000
0000
0000
0000
0000
0000
0000
1000
0000
0100
0000
0000
0000
0000
0000
0000
0020
0000
0000
0000
0000
0000
0000
0000
0001
0000
0000
0000
0000
0000
0000
0000
0130
0000
0000
0000
0000
0000
0000
0000
,
1000
0000
1000
0000
0010
1000
0100
0000
0010
0001
1000
0010
0100
0000
0001
0000
,
1000
0000
0000
0000
0000
0000
0000
0000
0110
0000
0000
0000
0000
0000
0000
0000
0011
0000
0000
0000
0000
0000
0000
0100
0000
1000
0000
0000
0000
0000
0000
0001
0000
0100
0000
0000
0000
0000
0000
0000
0020
0000
0000
0000
0000
0000
0000
0000
1000
0000
0000
0000
0000
0000
0000
0000
0130
0000
0000
0000
0000
0000
0000
0000
,
0001
0000
0001
0000
1000
0100
0010
0000
0010
0001
0100
0010
1000
0000
0001
0000
,
1200
0000
0000
0000
0000
0000
0000
0000
0310
0000
0000
0000
0000
0000
0000
0000
0001
0000
0000
0000
0000
0000
0000
0010
0000
0100
0000
0000
0000
0000
0000
0100
0000
1000
0000
0000
0000
0000
0000
0000
0002
0000
0000
0000
0000
0000
0000
0000
0010
0000
0000
0000
0000
0000
0000
0000
1003
0000
0000
0000
0000
0000
0000
0000
,
0001
0000
0001
0000
0010
0001
1000
0000
1000
0100
0010
0001
0010
0000
0100
0000
,
1020
0000
0000
0000
0000
0000
0000
0000
0130
0000
0000
0000
0000
0000
0000
0000
0001
0000
0000
0000
0000
0000
0000
1000
0000
0010
0000
0000
0000
0000
0000
0010
0000
2000
0000
0000
0000
0000
0000
0000
3200
0000
0000
0000
0000
0000
0000
0000
0010
0000
0000
0000
0000
0000
0000
0000
2300
0000
0000
0000
0000
0000
0000
0000
,
3001
0000
0001
0000
0100
0010
1000
0000
1000
0200
0010
0000
1000
0000
0320
0000
,
0002
0033
0000
0000
;

//--------------- dance-single - RxSteps ----------------
#NOTES:
     dance-single:
     RxSteps:
     Hard:
     9:
     0,0,0,0,0:
0000
0000
0000
0000
,
1000
0001
0100
0001
0010
0100
0010
0001
,
1000
0010
0100
0010
1000
0001
0010
0100
,
1000
0010
0100
0010
1000
0000
0001
0000
0100
0000
0010
0000
0100
0000
0001
0010
,
0100
0000
0010
0001
0100
0010
1000
0000
0001
0000
0100
0010
1000
0100
1000
0000
,
0001
0000
0010
0001
1000
0100
0010
0000
0100
0000
1000
0000
0010
0000
0100
0010
,
1000
0001
0100
0010
1000
0000
0100
0000
0010
0000
0100
1000
0100
0010
0001
0000
,
1000
0000
0001
0020
1030
0010
0001
0000
0020
0000
0100
0000
0031
0000
1000
0000
,
0001
0010
0100
1000
0100
0000
0010
0100
2000
3000
0010
0200
0300
0001
0000
0000
,
1000
0001
0200
1300
0001
0000
0010
0000
1000
0000
0001
0000
0100
0001
0010
0000
,
0100
0010
0001
0010
0100
0010
0100
1000
0010
0000
0100
0000
0001
0010
0100
1000
,
0001
0020
0000
0000
0100
0000
0000
0000
0032
0000
0000
0000
0003
1000
0001
0000
,
0100
0010
0100
0001
1000
0100
0010
0001
0010
0100
1000
0000
0001
0100
0010
1000
,
0200
0002
0000
0000
0000
0000
0303
0000
0100
0000
0000
0000
1000
0001
0100
0000
,
0010
1000
0001
1000
0010
0100
0010
1000
0100
0010
0001
0000
1000
0000
0100
0000
,
0022
0000
0033
0000
1200
0000
0001
0000
2000
0000
0300
3000
0001
0100
0010
0000
,
0010
0100
0001
0010
0100
0000
1000
0000
0020
0000
1000
0000
0230
0000
0301
0000
,
2200
0000
3300
0000
0201
0000
1000
0000
0302
0000
0003
0000
1000
0010
0100
0000
,
0100
0010
1000
0001
0020
0000
0100
0000
0031
0000
1100
0000
0110
0000
0011
0000
,
1000
0200
0300
0010
0001
0000
0010
0100
0000
1000
0010
0100
0010
1000
0000
0000
,
0001
0200
1300
0100
0001
0000
0010
0000
0200
0000
1000
0000
0320
0000
0001
0000
,
0200
0000
0330
0000
1001
0000
0110
0000
0201
0000
0000
0000
1300
0100
0001
0000
,
0010
0001
0100
0010
1000
0000
0100
0000
0010
0000
0101
0000
0110
0000
1200
0000
,
0310
0001
0010
0200
1000
0000
0320
0000
0001
0000
0100
0000
0031
0000
1000
0010
,
0100
0000
0100
0010
1000
0000
0001
0000
0010
0100
1000
0100
0010
0000
0001
0000
,
1000
0010
0100
0010
1000
0100
1000
0000
0001
0000
0200
0000
1300
0000
0100
0001
,
0010
0100
0010
0001
1000
0000
1000
0001
0010
0000
1100
0000
0110
0000
0102
0000
,
0013
0100
1000
0100
0010
0000
0001
0100
0020
0000
1000
0000
0130
0000
0001
0010
,
0100
0000
0000
0000
0000
0000
0100
0000
0000
0010
0000
0000
0001
0000
0000
0000
0000
0000
1000
0000
0000
0010
0000
0000
0100
0000
0000
0000
0000
0000
0100
0000
0000
0010
0000
0000
0000
0000
2000
0000
0000
0000
3000
0000
0000
0000
0000
0000
,
0021
0000
0130
0000
0201
0000
0310
0000
1000
0000
0001
0000
0110
0000
1000
0100
,
0010
0100
0010
0001
1000
0010
0100
0001
1000
0000
0110
0000
1001
0000
0110
0000
,
2200
0000
3300
0000
0021
0000
1000
0000
0002
0000
0030
0003
1000
0010
0100
0000
,
0100
0010
1000
0100
0010
0000
0001
0000
0200
0000
0001
0000
0320
0000
1030
0000
,
0022
0000
0033
0000
1020
0000
0001
0000
2030
0000
3000
0000
0001
0100
0010
0000
,
0010
0100
0001
1000
0200
0000
0010
0000
1300
0000
0011
0000
0110
0000
1100
0000
,
0001
0020
0030
0100
1000
0000
0100
0010
0000
0001
0100
0010
0100
0001
0000
0000
,
1000
0020
0031
0010
1000
0000
0100
0000
0020
0000
0001
0000
0230
0000
1000
0000
,
0020
0000
0330
0000
1001
0000
0110
0000
1020
0000
0000
0000
0031
0010
1000
0000
,
0100
1000
0010
0100
0001
0000
0010
0000
0100
0000
1010
0000
0110
0000
0021
0000
,
0130
0000
0000
0000
0000
0000
0000
0000
1000
0000
0000
0000
0000
0000
0000
0000
0001
0000
0000
0000
0000
0000
0000
0010
0000
0001
0000
0000
0000
0000
0000
1000
0000
0100
0000
0000
0000
0000
0000
0000
0020
0000
0000
0000
0000
0000
0000
0000
0032
0000
0000
0000
0000
0000
0000
0000
0203
0000
0000
0000
0000
0000
0000
0000
,
2300
0000
3001
0000
0010
1000
0100
0000
0100
1000
0001
0010
0100
0000
0010
0000
,
0201
0000
0000
0000
0000
0000
0000
0000
0310
0000
0000
0000
0000
0000
0000
0000
1000
0000
0000
0000
0000
0000
0000
0001
0000
0100
0000
0000
0000
0000
0000
0010
0000
1000
0000
0000
0000
0000
0000
0000
0002
0000
0000
0000
0000
0000
0000
0000
0023
0000
0000
0000
0000
0000
0000
0000
2030
0000
0000
0000
0000
0000
0000
0000
,
3002
0000
0000
0000
0000
0000
0000
0000
0203
0000
0000
0000
0000
0000
0000
0000
1300
0000
0000
0000
0000
0000
0000
0010
0000
0100
0000
0000
0000
0000
0000
0001
0000
2000
0000
0000
0000
0000
0000
0000
0010
0000
0000
0000
0000
0000
0000
0000
0100
0000
0000
0000
0000
0000
0000
0000
3001
0000
0000
0000
0000
0000
0000
0000
,
1000
0001
0100
0000
0010
1000
0010
0100
0002
0000
0000
0000
0003
0000
0000
1000
,
0200
0000
0301
0000
0100
0000
1000
0100
0010
0100
1000
0001
0100
0010
0000
0000
,
1000
0001
0100
0010
1000
0000
1000
0010
0200
0000
0000
0000
0300
0000
0001
0010
,
0100
0000
0000
0000
0000
0000
0000
0000
1000
0000
0000
0000
0000
0000
0000
0000
0010
0000
0000
0000
0000
0000
0000
0200
0000
0000
0000
0300
0000
0000
0000
0000
0001
0000
0000
0000
1000
0000
0000
0000
0010
0000
0000
0000
0100
0000
0000
0000
0001
0000
0000
0000
0010
0000
0000
0000
0000
0000
0000
0000
0000
0000
0000
0000
,
0010
0001
0100
0000
0010
1000
0001
0100
0001
0000
1000
0000
0100
0000
0010
0002
,
0010
0003
0020
0000
0100
0030
0100
1000
0100
0010
0100
1000
0001
0010
0000
0000
,
0010
0001
1000
0010
0100
0000
0100
0010
2000
0000
0000
0000
3001
0000
0100
0010
,
0100
0000
0000
0000
0000
0000
0000
0000
0000
0000
0000
0000
0000
0000
0000
0000
0000
0000
0000
0000
0000
0000
0000
0000
0001
0000
0000
0000
0000
0000
0000
0000
0000
0000
0000
0000
0000
0000
0000
0000
0000
0000
0000
0000
0000
0000
0000
0000
1000
0000
0000
0000
0000
0000
0000
0000
0000
0000
0000
0000
0000
0000
0000
0000
0000
0000
0000
0000
0000
0020
0000
0000
0000
0000
0000
0000
0000
0000
0000
0000
0000
0030
0000
0000
0000
0000
0000
0000
0000
0000
0000
0000
0000
0000
0000
0000
1000
0000
0000
0000
0000
0000
0000
0000
0000
0000
0000
0000
0010
0000
0000
0000
0000
0000
0000
0000
0000
0000
0000
0000
0100
0000
0000
0000
0000
0000
0000
0000
0000
0000
0000
0000
0001
0000
0000
0000
0000
0000
0000
0000
0000
0000
0000
0000
1000
0000
0000
0000
0000
0000
0000
0000
0000
0000
0000
0000
0000
0000
0000
0000
0020
0000
0000
0000
0000
0000
0000
0000
0000
0000
0000
0000
0000
0000
0000
0000
0000
0000
0000
0000
0000
0000
0000
0000
0000
0000
0000
0000
0000
0000
0000
0000
,
0032
0000
0000
0000
1003
0000
0100
0000
0002
0000
0000
0000
0013
0100
1000
0000
,
0100
1000
0010
0100
0001
0000
1000
0000
0020
0000
0000
0000
0002
0000
0033
0000
,
2020
0000
3030
0000
0201
0000
1000
0000
0002
0000
0300
0003
1000
0100
0010
0000
,
0010
0100
1000
0010
0100
0000
0001
0000
0020
0000
0001
0000
0230
0000
1300
0000
,
0202
0000
0303
0000
1200
0000
0001
0000
2300
0000
3000
0000
0001
0010
0100
0000
,
0100
0010
0001
1000
0020
0000
0100
0000
1030
0000
0101
0000
0110
0000
1010
0000
,
0001
0200
0300
0010
1000
0000
0010
0100
0000
0001
0010
0100
0010
0001
0000
0000
,
1000
0200
0301
0100
1000
0000
0010
0000
0200
0000
0001
0000
0320
0000
1000
0000
,
0200
0000
0330
0000
1001
0000
0110
0000
1200
0000
0000
0000
0301
0100
1000
0000
,
0010
1000
0100
0010
0001
0000
0100
0000
0010
0000
1100
0000
0110
0000
0201
0000
,
0310
0000
0000
0000
0000
0000
0000
0000
1000
0000
0000
0000
0000
0000
0000
0000
0100
0000
0000
0000
0000
0010
0000
0001
0000
0000
0000
0000
0000
0000
0000
1000
0000
0100
0000
0000
0000
0000
0000
0000
0010
0000
0000
0000
0000
0000
0000
0000
0002
0000
0000
0000
0000
0000
0000
0000
0203
0000
0000
0000
0000
0000
0000
0000
,
1300
0000
0001
0000
0010
1000
0100
0000
0010
0001
1000
0010
0100
0000
0001
0000
,
1000
0000
0000
0000
0000
0000
0000
0000
0110
0000
0000
0000
0000
0000
0000
0000
0011
0000
0000
0000
0000
0000
0000
0100
0000
1000
0000
0000
0000
0000
0000
0001
0000
0100
0000
0000
0000
0000
0000
0000
0010
0000
0000
0000
0000
0000
0000
0000
2000
0000
0000
0000
0000
0000
0000
0000
3200
0000
0000
0000
0000
0000
0000
0000
,
0301
0000
0100
0000
1000
0100
0010
0000
0010
0001
0100
0010
1000
0000
0001
0000
,
1200
0000
0000
0000
0000
0000
0000
0000
0310
0000
0000
0000
0000
0000
0000
0000
0001
0000
0000
0000
0000
0000
0000
0010
0000
0100
0000
0000
0000
0000
0000
0100
0000
1000
0000
0000
0000
0000
0000
0000
0001
0000
0000
0000
0000
0000
0000
0000
0200
0000
0000
0000
0000
0000
0000
0000
1300
0000
0000
0000
0000
0000
0000
0000
,
0100
0000
0001
0000
0010
0001
1000
0000
1000
0100
0010
0001
0010
0000
0100
0000
,
1020
0000
0000
0000
0000
0000
0000
0000
0130
0000
0000
0000
0000
0000
0000
0000
0001
0000
0000
0000
0000
0000
0000
1000
0000
0010
0000
0000
0000
0000
0000
0010
0000
2000
0000
0000
0000
0000
0000
0000
3200
0000
0000
0000
0000
0000
0000
0000
0302
0000
0000
0000
0000
0000
0000
0000
2003
0000
0000
0000
0000
0000
0000
0000
,
3010
0000
0001
0000
0100
0010
1000
0000
1000
0200
0010
0000
1000
0000
0320
0000
,
0002
0033
0000
0000
;
