#TITLE:Love & War (G-Funk Remix);
#SUBTITLE:;
#ARTIST:Yellow Claw feat. Yade Lauren;
#TITLETRANSLIT:;
#SUBTITLETRANSLIT:;
#ARTISTTRANSLIT:;
#GENRE:;
#CREDIT:RxSteps;
#MUSIC:Love & War (G-Funk Remix).ogg;
#BANNER:Love & War (G-Funk Remix).png;
#BACKGROUND:Love & War (G-Funk Remix)-bg.png;
#CDTITLE:cdtitle.png;
#SAMPLESTART:29.827;
#SAMPLELENGTH:21.935;
#SELECTABLE:YES;
#OFFSET:2.431;
#BPMS:0.000=93.000;
#STOPS:;
#BGCHANGES:;
#FGCHANGES:;

//--------------- dance-single - RxSteps ----------------
#NOTES:
     dance-single:
     RxSteps:
     Beginner:
     3:
     0,0,0,0,0:
0000
0000
0000
0000
,
1000
0001
0100
0010
,
1000
0000
0001
1000
0001
0000
0100
0000
,
0010
0100
0010
0000
1000
0000
0100
0000
,
1000
0000
0001
0100
0001
0000
0100
0000
,
0010
1000
0001
0100
,
0010
1000
0010
0000
0100
0000
0001
0000
,
0010
0001
0010
0000
0001
0000
0010
0000
,
0100
0010
0100
0000
1000
0000
0001
0000
,
0001
0000
1000
0010
1000
0000
0001
0000
,
1000
0100
0010
0001
,
0100
0001
0100
0000
0001
0000
1000
0000
,
0010
0010
0100
0100
,
0001
0000
1000
0001
0010
0000
0010
0000
,
0001
0000
1000
0100
0010
0000
0010
0000
,
0001
0010
0001
0000
1000
0000
0010
0000
,
0200
0300
0002
0003
2000
3000
0010
0000
,
0010
1000
0010
0100
0001
0100
0001
0000
,
1000
0100
1000
0100
0010
0001
0010
0000
,
0001
1000
0001
0100
0001
0100
0001
0000
,
1000
0010
1000
0010
1000
0100
0020
0030
,
0001
0000
1000
0000
0010
0100
0010
0000
,
1000
0000
0010
1000
0001
1000
0010
0000
,
0100
0010
0100
0000
0001
0000
0100
0000
,
0010
0000
1000
0000
0001
0000
0100
0001
,
0100
0000
0001
1000
0001
0000
0100
0000
,
0001
0010
0100
1000
,
0010
1000
0010
0000
1000
0000
0001
0000
,
0100
0100
0010
0010
,
1000
0000
0001
1000
0100
0000
0100
0000
,
1000
0000
0001
0010
0100
0000
0100
0000
,
1000
0100
1000
0000
0001
0000
0100
0000
,
0020
0030
2000
3000
0002
0003
0100
0000
,
0100
0001
0100
0010
1000
0010
1000
0000
,
0001
0010
0001
0010
0100
1000
0100
0000
,
1000
0001
1000
0010
1000
0010
1000
0000
,
0001
0100
0001
0100
0001
0010
0200
0300
,
1000
0100
0010
0001
,
1000
0000
0010
0100
0010
0000
0100
0000
,
0001
1000
0001
0000
0100
0000
0010
0000
,
1000
0100
1000
0000
0001
0000
0100
0000
,
0001
0010
0001
1000
,
0100
0000
0010
0001
0010
0000
0100
0000
,
1000
0001
1000
0000
0010
0000
0100
0000
,
0001
0100
0001
0100
0001
1000
0020
2000
,
0000
0000
3030
0000
;

//--------------- dance-single - RxSteps ----------------
#NOTES:
     dance-single:
     RxSteps:
     Easy:
     6:
     0,0,0,0,0:
0000
0000
0000
0000
,
1000
0100
0010
0100
1000
0001
1000
0010
,
0100
0000
0010
2000
0000
0000
3001
0000
,
0001
0010
0001
0100
0010
1000
0100
1000
,
0002
0003
0100
0020
0000
0030
1000
0001
,
1000
0000
0010
0000
0100
0010
1000
0000
,
0001
0000
0010
0001
1000
0000
0010
0000
,
0100
0010
0100
0001
0100
0010
1000
0010
,
2000
0001
0000
3010
,
0101
0000
1000
0001
0100
0000
0010
0000
,
1000
0001
1000
0010
1000
0100
1000
0000
,
0001
0010
0001
1000
0100
0000
0010
0000
,
0001
0100
0010
1000
0100
1000
0010
0100
,
0201
0300
0010
1000
0001
0000
0100
0000
,
1100
0000
0001
0100
0010
0000
1000
0000
,
0100
1000
0100
0010
0001
0000
1000
0000
,
0001
0100
0010
1000
0200
0000
0010
0300
,
1000
0001
0100
0010
1000
0010
0100
0000
,
0001
0010
0100
1000
0100
0010
0001
0000
,
1000
0010
1000
0001
0100
0020
1000
0030
,
1000
0010
0100
0001
0010
0001
1000
0000
,
0001
0000
0010
0000
0100
0010
0001
0000
,
0001
0000
0100
0010
1000
0001
1000
0000
,
0001
0010
0001
1000
0010
0100
0010
1000
,
0002
0100
0010
0103
,
1010
0000
0001
1000
0010
0000
0100
0000
,
0001
1000
0001
0100
0001
0010
0001
0000
,
1000
0100
1000
0001
0010
0000
0100
0000
,
1000
0010
0100
0001
0010
0001
0100
0010
,
1020
0030
0100
0001
1000
0000
0010
0000
,
0011
0000
1000
0010
0100
0000
0001
0000
,
0010
0001
0010
0100
1000
0000
0001
0000
,
1000
0010
0100
0001
0020
0000
0100
0030
,
0001
1000
0010
0100
0001
0100
0010
0000
,
1000
0100
0010
0001
0010
0100
1000
0000
,
0001
0100
0001
1000
0010
0200
0001
0300
,
0001
0100
0010
1000
0001
0100
0010
0000
,
1001
0000
0000
1000
0010
0100
0010
1000
,
0001
0100
0001
0100
0001
1000
0010
0000
,
1000
0001
1000
0100
0010
0001
0010
0100
,
2000
3000
0200
0300
0020
0030
0002
0003
,
1000
0001
1000
0010
0100
0001
0100
0010
,
0200
0300
0002
2000
0000
0000
3000
0003
,
1000
0010
1000
0001
0100
0010
1000
0001
,
0010
0001
0100
0010
1000
0100
2000
0002
,
0000
0000
3003
0000
;

//--------------- dance-single - RxSteps ----------------
#NOTES:
     dance-single:
     RxSteps:
     Medium:
     8:
     0,0,0,0,0:
0000
0000
0000
0000
,
0001
0100
0010
0100
0001
0010
0100
1000
,
0020
0000
0000
0030
0100
0000
0010
0000
1000
0000
0100
0000
0010
0001
0010
0001
,
0010
0001
1000
0100
1000
0001
0010
0001
,
0100
0010
1000
0000
0200
0000
0010
0000
1300
0000
0001
0000
0100
0000
0010
0000
,
1200
0300
0010
0000
0001
0000
0100
0000
0010
0000
1000
0000
0001
0000
0010
0000
,
0100
0000
1000
0100
0010
0000
0001
0000
1000
0000
0010
0000
0100
0000
0010
0000
,
1000
0000
0100
0000
0021
0030
0100
1000
0100
0000
0010
0000
0001
0000
0100
0000
,
0010
1000
0100
0000
0020
0000
0001
0000
0130
0000
1000
0000
0101
0000
0110
0000
,
1200
0300
0010
0000
0100
0000
1100
0000
0201
0300
0010
0000
1000
0000
0001
0000
,
0010
0000
0100
1000
0100
0000
0010
0001
0010
0000
1000
0100
1000
0000
0001
0000
,
0010
0000
0100
0000
0021
0030
0100
0000
1000
0000
0100
0000
0010
0000
0001
0000
,
0100
1100
0010
0101
0010
1010
0100
0011
,
1200
0300
0010
0001
0100
0000
1010
0000
0011
0000
0100
1000
0200
0000
0010
0300
,
1000
0000
0001
0010
0100
0000
0101
0000
1200
0300
0010
0100
2000
0000
0001
0000
,
3020
0000
0130
0000
1001
0000
0110
0000
1002
0003
0100
0010
1000
0000
0100
0000
,
1000
0000
0010
0000
0100
0000
0001
0000
0020
0000
0000
0000
0200
0330
0000
0000
,
1001
1100
0001
0100
0010
1000
0001
1000
,
0110
0000
0011
0000
1000
0000
0100
0000
0010
0000
0100
0000
1000
0000
0010
0100
,
0010
0000
1000
0000
0021
0030
0100
0000
1000
0000
0010
0000
0100
0000
0010
0000
,
1000
0001
1000
0000
0200
0000
0010
0000
1300
0000
0001
0000
0100
0000
0010
0000
,
1000
0100
1000
0001
1000
0010
0100
0010
,
1000
0000
0001
0100
0010
0000
0200
0000
0001
0000
0320
0000
1000
0030
0100
0000
,
0001
0000
0010
0000
1020
0030
0100
0001
0010
0000
0100
0000
1000
0000
0100
0010
,
0001
0100
0001
1000
0001
0100
0010
1000
,
0021
0030
0100
0000
0010
0000
0011
0000
1020
0030
0100
0000
0001
0000
1000
0000
,
0100
0000
0010
0001
0010
0000
0100
1000
0100
0000
0010
0001
0010
0000
1000
0000
,
0100
0000
0010
0000
1200
0300
0010
0000
0001
0000
0010
0000
0100
0000
1000
0000
,
0010
0011
0100
1010
0100
0101
0010
1100
,
0021
0030
0100
1000
0010
0000
0101
0000
1100
0000
0010
0001
0020
0000
0100
0030
,
0001
0000
1000
0100
0010
0000
1010
0000
0021
0030
0100
0010
0002
0000
1000
0000
,
0203
0000
0310
0000
1001
0000
0110
0000
2001
3000
0010
0100
0001
0000
0010
0000
,
0001
0000
0100
0000
0010
0000
1000
0000
0200
0000
0000
0000
0020
0330
0000
0000
,
1001
0011
1000
0010
0100
0010
1000
0001
,
0110
0000
1100
0000
0001
0000
0010
0000
0100
0000
0010
0000
0001
0000
0100
0010
,
0100
0000
0001
0000
1200
0300
0010
0000
0001
0000
1000
0000
0100
0000
1000
0000
,
0010
0100
0001
0000
0020
0000
0100
0000
0031
0000
1000
0000
0020
0000
0130
0000
,
2001
3000
0010
0000
0100
0000
0001
0000
0100
0000
0010
0000
1000
0000
0100
0000
,
1000
0000
0001
0000
1000
0000
0100
0000
1000
0000
0020
0000
0100
0000
0000
0030
,
0100
0000
0001
0000
1200
0300
0010
0000
0001
0000
0200
0000
0010
0300
0001
0000
,
1000
0100
0010
0000
0001
0000
0010
0000
0100
0000
1000
0000
0110
0000
0011
0000
,
1020
0030
0100
0000
0001
0000
0110
0000
2100
3000
0010
0000
0100
0000
0001
0000
,
0020
0100
0031
1000
0020
0100
1030
0001
,
0010
0000
0100
0000
1020
0030
0100
0000
0001
0000
0010
0000
0100
0000
0010
0000
,
0001
0100
0010
1000
0010
0100
0002
0020
,
0000
0000
0033
0000
;

//--------------- dance-single - RxSteps ----------------
#NOTES:
     dance-single:
     RxSteps:
     Hard:
     9:
     0,0,0,0,0:
0000
0000
0000
0000
,
0001
0100
0010
0100
0001
0010
0100
1000
,
0020
0000
0000
0000
0031
0000
0010
0000
1000
0000
0200
0300
0001
1000
0001
1000
,
0010
0000
0001
0000
0200
0300
1000
0000
0100
0000
0001
0000
0010
0000
0001
0000
,
0100
0010
1000
0000
0200
0000
0010
0000
1300
0000
0001
0000
0100
0000
0010
0000
,
1200
0300
0010
0000
0001
0000
0100
0000
0020
0030
0001
0000
1000
0000
0100
0000
,
0010
0000
1000
0100
0010
0000
0001
0000
1000
0000
0010
0000
0100
0000
0010
0000
,
1000
0000
0100
0000
0021
0030
0100
1000
0100
0000
0010
0000
0001
0000
0100
0000
,
0010
1000
0100
0000
0020
0000
0001
0000
0130
0000
1000
0000
0101
0000
0110
0000
,
1200
0300
0010
0000
0100
0000
1100
0000
0201
0300
0010
0000
1000
0000
0001
0000
,
0010
0000
0100
1000
0100
0000
0010
0001
0020
0030
1000
0001
0100
0000
1000
0000
,
0010
0000
0100
0000
0021
0030
0100
0000
1000
0000
0100
0000
0010
0000
0001
0000
,
0100
1100
0010
0101
0010
1010
0100
0011
,
1200
0300
0010
0001
0100
0000
1010
0000
0011
0000
0100
1000
0200
0000
0010
0300
,
1000
0000
0001
0010
0100
0000
0101
0000
1200
0300
0010
0100
2000
0000
0001
0000
,
3020
0000
0130
0000
1001
0000
0110
0000
1002
0003
0100
0010
1000
0000
0100
0000
,
1000
0000
0010
0000
0100
0000
0001
0000
0020
0000
2030
0000
0002
3003
0000
0000
,
0110
0000
1100
0000
0001
0000
0200
0300
1000
0000
0100
0000
0001
0000
1000
0000
,
0110
0000
0011
0000
1000
0000
0200
0300
0001
0000
0100
0000
1000
0000
0010
0100
,
0010
0000
1000
0000
0021
0030
0100
0000
1000
0000
0020
0030
0001
0000
1000
0000
,
0100
0010
1000
0000
0200
0000
0010
0000
1300
0000
0001
0000
0200
0000
1300
0000
,
0100
0010
1000
0100
1000
0010
0100
0010
,
1000
0000
0001
0100
0010
0000
0200
0000
0001
0000
0320
0000
1000
0030
0100
0000
,
0001
0000
0010
0000
1020
0030
0100
0001
0010
0000
0100
0000
1000
0000
0100
0010
,
0001
0100
0001
1000
0001
0100
0010
1000
,
0021
0030
0100
0000
0010
0000
0011
0000
1020
0030
0100
0000
0001
0000
1000
0000
,
0100
0000
0010
0001
0010
0000
0100
1000
0200
0300
0001
1000
0010
0000
0001
0000
,
0100
0000
0010
0000
1200
0300
0010
0000
0001
0000
0010
0000
0100
0000
1000
0000
,
0010
0011
0100
1010
0100
0101
0010
1100
,
0021
0030
0100
1000
0010
0000
0101
0000
1100
0000
0010
0001
0020
0000
0100
0030
,
0001
0000
1000
0100
0010
0000
1010
0000
0021
0030
0100
0010
0002
0000
1000
0000
,
0203
0000
0310
0000
1001
0000
0110
0000
2001
3000
0010
0100
0001
0000
0010
0000
,
0001
0000
0100
0000
0010
0000
1000
0000
0200
0000
0302
0000
2000
3003
0000
0000
,
0110
0000
0011
0000
1000
0000
0020
0030
0001
0000
0010
0000
1000
0000
0001
0000
,
0110
0000
1100
0000
0001
0000
0020
0030
1000
0000
0010
0000
0001
0000
0100
0010
,
0100
0000
0001
0000
1200
0300
0010
0000
0001
0000
0200
0300
1000
0000
0001
0000
,
0010
0100
0001
0000
0020
0000
0100
0000
0031
0000
1000
0000
0020
0000
0130
0000
,
2001
3000
0010
0000
0100
0000
0001
0000
0100
0000
0010
0000
1000
0000
0100
0000
,
1000
0001
1000
0100
1000
0020
0001
0000
,
0031
0000
0010
0000
1200
0300
0010
0000
0001
0000
0200
0000
0010
0300
0001
0000
,
1000
0100
0010
0000
0001
0000
0010
0000
0100
0000
1000
0000
0110
0000
0011
0000
,
1020
0030
0100
0000
0001
0000
0110
0000
2100
3000
0010
0000
0100
0000
0001
0000
,
0020
0100
0031
1000
0020
0100
1030
0001
,
0010
0000
0100
0000
1020
0030
0100
0000
0001
0000
0010
0000
0100
0000
0010
0000
,
0001
0000
0200
0300
1000
0000
0100
0000
0001
0000
0010
0000
2000
0000
0002
0000
,
0000
0000
3003
0000
;
