#TITLE:London Song;
#SUBTITLE:;
#ARTIST:Ninajirachi;
#TITLETRANSLIT:;
#SUBTITLETRANSLIT:;
#ARTISTTRANSLIT:;
#GENRE:;
#CREDIT:RxSteps;
#MUSIC:London Song.ogg;
#BANNER:London Song.png;
#BACKGROUND:London Song-bg.png;
#CDTITLE:cdtitle.png;
#SAMPLESTART:58.200;
#SAMPLELENGTH:24.375;
#SELECTABLE:YES;
#OFFSET:1.800;
#BPMS:0.000=128.000;
#STOPS:;
#BGCHANGES:;
#FGCHANGES:;

//--------------- dance-single - RxSteps ----------------
#NOTES:
     dance-single:
     RxSteps:
     Beginner:
     3:
     0,0,0,0,0:
0000
0000
0000
0000
,
1000
0000
0100
0000
0000
1000
0000
0000
,
0001
0000
0010
0000
0000
0001
0000
0000
,
1000
0000
0001
0000
0000
0100
0000
0000
,
0001
0000
0100
0000
0000
0010
0000
0000
,
1000
0000
0010
0000
0000
0100
0000
0000
,
0010
0000
1000
0000
0000
0100
0000
0000
,
1000
0000
0001
0000
0000
0010
0000
0000
,
0001
0000
1000
0000
0000
0010
0000
0000
,
0100
0000
0010
0000
0000
0100
0000
0000
,
0001
0000
1000
0000
0000
0100
0000
0000
,
1000
0000
0001
0000
0000
0010
0000
0000
,
0001
0010
0100
0000
,
2000
0000
0000
3000
0000
0000
0200
0000
0000
0300
0000
0000
0020
0000
0000
0030
,
0000
0000
0002
0000
0000
0003
0000
0000
2000
0000
0000
3000
0000
0000
0001
0000
,
0000
0000
0100
0000
0000
0010
0000
0000
,
1000
0000
0000
0010
0000
0000
0100
0000
,
0020
0000
0000
0030
0000
0000
2000
0000
0000
3000
0000
0000
0002
0000
0000
0003
,
0000
0000
0200
0000
0000
0300
0000
0000
0002
0000
0000
0003
0000
0000
2000
0000
,
0000
3000
0000
0000
0020
0000
0000
0000
0000
0000
0000
0000
0030
0000
0000
0000
,
0000
0100
0000
0000
,
1001
0000
1000
0001
,
0100
0010
0200
0300
,
0001
0100
0020
0030
,
0100
0001
1000
0010
,
0010
1000
0002
0003
,
0100
0010
2000
3000
,
0001
0010
0100
0000
,
0100
0010
0001
0001
,
1000
0010
2000
3000
,
0001
1000
0200
0300
,
1000
1000
0200
0300
,
0010
0001
2000
3000
,
0001
1000
0020
0030
,
0100
0001
0020
0030
,
0002
0000
0000
0003
,
2000
0000
3000
0000
,
0001
0100
0020
0030
,
2000
3000
0001
0100
,
0020
0000
0000
0030
,
1000
1000
1000
0000
,
0001
0001
0200
0300
,
0020
0030
1000
0001
,
0200
0000
0000
0300
,
0001
0001
0001
0000
,
1000
0100
0010
0010
,
0001
0001
2000
3000
,
0002
0000
0000
0003
,
0100
0100
0100
0000
,
0001
1000
0020
0030
,
0100
0010
0100
0001
,
2000
0000
0000
3000
,
0010
0010
0010
0000
,
2000
0000
0000
3000
0000
0000
0002
0000
0000
0003
0000
0000
0200
0000
0000
0300
,
0000
0000
0002
0000
0000
0003
0000
0000
0020
0000
0000
0030
0000
0000
0002
0000
,
0000
0003
0000
0000
1000
0000
0000
0000
0000
0000
0010
0000
0000
0000
0000
0000
,
1000
0000
0000
0001
0000
0000
0100
0000
,
0002
0000
0000
0003
0000
0000
0200
0000
0000
0300
0000
0000
0020
0000
0000
0030
,
0000
0000
2000
0000
0000
3000
0000
0000
0020
0000
0000
0030
0000
0000
2000
0000
,
0000
3000
0000
0000
0010
0000
0000
0000
0000
0000
0100
0000
0000
0000
0000
0000
,
0010
0000
0000
1000
0000
0000
0001
0000
,
0200
0000
0300
0000
,
0002
0000
0003
0000
,
2000
0000
3000
0000
,
0010
1000
0001
0100
,
0001
1000
0010
1000
,
0002
0000
0003
0000
,
0200
0000
0300
0000
,
0010
0000
0000
0000
,
1001
0000
0001
1000
,
0010
0100
0020
0030
,
1000
0010
0200
0300
,
0010
1000
0001
0100
,
0100
0001
2000
3000
,
0010
0100
0002
0003
,
1000
0100
0010
0000
,
0010
0100
1000
1000
,
0001
0100
0002
0003
,
1000
0001
0020
0030
,
0001
0001
0020
0030
,
0100
1000
0002
0003
,
1000
0100
1000
0001
,
0010
0001
1000
0010
,
0100
0001
1000
0001
,
0100
0000
0010
0000
2000
3000
0000
0000
,
1000
0010
0200
0300
,
0002
0003
1000
0010
,
0200
0000
0000
0300
,
0001
0001
0001
0000
,
1000
1000
0020
0030
,
0200
0300
0001
1000
,
0020
0000
0000
0030
,
1000
1000
1000
0000
,
0001
0010
0100
0100
,
1000
1000
0002
0003
,
2000
0000
0000
3000
,
0010
0010
0010
0000
,
1000
0001
0200
0300
,
0010
0100
0010
1000
,
0002
0000
0000
0003
,
0100
0100
0100
0000
,
0001
0010
0000
0010
,
0001
1000
0001
0000
,
0001
0100
0010
0000
,
0010
1000
0001
0100
;

//--------------- dance-single - RxSteps ----------------
#NOTES:
     dance-single:
     RxSteps:
     Easy:
     6:
     0,0,0,0,0:
0000
0000
0000
0000
,
1000
0000
0020
0100
0030
0100
0010
0000
,
1000
0000
0002
1000
0003
1000
0001
0000
,
0100
0000
0002
0010
0003
0010
0001
0000
,
1000
0000
0010
1000
0000
0001
1000
0010
,
1000
0000
0002
0010
0003
0010
0001
0000
,
1000
0000
0200
0010
0300
0010
0100
0000
,
1000
0000
0002
1000
0003
1000
0001
0000
,
0100
0000
0010
0100
0000
0001
1000
0000
,
0010
0000
0200
0010
0300
0010
0100
0000
,
0001
0000
2000
0010
3000
0010
1000
0000
,
0100
0000
0020
0001
0030
0001
0010
0000
,
0001
0010
0100
1000
,
0001
0000
0000
0100
0000
0000
0001
0000
0000
1000
0000
0000
0010
0000
0000
1000
,
0000
0000
0100
0000
0000
0010
0000
0000
0001
0000
0000
0010
0000
0000
0100
0000
,
1000
0000
0100
1000
0000
0100
1000
0000
,
0001
0000
0100
0001
0000
0100
0001
0100
,
0001
0000
0000
0000
1000
0000
0000
0010
0000
0000
0100
0000
0000
0010
0000
0000
,
1000
0000
0000
0100
0000
0000
0010
0000
0000
0001
0000
0000
1000
0000
0000
0000
,
0010
0000
0000
0100
0000
0000
0002
0000
,
0000
2000
3003
0000
,
0110
0000
1001
0000
1000
0000
0001
0100
,
0001
0000
0010
0000
0100
0000
1000
0010
,
1000
0000
0001
0000
0100
0010
0100
0000
,
0001
1000
0010
0100
,
1001
0000
0110
0000
0001
0000
0010
0001
,
0010
0000
0100
0000
1000
0000
0001
0100
,
0001
0000
1000
0000
0100
1000
0100
0000
,
0010
0000
0001
0000
1000
0200
0010
0000
,
0010
0300
0000
0000
0100
0000
0000
0000
1000
0000
0001
0000
1000
0000
0000
0000
,
0010
0000
0100
0000
0001
0010
0001
0000
,
1010
0000
0011
0000
0001
0010
0001
0000
,
1000
0000
0100
0000
0010
0001
0010
0000
,
0100
0000
1000
0000
0010
0100
0010
0000
,
1000
0000
0001
0000
0010
0001
0010
0000
,
0100
1000
0010
0100
,
0002
0003
0010
0100
,
0010
0000
0001
0000
1000
0001
1000
0000
,
0001
0000
0010
0000
0001
1000
0001
0000
,
0100
0010
1000
0100
,
0020
0000
0001
0000
0100
0030
0001
0000
,
1000
0001
1000
0000
0010
1000
0010
0000
,
1000
0000
0001
0000
0200
0000
0010
0300
,
0010
0100
0001
1000
,
0200
0000
0010
0000
1000
0300
0010
0000
,
0001
0010
0001
0000
1000
0100
1000
0000
,
0001
0100
0010
1000
,
0001
0010
0100
1000
,
0002
0000
0100
0000
1000
0003
0100
0000
,
0001
0100
0001
0100
0001
0000
1000
0100
,
1000
0000
0001
0010
0001
0010
0001
0010
,
0001
0000
2000
0000
0100
3000
0100
0000
,
2000
0000
0010
0000
0001
3000
0010
0000
,
1000
0000
0000
0010
0000
0000
0100
0000
0000
0001
0000
0000
0100
0000
0000
0010
,
0000
0000
1000
0000
0000
0010
0000
0000
0100
0000
0000
0001
0000
0000
1000
0000
,
0001
0000
0100
0001
0000
0100
0001
0000
,
1000
0000
0100
1000
0000
0100
1000
0000
,
0001
0000
0000
0100
0000
0000
0010
0000
0000
1000
0000
0000
0001
0000
0000
0100
,
0000
0000
0010
0000
0000
1000
0000
0000
0010
0000
0000
0100
0000
0000
0001
0000
,
0100
0000
0001
0100
0000
0001
0100
0000
,
0010
0000
1000
0010
0000
1000
0010
0000
,
1000
0001
0100
0001
,
1000
0100
0010
0001
,
1000
0100
1000
0001
,
0010
0100
1000
0001
,
0100
0010
0100
0001
,
2000
3000
0020
0030
,
0100
0000
0020
0100
0030
0100
0002
0000
,
2000
0000
3003
0000
,
0110
0000
1001
0000
0001
0000
1000
0010
,
1000
0000
0100
0000
0010
0000
0001
0100
,
0001
0000
1000
0000
0010
0100
0010
0000
,
1000
0001
0100
0010
,
1001
0000
0110
0000
1000
0000
0100
1000
,
0100
0000
0010
0000
0001
0000
1000
0010
,
1000
0000
0001
0000
0010
0001
0010
0000
,
0100
0000
1000
0000
0001
0020
0100
0000
,
0100
0030
0000
0000
0010
0000
0000
0000
0001
0000
1000
0000
0001
0000
0000
0000
,
0100
0000
0010
0000
1000
0100
1000
0000
,
0101
0000
1100
0000
1000
0100
1000
0000
,
0001
0000
0010
0000
0100
1000
0100
0000
,
0020
0000
0001
0030
0200
0000
1000
0300
,
0010
0000
0001
0000
0200
0000
0010
0300
,
0002
0000
1000
0003
0200
0000
0010
0300
,
0001
1000
0100
0010
,
0100
0000
1000
0000
0001
1000
0001
0000
,
1000
0000
0100
0000
1000
0001
1000
0000
,
0010
0100
0001
0010
,
0200
0000
1000
0000
0010
0300
1000
0000
,
0001
1000
0001
0000
0100
0001
0100
0000
,
0001
0000
1000
0000
0020
0000
0100
0030
,
0100
0010
1000
0001
,
0020
0000
0100
0000
0001
0030
0100
0000
,
1000
0100
1000
0000
0001
0010
0001
0000
,
1000
0010
0100
0001
,
1000
0100
0010
0001
,
2000
0000
0010
0000
0001
3000
0010
0000
,
1000
0010
1000
0010
1000
0000
0001
0010
,
0001
0000
1000
0100
1000
0100
1000
0100
,
1000
0000
0002
0000
0010
0003
0010
0000
,
0002
0000
0100
0000
1000
0003
0100
0000
,
0001
0010
0100
0010
,
0001
1000
0010
0100
,
0010
1000
0100
0010
,
0001
1000
0010
0100
;

//--------------- dance-single - RxSteps ----------------
#NOTES:
     dance-single:
     RxSteps:
     Medium:
     8:
     0,0,0,0,0:
0000
0000
0000
0000
,
0001
0000
2000
0010
3000
0010
0100
0002
,
0010
0003
0010
0100
0000
1000
0010
0100
,
0001
0000
1000
0010
0000
0100
0001
0010
,
0200
0000
0000
0300
0010
0000
0001
0000
0000
0000
1000
0000
0010
0000
0100
0000
,
0010
0000
1000
0001
0000
1000
0200
0310
,
0200
0000
0000
0300
1000
0000
0001
0000
0000
0000
0010
0000
0001
0000
0100
0000
,
0010
0000
1200
0320
0030
0001
0010
0100
,
1000
0000
0200
0010
0300
0010
0001
1000
,
0020
0000
0000
0000
0100
0030
1000
0000
0000
0000
0001
0000
0010
0000
0100
0000
,
0020
0000
0001
0130
0000
1000
0010
0100
,
0010
1000
0200
0010
0300
0010
0100
1000
,
0010
0011
0110
1100
,
0201
0300
0010
0000
1000
0000
0001
0000
0100
0000
0010
0000
1000
0000
0100
0000
,
0010
0100
1000
0001
0010
0100
0010
0001
,
0100
0000
0000
0000
1020
0030
0200
0000
0300
0000
0021
0030
0100
0000
1000
0000
,
0100
0000
0000
0000
0201
0300
0020
0000
0030
0000
1000
0000
0001
0000
0010
0000
,
0001
0000
1000
0000
0200
0000
0010
0300
1000
0000
0001
0000
0020
0000
0100
0030
,
0001
0000
1000
0000
0020
0000
0100
0030
1000
0000
0001
0000
0100
0010
0100
0000
,
0001
0000
1000
0100
0000
0000
0010
0000
0000
0001
0000
0100
0001
0000
2000
0000
,
0000
3000
0200
0000
0020
0000
0330
0000
,
1001
0000
0000
0000
0110
0000
0000
0000
2001
3000
0010
0000
0100
0000
0001
0000
,
0010
0100
0010
0001
1000
0100
1000
0001
,
0010
0000
0000
0000
1010
0000
0000
0000
0021
0030
0100
0000
1000
0000
0010
0000
,
0100
0001
0010
0100
1000
0100
0010
0000
,
0101
0000
0000
0000
0110
0000
0000
0000
0201
0300
0010
0000
1000
0000
0001
0000
,
0200
0000
0010
0300
0001
0000
0010
0000
0100
0000
1000
0000
0001
0000
0010
0000
,
0001
1000
0010
0100
0001
0100
0010
1000
,
0001
0000
0100
0000
0001
0000
0010
0000
0200
0000
1000
0000
0010
0000
0000
0300
,
0010
0001
0100
0010
1000
0001
0010
0100
,
1000
0011
0110
1100
,
0201
0000
0310
0001
1000
0010
0100
0001
,
1000
0100
0010
0001
1000
0010
0100
0001
,
1000
0100
0010
0100
1000
0001
1000
0100
,
1000
0001
0100
0010
1000
0000
0011
0000
,
0110
1000
0001
0100
,
0010
1000
0100
0010
,
0001
0100
0010
1000
0100
1000
0001
0100
,
0010
0100
0001
0010
0100
1000
0001
1000
,
0010
0100
0001
1000
0010
0100
0001
1000
,
0020
0000
0100
0030
2000
0000
0001
3000
0200
0000
0010
0300
1000
0000
0001
0000
,
1000
0100
0010
0001
0100
0010
1000
0100
,
1000
0001
0010
0100
1000
0001
0010
0001
,
1000
0010
0100
0001
1000
0010
0100
0001
,
2000
0000
0100
3000
0100
1000
0000
0001
0100
0000
0000
0000
1200
0000
0000
0300
,
0010
0100
1000
0001
0010
0001
0010
0100
,
1000
0100
1000
0010
0100
0001
1000
0100
,
1000
0001
0100
0010
0100
0001
1000
0100
,
1000
0010
0010
0100
0100
0001
0001
0010
,
0100
1100
0110
1200
,
0310
0000
0100
1000
0001
0100
0010
0100
,
0001
0010
0100
1000
0001
0100
0010
1000
,
0100
0000
0000
0000
0110
0000
0000
0000
0021
0030
0100
0000
1000
0000
0010
0000
,
0100
0000
0000
0001
0000
0000
0010
0000
0000
0200
0000
0000
1000
0000
0300
0010
,
0000
0000
0001
0000
0000
0200
0000
0000
0010
0000
0300
0001
0000
0000
0100
0000
,
0010
0000
0000
0000
1200
0300
0010
0000
0000
0000
0201
0300
0010
0000
0100
0000
,
0001
0000
0010
1200
0300
0010
0001
0100
,
0010
0000
0000
1000
0000
0000
0100
0000
0000
0020
0000
0000
0001
0000
0030
0100
,
0000
0000
1000
0000
0000
0020
0000
0000
0100
0000
0030
1000
0000
0000
0010
0000
,
0100
0000
0000
0000
0021
0030
0100
0000
0000
0000
1020
0030
0100
0000
0010
0000
,
1000
0000
0100
0021
0030
0100
1000
0020
,
0100
0030
0100
0001
0000
2000
0100
3000
,
0200
0000
0000
0300
0010
0000
0001
0000
0000
0000
0020
0000
0100
0000
0030
0000
,
0100
0000
1000
0001
0000
0100
0010
0000
,
1000
0000
0200
1000
0300
1000
0001
0000
,
0010
0000
0002
0010
0003
0010
0100
0000
,
1000
0100
0010
0001
1000
0100
0010
0001
,
2000
3000
0002
0010
0003
0010
0001
0200
,
0020
0000
0000
0330
,
1001
0000
0000
0000
0110
0000
0000
0000
1002
0003
0100
0000
0010
0000
1000
0000
,
0100
0010
0100
1000
0010
0100
0010
1000
,
0100
0000
0000
0000
0101
0000
0000
0000
1200
0300
0010
0000
0001
0000
0100
0000
,
0010
1000
0100
0010
0001
0010
0100
0000
,
1010
0000
0000
0000
0110
0000
0000
0000
1020
0030
0100
0000
0001
0000
1000
0000
,
0020
0000
0100
0030
1000
0000
0100
0000
0010
0000
0001
0000
1000
0000
0010
0000
,
1000
0001
0100
0010
1000
0010
0100
0001
,
1000
0000
0010
0000
1000
0000
0100
0000
0020
0000
0001
0000
0100
0000
0000
0030
,
0100
1000
0010
0100
0001
1000
0010
0100
,
0001
1100
0110
0011
,
1020
0000
0130
1000
0001
0100
0010
1000
,
0001
0010
0100
1000
0001
0100
0010
1000
,
0002
0010
2003
3100
0002
0013
0200
0310
,
0002
0103
2000
3010
0200
1300
0020
0031
,
0100
1000
0010
0100
0001
0010
0100
1000
,
0001
0000
0010
0000
0001
0000
1000
0000
0001
0000
0100
0000
0020
0000
0000
0030
,
1000
0010
0100
0001
0010
0001
1000
0010
,
0100
0010
1000
0100
0010
0001
1000
0001
,
0100
0010
1000
0001
0100
0010
1000
0001
,
0200
0000
0010
0300
0002
0000
1000
0003
0020
0000
0100
0030
0001
0000
1000
0000
,
0001
0010
0100
1000
0010
0100
0001
0010
,
0001
1000
0100
0010
0001
1000
0100
1000
,
0001
0100
0010
1000
0001
0100
0010
1000
,
0002
0000
0010
0003
0010
0001
0000
1000
0010
0000
0000
0000
0021
0000
0000
0030
,
0100
0010
0001
1000
0100
1000
0100
0010
,
0001
0010
0001
0100
0010
1000
0100
0010
,
0100
1000
0010
0100
0010
1000
0001
0010
,
0001
0100
0100
0010
0010
1000
1000
0100
,
0010
0011
0110
0021
,
0130
0000
0010
0001
1000
0010
0100
0010
,
1000
0001
0010
0100
1000
0010
0100
0001
,
1000
0000
0000
0000
0110
0000
0000
0000
1200
0300
0010
0000
0001
0000
0100
0000
,
0020
0000
1000
0030
0200
0000
0001
0300
,
0020
0000
0100
0030
2000
0000
0010
3000
,
0002
0000
0010
0003
0200
0000
0010
0300
,
0001
0010
0100
1000
;

//--------------- dance-single - RxSteps ----------------
#NOTES:
     dance-single:
     RxSteps:
     Hard:
     9:
     0,0,0,0,0:
0000
0000
0000
0000
,
0001
0000
2000
0010
3000
0010
0100
0002
,
0010
0003
0010
0100
0000
1000
0010
0100
,
0001
0000
0200
2000
3300
0100
0001
0010
,
0200
0000
0000
0300
0010
0000
0001
0000
0000
0000
1000
0000
0010
0000
0100
0000
,
0020
0000
0031
0010
0000
1000
0200
0310
,
0200
0000
0000
0300
0001
0000
1000
0000
0000
0000
0010
0000
0001
0000
0100
0000
,
0010
0000
1200
0320
0030
0001
0010
0100
,
1000
0000
0200
0010
0300
0010
0001
1000
,
0020
0000
0000
0000
0100
0030
1000
0000
0000
0000
0001
0000
0010
0000
0100
0000
,
0020
0000
0001
0130
0000
1000
0010
0100
,
0010
1000
0200
0010
0300
0010
0100
1000
,
0010
0011
0110
1100
,
0201
0300
0010
0000
1000
0000
0001
0000
0100
0000
0010
0000
1000
0000
0100
0000
,
0010
0100
1000
0001
0010
0100
0010
0001
,
0100
0000
0000
0000
1020
0030
0200
0000
0300
0000
0021
0030
0100
0000
1000
0000
,
0100
0000
0000
0000
0201
0300
0020
0000
0030
0000
1000
0000
0001
0000
0010
0000
,
0001
0000
1000
0000
0200
0000
0010
0300
1000
0000
0001
0000
0020
0000
0100
0030
,
0001
0000
1000
0000
0020
0000
0100
0030
1000
0000
0001
0000
0100
0010
0100
0000
,
0001
0000
1000
0100
0000
0000
0010
0000
0000
0001
0000
0100
0001
0000
2000
0000
,
0000
3000
0200
0000
0020
0000
0330
0000
,
1001
0000
0000
0000
0110
0000
0000
0000
2001
3000
0010
0000
0100
0000
0001
0000
,
0020
0030
1000
0000
0010
0000
0001
0000
0200
0300
1000
0000
0100
0000
0001
0000
,
0010
0000
0000
0000
1010
0000
0000
0000
0021
0030
0100
0000
1000
0000
0010
0000
,
0100
0000
0001
0000
0020
0030
1000
0000
0001
0000
0100
0000
1000
0000
0000
0000
,
0101
0000
0000
0000
0110
0000
0000
0000
0201
0300
0010
0000
1000
0000
0001
0000
,
0200
0000
0010
0300
0001
0000
0010
0000
0100
0000
1000
0000
0200
0300
0001
0000
,
0100
0000
1000
0000
0010
0000
0100
0000
0001
0000
0100
0000
0020
0030
0001
0000
,
1000
0000
0100
0000
0001
0000
0010
0000
0200
0000
1000
0300
0010
0001
0010
0100
,
1000
0000
0001
0000
0100
0000
0010
0000
1000
0000
0010
0000
0200
0300
1000
0000
,
0100
0011
0110
1100
,
0201
0000
0310
0001
1000
0010
0100
0001
,
1000
0000
0200
0300
0001
0000
0100
0000
1000
0000
0020
0030
0001
0000
0010
0000
,
1000
0100
0010
0100
1000
0001
1000
0100
,
1000
0001
0100
0010
1000
0000
0011
0000
,
0110
1000
0001
0100
,
0010
1000
0100
0010
,
0001
0100
0010
1000
0100
1000
0001
0100
,
0010
0100
0001
0010
0100
1000
0001
1000
,
0010
0100
0001
1000
0010
0100
0001
1000
,
0020
0000
0100
0030
2000
0000
0001
3000
0200
0000
0010
0300
1000
0000
0001
0000
,
1000
0100
0010
0001
0100
0010
1000
0100
,
1000
0001
0010
0100
1000
0001
0010
0001
,
1000
0010
0100
0001
1000
0010
0100
0001
,
2000
0000
0100
3000
0100
1000
0000
0001
0100
0000
0000
0000
1200
0000
0000
0300
,
0010
0100
1000
0001
0010
0001
0010
0100
,
1000
0000
0100
0000
1000
0000
0010
0000
0100
0000
0001
0000
0020
0030
1000
0000
,
0010
0001
0100
0010
0100
0001
1000
0100
,
1000
0010
0010
0100
0100
0001
0001
0010
,
0100
1100
0110
1200
,
0310
0000
0100
1000
0001
0100
0010
0100
,
0001
0000
0020
0030
1000
0000
0001
0000
0100
0000
1000
0000
0020
0030
0001
0000
,
1000
0000
0000
0000
0110
0000
0000
0000
0021
0030
0100
0000
1000
0000
0010
0000
,
0100
0000
0000
0001
0000
0000
0010
0000
0000
0200
0000
0000
1000
0000
0300
0010
,
0000
0000
0001
0000
0000
0200
0000
0000
0010
0000
0300
0001
0000
0000
0100
0000
,
0010
0000
0000
0000
1200
0300
0010
0000
0000
0000
0201
0300
0010
0000
0100
0000
,
0001
0000
0010
1200
0300
0010
0001
0100
,
0010
0000
0000
1000
0000
0000
0100
0000
0000
0020
0000
0000
0001
0000
0030
0100
,
0000
0000
1000
0000
0000
0020
0000
0000
0100
0000
0030
1000
0000
0000
0010
0000
,
0100
0000
0000
0000
0021
0030
0100
0000
0000
0000
1020
0030
0100
0000
0010
0000
,
1000
0000
0100
0021
0030
0100
1000
0020
,
0100
0030
0100
0001
0000
2000
0100
3000
,
0200
0000
0000
0300
0010
0000
0001
0000
0000
0000
0020
0000
0100
0000
0030
0000
,
0100
0000
1000
0001
0000
0100
0010
0000
,
1000
0000
0200
1000
0300
1000
0001
0000
,
0010
0000
0002
0010
0003
0010
0100
0000
,
1000
0000
0100
0000
0010
0000
0001
0000
0200
0300
1000
0000
0001
0000
0010
0000
,
2000
0000
3000
0000
0001
0020
0100
0000
0030
0000
0100
0010
0001
1000
0020
0000
,
0200
0000
0000
0330
,
1001
0000
0000
0000
0110
0000
0000
0000
1002
0003
0100
0000
0010
0000
1000
0000
,
0200
0300
0001
0000
0100
0000
1000
0000
0020
0030
0001
0000
0010
0000
1000
0000
,
0100
0000
0000
0000
0101
0000
0000
0000
1200
0300
0010
0000
0001
0000
0100
0000
,
0010
0000
1000
0000
0200
0300
0001
0000
1000
0000
0010
0000
0001
0000
0000
0000
,
1010
0000
0000
0000
0110
0000
0000
0000
1020
0030
0100
0000
0001
0000
1000
0000
,
0020
0000
0100
0030
1000
0000
0100
0000
0010
0000
0001
0000
0020
0030
1000
0000
,
0010
0000
0001
0000
0100
0000
0010
0000
1000
0000
0010
0000
0200
0300
1000
0000
,
0001
0000
0010
0000
1000
0000
0100
0000
0020
0000
0001
0030
0100
1000
0100
0010
,
0001
0000
1000
0000
0010
0000
0100
0000
0001
0000
0100
0000
0020
0030
0001
0000
,
0010
1100
0110
0011
,
1020
0000
0130
1000
0001
0100
0010
1000
,
0001
0000
0020
0030
1000
0000
0010
0000
0001
0000
0200
0300
1000
0000
0100
0000
,
0002
0010
2003
3100
0002
0013
0200
0310
,
0002
0103
2000
3010
0200
1300
0020
0031
,
0100
1000
0010
0100
0001
0010
0100
1000
,
0200
0300
0001
0000
0100
0000
1000
0000
0001
0000
0100
0000
0020
0000
0000
0030
,
1000
0010
0100
0001
0010
0001
1000
0010
,
0100
0010
1000
0100
0010
0001
1000
0001
,
0100
0010
1000
0001
0100
0010
1000
0001
,
0200
0000
0010
0300
0002
0000
1000
0003
0020
0000
0100
0030
0001
0000
1000
0000
,
0001
0010
0100
1000
0010
0100
0001
0010
,
0001
1000
0100
0010
0001
1000
0100
1000
,
0001
0100
0010
1000
0001
0100
0010
1000
,
0002
0000
0010
0003
0010
0001
0000
1000
0010
0000
0000
0000
0021
0000
0000
0030
,
0100
0010
0001
1000
0100
1000
0100
0010
,
0001
0000
0010
0000
0001
0000
0100
0000
0010
0000
1000
0000
0200
0300
0001
0000
,
0100
1000
0010
0100
0010
1000
0001
0010
,
0001
0100
0100
0010
0010
1000
1000
0100
,
0010
0011
0110
0021
,
0130
0000
0010
0001
1000
0010
0100
0010
,
1000
0000
0200
0300
0001
0000
1000
0000
0010
0000
0001
0000
0200
0300
1000
0000
,
0001
0000
0000
0000
0110
0000
0000
0000
1200
0300
0010
0000
0001
0000
0100
0000
,
0020
0000
1000
0030
0200
0000
0001
0300
,
0020
0000
0100
0030
2000
0000
0010
3000
,
0002
0000
0010
0003
0200
0000
0010
0300
,
2000
3002
0013
1000
;
