#TITLE:LITTLE DREAMER;
#SUBTITLE:;
#ARTIST:DeathbyRomy;
#TITLETRANSLIT:;
#SUBTITLETRANSLIT:;
#ARTISTTRANSLIT:;
#GENRE:;
#CREDIT:RxSteps;
#MUSIC:LITTLE DREAMER.ogg;
#BANNER:LITTLE DREAMER.png;
#BACKGROUND:LITTLE DREAMER-bg.png;
#CDTITLE:cdtitle.png;
#SAMPLESTART:115.852;
#SAMPLELENGTH:21.913;
#SELECTABLE:YES;
#OFFSET:-0.026;
#BPMS:0.000=115.000;
#STOPS:;
#BGCHANGES:;
#FGCHANGES:;

//--------------- dance-single - RxSteps ----------------
#NOTES:
     dance-single:
     RxSteps:
     Beginner:
     2:
     0,0,0,0,0:
0000
0000
0000
0000
,
0000
0000
0000
0000
,
1000
0000
0000
0000
,
0010
0000
0000
0000
,
1000
0000
0000
0001
,
0001
0000
0100
0000
,
0001
0000
0000
1000
,
1000
0000
0010
0000
,
0100
0000
0000
0001
,
0001
0000
1000
0000
,
0010
0000
0000
0100
,
0100
0000
0001
0000
,
1010
0000
0000
0000
,
1000
0000
0010
1000
,
0010
0000
0000
0000
,
0100
0000
0001
0100
,
0001
0000
1000
0000
,
1000
0000
0001
1000
,
0001
0000
0100
0000
,
0001
0000
0001
1000
,
0001
0000
0100
0010
,
0100
0000
0001
0000
,
1000
0000
1000
0000
,
0010
0000
1000
0010
,
1000
0000
0001
0000
,
0001
0000
0100
0100
,
0001
0000
1000
0000
,
0010
0000
1000
0000
,
0001
0100
0100
0001
,
0100
0000
0010
1000
,
0010
0000
0100
0000
,
0001
0000
1000
0000
,
0010
1000
0010
0000
,
0100
0000
0001
0001
,
1000
0000
0010
0000
,
0010
1000
0010
0000
,
1000
0000
0000
0000
,
0001
0000
0000
0100
,
0100
0000
0001
0000
,
1000
0000
0000
0010
,
0010
0000
0100
0000
,
0100
0000
0000
0001
,
0001
0000
1000
0000
,
0100
0000
0000
0100
,
0100
0000
1000
0000
,
1001
0000
0000
0000
,
0001
0000
0100
0001
,
0100
0000
0001
0000
,
0010
0000
0010
0000
,
0001
0000
1000
0000
,
0010
0000
0010
1000
,
0010
0000
0100
0000
,
0001
0000
1000
0000
,
0010
0000
0010
0000
,
1000
0000
0001
0010
,
0001
0000
1000
0000
,
0100
0000
1000
0000
,
1100
0000
0000
0000
,
1000
0000
0001
0100
,
0001
0000
0010
0000
,
0001
0000
1000
0000
,
1000
0000
0010
0100
,
0010
0000
1000
0000
,
0001
0000
0001
0010
,
0001
0000
1000
0001
,
1000
0000
0010
0000
,
0010
0000
0100
0001
,
0100
0000
0010
0000
,
1000
0000
0001
0000
,
0100
0000
0100
0000
,
0001
0000
1000
0000
,
0010
0000
0010
0000
,
0100
0000
0100
0000
,
0001
0000
1000
0000
,
1000
0000
0010
0000
,
0010
0000
0100
0000
,
0100
0000
0001
0100
,
0001
0000
1000
0000
,
0010
0000
0010
0000
,
0100
0000
0100
0000
,
0001
0000
0001
1000
,
0001
0000
1000
0000
,
0010
0000
0100
0000
,
0100
0000
0010
0000
,
1000
0000
0100
1000
,
0100
0000
0000
0000
;

//--------------- dance-single - RxSteps ----------------
#NOTES:
     dance-single:
     RxSteps:
     Easy:
     5:
     0,0,0,0,0:
0000
0000
0000
0000
,
0000
0000
0000
0000
,
1000
0000
0001
0100
0001
1000
0010
0100
,
0001
0000
0001
1000
0001
0000
0100
0001
,
0100
0100
0001
1000
,
0001
1000
0010
0100
0001
0000
0001
0000
,
1000
0000
1000
0100
1000
0000
0001
0000
,
1000
0010
0100
0001
0100
0000
0100
0001
,
0100
0000
0100
0010
1000
0000
0001
0000
,
0100
0010
0100
0010
1000
0000
0001
0000
,
0001
1000
0010
1000
0010
0100
0010
0100
,
0001
0100
0010
0100
0001
1000
0010
0100
,
0001
0000
1000
0010
1000
0000
1000
0010
,
0100
0010
0100
0010
1000
0000
1000
0000
,
0001
0100
0001
1000
0010
0000
0010
0100
,
0010
0000
1000
0001
1000
0001
1000
0001
,
0100
0000
0100
0001
1000
0010
1000
0001
,
0100
0010
0100
0010
1000
0000
1000
0000
,
0001
0010
0001
0010
0000
0000
0001
1000
,
0001
0100
0001
0100
0002
0000
0000
0000
,
0203
0000
0010
0000
,
0310
0000
0000
0000
1000
0001
1000
0010
,
1000
0000
0000
0000
1000
0000
0001
0010
,
0001
0000
1000
0100
1000
0000
0001
0100
,
0001
0000
0000
0000
0001
0100
0001
0000
,
0002
0000
1000
0000
,
0103
0000
0001
1000
0010
0100
0001
1000
,
0010
0000
0010
1000
0001
0000
0001
0000
,
0100
0000
1010
0000
1000
0010
1000
0001
,
1000
0000
0010
0000
1000
0100
1000
0100
,
1000
0000
0001
0000
0100
0010
0100
0010
,
1000
0000
1000
0001
0100
0001
0100
0001
,
0100
0000
1001
0000
1000
0100
0010
0001
,
0010
0000
0010
0000
0001
0010
0100
1000
,
0100
0000
1100
0000
1000
0001
1000
0001
,
0100
0000
0100
0001
1000
0100
0010
0001
,
0020
0000
0030
0000
,
0001
1000
0001
1000
0010
0000
0100
0000
,
0100
0000
0001
1000
0010
0100
0001
1000
,
0010
0100
0001
0000
0001
0000
0100
0000
,
0101
0000
0001
1000
0001
0100
0001
0100
,
0001
0000
1000
0010
1000
0010
0100
0000
,
0100
0000
0001
1000
0100
0010
0001
0010
,
0100
0000
0100
0000
1000
0100
0010
0001
,
0010
0000
0010
0000
0001
1000
0001
1000
,
0001
0100
0001
0100
0001
0100
0001
1000
,
0010
1000
0010
1000
0020
0000
0030
0000
,
1000
0001
1000
0001
0100
0000
0100
0001
,
1000
0010
1000
0010
0100
0010
0100
0010
,
2000
0000
3000
0000
0001
0000
1000
0100
,
0010
0100
0010
0100
1000
0000
0000
0000
,
0101
0000
0000
0000
1000
0001
0010
0001
,
0100
0001
0100
0001
2000
0000
0000
0000
,
0010
3000
1000
0001
,
0200
0000
0000
0000
0301
0100
0001
0100
,
0001
0000
1000
0000
1000
0000
0010
0100
,
0010
0000
1000
0001
2000
0000
3000
0000
,
0220
0000
0330
0000
1000
0000
0001
0100
,
0001
0000
1000
0000
0010
0100
0010
0100
,
0010
0000
1000
0000
1000
0100
0010
0001
,
0010
0000
0010
0001
1000
0000
0001
1000
,
0001
1010
1000
0001
,
0010
0000
0010
0000
0001
1000
0001
1000
,
0001
0000
0110
0000
0001
0000
0001
0100
,
0001
0000
1000
0100
1000
0000
0001
0010
,
0001
0000
0110
0000
0001
1000
0001
0010
,
0001
0000
0001
0000
1000
0010
1000
0010
,
0100
0000
0001
0100
0010
0100
0001
0100
,
0010
0000
0010
1000
0100
0000
1000
0001
,
0100
0000
0100
0001
0100
0001
0100
0000
,
0010
0000
0010
0100
0010
0100
0001
0000
,
1000
0000
1001
0000
0001
0100
0001
1000
,
0100
0000
0100
1000
0010
0000
0010
1000
,
0100
0000
1100
0000
1000
0100
0010
0001
,
0010
0000
0010
0100
1000
0000
1000
0100
,
1000
0000
0001
1000
0001
0010
0001
0010
,
0001
0000
1000
0100
1000
0000
1000
0000
,
0101
0000
0001
0100
0001
1000
0001
0100
,
0010
0000
0010
0100
0010
0000
0100
0000
,
0001
0000
1000
0001
1000
0001
1000
0001
,
0010
0000
0010
0000
0001
0010
0100
1000
,
0100
0000
1000
0100
1000
0100
1000
0000
,
0001
0000
0010
0001
0010
0001
0010
0100
,
1000
0000
1000
0010
0100
0010
0100
0010
,
1000
1000
0002
0000
,
0020
0000
0000
0033
;

//--------------- dance-single - RxSteps ----------------
#NOTES:
     dance-single:
     RxSteps:
     Medium:
     7:
     0,0,0,0,0:
0000
0000
0000
0000
,
0000
0000
0000
0000
,
1000
0000
0010
0100
0010
1000
0100
0010
,
0002
0003
0100
0010
0200
0300
0001
1000
,
0010
0000
0010
0100
0001
0000
1010
0000
,
0001
0010
0100
0010
0001
1000
0100
0010
,
0100
0000
0100
1000
0010
0000
0011
0000
,
1000
0010
0100
0001
0010
0100
0010
0001
,
0100
0000
0100
0010
1000
0000
0110
0000
,
0001
0010
0100
2000
0100
0000
0001
3000
,
1000
0010
0100
0001
0010
0100
0010
0100
,
1000
0100
0010
0100
1000
0010
0100
0010
,
1000
0001
1000
0010
1000
0100
1000
0010
,
0100
0001
0010
0001
0100
0010
0100
0010
,
1000
0001
0100
0010
1000
0100
0010
0100
,
1000
0010
0100
0001
1000
0001
1000
0001
,
0100
0010
1000
0001
1000
0010
1000
0001
,
0100
0010
0100
0010
1000
0001
1000
0001
,
0010
0100
0010
0001
0100
0010
0100
0001
,
1000
0010
1000
0000
0102
0000
0000
0000
,
0203
0000
0010
0001
,
0310
0000
1000
0000
0001
0100
0010
0100
,
0002
0003
1000
0100
2000
3000
0001
0010
,
0100
0000
0100
1000
0100
1000
0010
0100
,
0001
0000
0001
1000
0100
1000
0010
1000
,
0002
0100
1000
0010
,
0103
0000
0001
0010
0100
0010
0001
1000
,
0010
0000
0010
1000
0100
0010
0001
1000
,
0100
0000
0021
0130
1000
0001
1000
0010
,
1000
0001
0100
0010
1000
0100
1000
0100
,
1000
0010
0100
0001
1000
0100
0010
0001
,
1000
0001
0100
0001
0100
0010
1000
0010
,
1000
0000
0201
0310
1000
0100
0010
0100
,
1000
0010
0100
0010
1000
0100
0010
0001
,
1000
0000
0110
0000
0021
0130
1000
0001
,
0100
0010
0100
0001
1000
0100
0010
0001
,
0020
0000
0001
0000
0100
0030
0001
1000
,
0010
0100
0001
1000
0100
0000
0101
0000
,
1200
0310
0100
1000
0010
0100
0001
0010
,
0001
0100
0010
0100
0001
0010
0001
0000
,
1100
0000
0102
0013
0100
1000
0010
0100
,
0001
0000
1200
0310
0001
1000
0010
0100
,
0010
1000
0100
1000
0010
0100
0001
0010
,
0100
0000
1010
0000
0021
0130
0010
0001
,
0100
0010
1000
0100
0010
0010
0002
0000
,
1003
0000
0001
0000
0100
0000
0010
0000
0100
0000
0001
0000
0100
0000
0001
1000
,
0001
0100
0010
0200
0001
0000
0301
0000
,
1000
0001
0010
0100
0010
0001
1000
0100
,
0010
0100
1000
0001
0100
0001
0100
0001
,
1000
0010
0100
0010
1000
0100
1000
0001
,
0010
0001
0100
0010
2000
0000
3100
0000
,
0201
0310
0100
0010
1000
0001
0010
0100
,
0010
0001
0010
0000
2010
0000
0000
0000
,
3200
0000
1300
0001
,
0020
0000
0000
0000
0031
0010
0100
1000
,
0010
0000
0100
0010
1000
0000
1000
0100
,
0010
0000
0010
0002
0200
0000
0303
0000
,
2100
3000
0100
0010
0001
1000
0001
0100
,
0001
1000
0010
0100
0001
1000
0001
0100
,
0001
0010
0100
1000
0001
0100
0010
1000
,
0001
0010
0001
1000
0010
0100
0001
0010
,
0001
0000
1020
0130
0001
0010
0100
0010
,
0001
0100
0010
0100
0001
1000
0100
0010
,
0001
0000
0110
0000
1200
0310
0001
1000
,
0010
0100
0010
1000
0001
0010
0100
0010
,
0100
1000
0010
0100
0001
1000
0001
0010
,
0001
1000
0100
1000
0001
1000
0010
1000
,
0100
0010
0001
0100
0010
0100
0001
1000
,
0001
0100
0001
1000
0010
0100
0001
0010
,
0001
0000
1200
0310
0001
0100
0010
1000
,
0001
1000
0100
0010
0001
0010
0100
1000
,
0100
0000
0101
0000
1020
0130
0001
1000
,
0100
0010
0100
1000
0010
0100
0001
1000
,
0100
0000
0201
0310
1000
0100
0010
0100
,
1000
0000
0021
0130
1000
0100
0010
0100
,
1000
0010
0100
0001
1000
0010
0100
0010
,
1000
0001
0100
0000
2200
0000
3300
0000
,
0110
0000
0021
0130
1000
0010
0100
0010
,
1000
0001
0010
0100
1000
0010
0100
0010
,
1000
0000
0110
0000
0201
0310
1000
0001
,
0010
0100
0010
0000
2002
0000
3003
0000
,
0110
0000
1020
0130
0001
0010
0100
0010
,
0001
0000
1200
0310
0001
0010
0100
0010
,
0001
0100
0010
1000
0001
0100
0010
0100
,
0001
1000
0010
0000
0022
0000
0030
0000
,
2000
0000
0000
3003
;

//--------------- dance-single - RxSteps ----------------
#NOTES:
     dance-single:
     RxSteps:
     Hard:
     8:
     0,0,0,0,0:
0000
0000
0000
0000
,
0000
0000
0000
0000
,
1000
0000
0010
0100
0010
1000
0100
0010
,
0002
0003
0100
0010
0200
0300
0001
1000
,
0010
0000
0010
0100
0001
0020
1030
0010
,
0001
0010
0100
0010
0001
1000
0100
0010
,
0100
0000
0100
1000
0020
0031
1000
0100
,
0001
0010
0100
1000
0010
0100
0010
1000
,
0100
0000
0100
1000
0020
0031
0010
1000
,
0100
0010
0100
2000
0100
0000
0001
3000
,
1000
0010
0100
0001
0020
1030
0001
0100
,
1000
0100
0010
0100
1000
0200
0301
0100
,
1000
0010
0100
0001
1000
0100
1000
0010
,
0100
0001
0010
0001
0100
0010
0100
0010
,
1000
0001
0100
0010
1000
0200
0301
1000
,
0010
0001
0010
0001
1000
0010
0100
0010
,
1000
0100
0010
0001
0100
0010
0100
0001
,
1000
0010
0100
0010
1000
0001
1000
0001
,
0020
1030
0010
0001
0100
0010
0100
0001
,
1000
0000
0010
0000
1000
0000
0010
0000
0100
0001
0100
0001
0100
0001
0100
0001
,
0200
0000
0010
0001
,
0310
0000
1000
0000
0001
0200
1300
0100
,
0002
0003
1000
0100
2000
3000
0020
0031
,
1000
0000
0100
0001
0020
1030
0010
0001
,
0100
0000
0010
1000
0100
1000
0010
1000
,
0002
0100
1000
0010
,
0103
0000
0001
0010
0100
0010
0001
1000
,
0010
0000
0010
1000
0100
0010
0001
0200
,
1300
0000
0021
0130
1000
0001
1000
0010
,
1000
0001
0100
0010
1000
0200
0301
0100
,
1000
0010
0100
0010
1000
0100
0010
0001
,
1000
0100
1000
0001
0200
1300
0001
0010
,
1000
0000
0201
0310
1000
0100
0010
0100
,
1000
0020
0031
0010
1000
0200
0301
0100
,
1000
0000
0110
0000
0021
0130
1000
0001
,
0100
0010
0100
0001
1000
0200
0301
1000
,
0020
0000
0001
0000
0100
0030
0001
1000
,
0010
0100
0001
1000
0100
0000
0101
0000
,
1200
0310
0100
1000
0010
0100
0001
0010
,
0001
0200
1300
0100
0001
0010
0001
0000
,
1100
0000
0102
0013
0100
1000
0010
0100
,
0001
0000
1200
0310
0001
0200
1300
0001
,
0010
1000
0100
1000
0010
0100
0001
0010
,
0100
0000
1010
0000
0021
0130
0010
0001
,
0100
0000
0010
0000
1000
0000
0100
0000
0010
0001
0010
0001
0020
0000
0000
0000
,
0130
0000
1000
0000
0010
0000
0100
0000
0001
0000
0100
0000
0010
0000
1000
0001
,
1000
0001
0010
0100
1000
0010
1000
0010
,
0100
0001
0020
1030
0001
0100
1000
0100
,
0010
0100
1000
0001
0200
1300
0100
0001
,
0010
0001
0100
0010
1000
0100
1000
0001
,
0010
0001
0100
0010
1200
0000
0310
0000
,
0201
0310
0100
0010
1000
0001
0010
0100
,
0010
0000
0001
0000
0010
0000
0001
0000
0010
0100
1000
0100
0010
0001
0010
0100
,
2000
0000
0001
0001
,
0020
0000
3000
0000
1030
0020
0031
0010
,
2000
3000
0001
0010
0002
0003
0200
1300
,
0001
0000
0010
2000
0200
0000
3300
0000
,
0102
0013
0100
0010
0001
1000
0001
0100
,
0001
1000
0010
0100
0001
0020
1030
0010
,
0001
0100
0010
0100
0001
0010
0100
1000
,
0001
0010
0001
1000
0020
0031
1000
0100
,
0001
0000
1020
0130
0001
0010
0100
0010
,
0001
0200
1300
0100
0001
0020
1030
0010
,
0001
0000
0101
0000
1200
0310
0001
1000
,
0010
0100
0010
1000
0001
0020
1030
0001
,
0100
1000
0010
0100
0001
1000
0001
0010
,
0001
1000
0100
1000
0001
0200
1300
0100
,
0001
0010
0100
0010
0001
0100
0010
1000
,
0001
0100
0001
1000
0200
0301
1000
0010
,
0001
0000
1200
0310
0001
0100
0010
0100
,
0001
0020
1030
0010
0001
0200
1300
0100
,
0001
0000
0011
0000
1020
0130
0001
1000
,
0100
0010
0100
1000
0010
0100
0001
0020
,
1030
0000
0201
0310
1000
0100
0010
0100
,
1000
0000
0021
0130
1000
0200
0301
0100
,
1000
0010
0100
0001
1000
0010
0100
0010
,
1000
0000
0001
0000
0100
0000
0010
0000
1000
0010
0100
0001
1000
0010
0100
0001
,
1000
0000
0021
0130
1000
0010
0100
0010
,
1000
0200
0301
0100
1000
0020
0031
0010
,
1000
0000
1100
0000
0201
0310
1000
0001
,
0010
0000
0100
0000
0010
0000
0001
0000
0010
0001
1000
0100
0010
0001
1000
0100
,
0010
0000
1020
0130
0001
0010
0100
0010
,
0001
0000
1200
0310
0001
0020
1030
0010
,
0001
0100
0010
1000
0001
0100
0010
0100
,
0001
0000
1000
0000
0010
0000
0100
0000
0001
0100
0010
1000
0001
0100
0010
1000
,
0002
0000
0000
0003
;
