#TITLE:LFG;
#SUBTITLE:;
#ARTIST:LSDREAM and GorillaT;
#TITLETRANSLIT:;
#SUBTITLETRANSLIT:;
#ARTISTTRANSLIT:;
#GENRE:;
#CREDIT:RxSteps;
#MUSIC:LFG.ogg;
#BANNER:LFG.png;
#BACKGROUND:LFG-bg.png;
#CDTITLE:cdtitle.png;
#SAMPLESTART:32.758;
#SAMPLELENGTH:21.818;
#SELECTABLE:YES;
#OFFSET:2.697;
#BPMS:0.000=88.000;
#STOPS:;
#BGCHANGES:;
#FGCHANGES:;

//--------------- dance-single - RxSteps ----------------
#NOTES:
     dance-single:
     RxSteps:
     Beginner:
     3:
     0,0,0,0,0:
0000
0000
0000
0000
,
1000
0000
0010
0000
,
0100
0000
0001
0000
,
0010
0000
0001
0000
,
1000
0000
0001
0001
,
0100
0000
0000
0000
0000
0010
0000
0000
,
1000
0000
0000
0000
0000
0001
0000
0000
,
0100
0000
0000
0000
0000
0010
0000
0000
,
0000
0100
0001
0100
,
0010
1000
0100
0010
,
0001
0001
0010
0100
,
1000
1000
0001
1000
,
0020
0000
0030
0000
,
1001
0000
1000
0010
,
0100
0001
0010
0010
,
0001
1000
1000
0010
,
0200
0300
0002
0003
,
1000
0001
0200
0300
,
0001
1000
0000
1001
,
0000
0010
0100
0010
,
0100
0000
0001
0000
,
0110
0000
1000
0010
,
0010
0200
0000
0300
,
0001
0100
0100
0001
,
2000
3000
0200
0300
,
0010
0002
0003
0100
,
0010
2000
0000
3000
,
0001
0100
0001
0100
,
0020
0030
0100
0000
,
0110
0000
0001
0000
,
1000
1000
0010
0100
,
0001
0100
0001
0000
,
2000
3000
0020
0030
,
0100
0001
0001
1000
,
0010
2000
0000
3000
,
0001
0010
0100
1000
,
0002
0003
0200
0300
,
0010
0000
1000
0000
,
0001
0000
0100
0000
,
0010
0000
0100
0000
,
0001
0000
1000
0000
0000
0010
0000
0000
,
2002
3003
0000
0000
,
0220
0330
0000
0000
,
1000
0100
0010
0100
,
1000
0000
0000
0000
,
0022
0000
0033
0000
,
1000
0001
0001
0100
,
0001
2000
0000
3000
,
0020
0030
0200
0300
,
0001
0000
0000
0200
0000
0000
0300
0000
,
0001
1000
1000
0010
,
0100
0000
0200
0000
0000
0300
0000
0000
,
0001
0000
0100
0000
,
1001
0000
0110
0000
,
2000
0000
3000
0000
,
0001
0010
0100
1000
,
0100
0010
0100
0010
,
0002
0000
0003
0000
,
1000
0010
0010
0100
,
0200
0000
0300
0000
,
0002
0003
2000
3000
,
0020
0000
0030
0000
,
1000
0010
0010
0100
,
0002
0000
0003
0000
,
1000
0010
0100
0000
,
1001
0000
0001
1000
,
0010
0000
0000
0100
0000
0000
0100
0000
,
0001
0000
0000
1000
0000
0000
0100
0000
,
1000
0100
0010
0001
,
0100
0000
0000
0000
;

//--------------- dance-single - RxSteps ----------------
#NOTES:
     dance-single:
     RxSteps:
     Easy:
     5:
     0,0,0,0,0:
0000
0000
0000
0000
,
0001
0000
1000
0001
0000
0100
0000
0000
,
0010
0000
1000
0001
0000
0100
0001
0000
,
0010
0000
0010
0001
0000
0100
0010
0000
,
1000
0000
0001
0000
0100
0010
1000
0001
,
0010
0000
0000
0000
0001
0000
0000
1000
0000
0000
1000
0000
0000
0001
0000
0000
,
0100
0000
0000
0000
0010
0000
0000
0100
0000
0000
0100
0000
0000
0001
0000
0000
,
1000
0000
0000
0000
0010
0000
0000
0010
0000
0000
0100
0000
0000
0001
0000
0000
,
0000
0000
0100
0000
0010
0000
1000
0001
,
0100
0000
0010
0000
1000
0000
0000
0001
0000
0000
1000
0000
0000
0001
0000
0000
,
0100
0000
0001
0000
0010
0000
0000
0001
0000
0000
1000
0000
0000
0100
0000
0000
,
1000
0100
0010
0001
0010
0100
1000
0001
,
0100
0001
0100
0001
0100
0000
0000
0000
,
1100
0000
0001
1000
0001
0100
0002
0003
,
1000
0100
0010
0100
1000
0100
2000
3000
,
0001
0100
0002
0000
0013
0100
1000
0010
,
0200
0000
0302
0003
,
1100
0000
1000
0010
0100
0001
0020
0030
,
0001
0010
0100
1000
0100
1000
0001
0000
,
0100
0100
0100
0100
,
0001
0010
0001
0000
1000
0001
0100
0010
,
2000
0000
3001
1000
0010
0200
0000
0310
,
0100
0000
0002
0003
0020
0030
0001
1000
,
0010
0100
0001
0100
0002
0000
1003
0010
,
0200
0000
0020
0330
,
1001
0000
1000
0010
2000
3000
0001
0100
,
0010
0100
0002
0000
1003
0000
0100
1000
,
0100
0100
0100
0100
,
1000
0000
0010
0000
0100
0010
1000
0001
,
0100
0000
0010
0010
1000
0010
0010
0000
,
0100
0000
0001
0010
0001
0000
0001
0100
,
0010
0000
1000
0001
0100
0100
0020
0030
,
2000
3200
0320
0031
,
0110
0000
0001
0100
0010
0010
0100
0010
,
1000
0001
0020
0030
0100
0010
0100
0000
,
2000
3000
0001
1000
0001
0010
0100
0000
,
1000
1000
0020
0030
,
2002
0000
0000
3003
0000
0000
0001
0000
,
0100
0000
0000
0010
0000
1000
0000
0001
,
0100
0000
0000
0010
0000
1000
0000
0010
,
1000
0000
0001
0000
0000
0200
0300
0000
,
1001
0000
1000
0100
0010
0001
0010
0000
,
1001
0000
0001
0010
0100
1000
0100
0000
,
1000
0001
1000
0010
1000
0100
1000
0000
,
0001
0010
0100
0000
0010
0000
0001
0000
,
0220
0000
0000
0330
,
1000
0100
2000
3000
0001
0100
0002
0003
,
1000
0020
0000
0130
,
0002
0000
0020
0033
,
2200
3000
0000
0020
0000
0000
0330
0000
,
0011
0000
0001
1000
0010
0100
0001
0100
,
0020
1000
0200
0000
0000
0000
0330
0000
,
0002
0000
0003
0000
1000
0100
0010
0020
,
0002
0003
0200
0300
,
0002
0000
0033
0000
1000
0001
1000
0000
,
0201
0000
0020
0330
,
1000
0000
0100
0000
1000
0001
0100
0010
,
2000
0200
0000
0000
0000
0000
3300
0000
,
0001
1000
0010
0010
1000
0001
0100
0010
,
0200
0002
0000
0000
0000
0000
0300
0000
,
0020
0003
0200
0330
,
2002
0003
0020
3000
,
0130
0010
0100
0001
1000
0001
1000
0010
,
2000
0200
0000
0000
0000
0000
3300
0000
,
1000
1000
1000
0000
,
0011
0000
0000
0001
0010
0001
1000
0100
,
1000
0000
0000
0010
0200
0300
0010
0100
,
0001
0000
0000
1000
0002
0003
0100
0001
,
0010
0100
1000
0010
,
1001
0000
0000
0000
;

//--------------- dance-single - RxSteps ----------------
#NOTES:
     dance-single:
     RxSteps:
     Medium:
     7:
     0,0,0,0,0:
0000
0000
0000
0000
,
0001
0000
0000
0000
1000
0000
0010
0100
0000
0100
0010
0000
0000
0000
1000
0010
,
1000
0000
0000
0000
0001
0000
1000
0010
0000
0010
1000
0000
0100
0000
1000
0001
,
1000
0000
0000
0000
0010
0000
1000
0001
0000
0001
0010
0000
0001
0010
0001
0010
,
0001
0000
0000
0000
1000
0000
0000
0000
0001
0000
0100
0010
0100
0000
0001
0000
,
0102
0000
0103
0000
0001
0000
0010
0001
0000
0000
0001
1000
0010
0000
0000
0000
,
0102
0000
0103
0000
0010
0000
1000
0200
0000
0000
0310
0000
0001
0010
0000
0000
,
1200
0000
0310
0000
0001
0000
0010
0100
0000
0000
0010
0000
0001
0020
0000
0000
,
0000
0000
0230
0000
2300
0000
3001
1000
,
1200
0000
0310
0000
0100
0000
0010
0001
0000
0000
0001
0000
0010
0100
0000
0000
,
1001
0000
1000
0000
0100
0000
0020
0001
0000
0000
0130
0000
0010
0001
0000
0000
,
1000
0001
1000
0100
1000
0010
1000
0001
,
1100
0110
1001
0110
1002
0000
0013
0000
,
0012
0000
0013
0000
0100
0000
1000
0000
0010
0000
0100
0000
0010
1000
0000
0000
,
0102
0203
0310
0100
0001
0020
0200
0330
,
1002
0000
0000
0103
0000
0000
0001
0000
0000
0010
0000
0001
0010
0000
0000
0100
0000
0000
1000
0000
0000
0010
0000
0000
,
0022
0000
0003
0000
0230
0000
0310
0100
,
2001
3020
0100
1000
0100
1030
0002
0003
,
0201
0310
1000
0001
0020
0100
0031
0000
,
1100
0000
0101
0000
1100
0000
0100
1000
0100
1000
0000
0001
1000
0001
1000
0000
,
0001
0010
0100
1000
0010
0100
0200
0300
,
1002
0000
0003
0000
0010
0000
0100
0000
1000
0000
0001
1000
0001
0000
0010
0000
,
0011
0000
0000
0001
0000
0010
0002
0000
0000
0003
0000
1000
0010
0000
0000
0010
0000
0000
0100
0000
0000
0001
0000
0000
,
0200
0000
0000
0320
0000
0000
0100
0000
0000
0100
0000
0000
0230
0000
0000
0301
0000
0100
0010
0000
0000
0010
0000
0000
,
2200
0000
3000
0000
0320
0000
0032
0003
,
0102
0000
0000
0013
0000
0000
0100
0000
0000
0100
0000
0000
1000
0000
0000
0100
0000
0010
0100
0000
0000
1000
0000
0000
,
0001
0000
0000
0010
0000
0001
0020
0000
0030
0000
0000
0001
2000
0000
0000
3000
0000
0000
0101
0000
0000
1100
0000
0000
,
0110
0000
0100
0000
0001
0100
0001
0100
0001
0100
0000
0010
1000
0010
1000
0000
,
0002
0100
1000
0023
0130
1000
0010
0010
,
1010
0000
0000
0011
0000
0000
1010
0000
0000
0010
0000
0000
1000
0000
0001
1000
0000
0000
0001
0000
0000
1000
0000
0000
,
0010
0000
0000
0100
0000
0000
0010
0000
0000
0010
0000
0100
0010
0000
0000
1000
0000
0000
0010
0000
0100
0010
0000
0000
,
1000
0000
0000
0001
0000
1000
0001
0000
0000
0010
0000
0001
0010
0000
0000
0001
0000
0000
1000
0000
0000
0000
0000
0000
,
1020
0130
0021
0130
,
0201
0000
0000
0301
0000
0100
0001
0000
0000
0100
0000
0000
0010
0000
0100
0010
0000
0000
1000
0000
0000
0100
0000
0000
,
0011
0000
0000
0001
0000
0010
0001
0000
0000
1000
0000
0001
1000
0000
0000
0010
0000
0000
0100
0000
0010
0100
0000
0000
,
0101
0000
0000
0001
0000
1000
0010
0000
0000
0010
0000
0000
0100
0000
0000
0001
0000
0000
2000
0000
0000
0000
0000
0000
,
0200
3000
0020
0330
,
2002
0000
0000
3003
,
1000
0000
0000
0000
0001
0000
0100
0010
0000
0010
0100
0000
0001
0000
1000
0000
,
0100
0000
0000
0000
0000
0000
1000
0010
0000
0000
0100
0000
0001
0000
0010
0000
,
0100
0000
0010
0000
0001
0000
0000
0000
0000
0000
1000
0001
1000
0001
1000
0001
,
0100
0000
0010
0000
1000
0000
0100
0010
0000
0000
0010
0000
0100
1000
0000
0000
,
0102
0000
0103
0000
0010
0000
0100
0001
0000
0000
0010
0000
0001
0100
0000
0000
,
0001
0010
0001
1000
0001
0010
0001
0100
,
0001
1000
0020
0000
0230
0000
0301
0010
,
0200
2000
0000
0000
0000
0000
3300
0000
,
1000
0000
0000
0001
0000
0000
0100
0000
0000
0010
0000
0100
0001
0000
0000
1000
0000
0000
0010
0000
1000
0010
0000
0000
,
0101
0000
0000
0100
0000
0001
0200
0000
0000
0000
0000
0000
0000
0000
0000
0000
0000
0000
0010
0000
0000
0301
0000
0000
,
0202
0000
0003
0000
0320
0000
0130
0001
,
1200
0000
0000
0020
0000
0000
0330
0000
0100
0000
0010
0000
0100
0000
1000
0000
0001
0000
1000
0000
0010
0000
0100
0000
,
0001
0000
0000
0010
0000
0000
0100
0000
0000
1000
0000
0100
1000
0000
0000
0001
0000
0000
0100
0000
0001
0100
0000
0000
,
1100
2000
0002
0000
0000
0000
3003
1000
,
0010
0100
0010
1000
0001
0100
0001
0001
,
0110
0000
0000
2000
0000
0000
0000
3001
0000
0000
0000
0000
0110
0000
0000
0001
0000
0000
1000
0000
0001
0000
0100
0000
,
0001
0000
0000
0010
0000
0001
0010
0000
0001
0000
1000
0000
0000
0010
0000
0100
0000
0000
0100
0000
0001
0000
0100
0000
,
0020
0000
0000
0230
0000
0000
0302
0000
0000
2003
0000
3000
,
0001
0100
0000
0000
0010
0100
0000
0000
0001
0000
0010
0000
0100
0000
1000
0000
,
0001
0000
0000
1000
0000
0100
0000
1000
0000
0100
0000
1000
0000
0001
0000
0100
0000
0010
0000
1000
0000
0001
0000
0000
,
1000
0000
0000
1000
0000
0010
1000
0000
0000
0001
0000
0000
0100
0000
0001
0100
0000
0001
0100
0000
0000
0010
0000
0000
,
2200
0000
0000
0000
0000
0000
0000
0000
0000
3300
0000
0000
0000
0001
0000
1000
0000
0001
0000
1000
0000
0001
0000
0000
,
2020
0000
3000
0000
0230
0000
0310
1000
,
0202
0000
0000
0000
0000
0000
0000
0000
0303
0000
0000
0000
0000
1000
0000
0001
0000
1000
0000
0001
0000
1000
0000
0000
,
0010
0000
0000
1000
0000
0000
0001
0000
0000
0010
0000
0001
0010
0000
0000
0001
0000
0000
1000
0000
0100
0000
0000
0000
,
0202
0000
0000
0000
0000
0000
0000
0000
0000
0303
0000
0000
0000
0001
0000
1000
0000
0001
0000
1000
0000
0001
0000
0000
,
1100
0110
2002
3003
,
0220
0000
0000
0000
0000
0000
0330
0000
0000
1000
0000
0000
0010
0000
0000
0100
0000
0000
0001
0000
0000
1000
0000
0100
,
1000
0000
0000
0000
0001
0000
0100
0000
0010
0100
0010
0000
1000
0000
0001
0100
,
0001
0000
0000
0000
1000
0000
0010
0000
0100
0001
0100
0000
0010
0000
1000
0000
,
0021
0000
0000
0000
0230
0000
0000
0000
2300
0000
0000
3000
0010
0000
0100
0000
,
2002
3003
0000
0000
;

//--------------- dance-single - RxSteps ----------------
#NOTES:
     dance-single:
     RxSteps:
     Hard:
     8:
     0,0,0,0,0:
0000
0000
0000
0000
,
0001
0000
0000
0000
1000
0000
0010
0100
0000
0100
0010
0000
0000
0000
0100
0010
,
1000
0000
0000
0000
0001
0000
1000
0010
0000
0010
1000
0000
0100
0000
1000
0010
,
0100
0000
0000
0000
0010
0000
1000
0001
0000
0001
0010
0000
0001
0100
0010
1000
,
0100
0000
0000
0000
1000
0000
0000
0000
0001
0000
0100
0010
0100
0000
0001
0000
,
0021
0000
0130
0000
1000
0000
0010
0200
0000
0000
0301
0200
1300
0000
0000
0000
,
0102
0000
0103
0000
0010
0000
1000
0200
0000
0000
0310
0000
0001
0010
0000
0000
,
1200
0000
0310
0000
0001
0000
0200
1000
0000
0300
0100
0000
0001
0020
0000
0000
,
0030
0100
1000
0100
1000
0000
0001
0100
0010
0000
0100
0001
1000
0100
0010
0000
,
1200
0000
0310
0000
0001
0000
0200
1300
0000
0000
0001
0000
0010
0100
0000
0000
,
1001
0000
1000
0000
0100
0000
0020
0001
0000
0000
0130
0000
0010
0001
0000
0000
,
1010
1000
0201
0310
1100
0001
0021
0130
,
1100
0000
0110
0000
1001
0000
0110
0000
1002
0000
0000
0000
0013
0100
0000
0000
,
0012
0000
0013
0000
0100
0000
1000
0000
0010
0000
0100
0000
0001
1000
0100
0000
,
0102
0203
1300
0100
0001
0020
0100
0130
,
1002
0000
0000
0103
0000
0000
0001
0000
0000
0010
0000
0001
0010
0000
0000
0100
0000
0000
1000
0000
0000
0010
0000
0000
,
0011
0000
0000
0000
0001
0010
0100
1000
0002
0000
0000
0000
0013
0000
0100
0000
,
2001
0000
3020
0000
0100
0000
1000
0000
0100
0000
1030
0000
0001
1000
0100
0000
,
0201
0310
1000
0001
0020
2030
0002
3003
,
1100
0000
0101
0000
1100
0000
0001
0010
0001
0100
0000
0001
1000
0010
0100
0000
,
0001
0000
0010
0000
0100
0000
1000
0100
1000
0000
0001
0000
0100
0010
0100
0000
,
1001
0000
1000
0100
0010
0000
0100
0000
1000
0000
0001
0010
0100
0000
0010
0000
,
0021
0000
0000
0130
0000
0010
0002
0000
0000
0003
0000
1000
0010
0000
0000
0010
0000
0000
0100
0000
0000
0001
0000
0000
,
0200
0000
0000
2300
0000
0000
0100
0000
0000
0100
0000
0000
3200
0000
0000
0301
0000
0100
0010
0000
0000
0010
0000
0000
,
1100
0000
0000
0000
1000
0100
0010
0001
0200
0000
0000
0000
1300
0000
0100
0000
,
0102
0000
0000
0013
0000
0000
0100
0000
0000
0100
0000
0000
1000
0000
0000
0100
0000
0010
0100
0000
0000
1000
0000
0000
,
0001
0000
0000
0010
0000
0001
0200
0000
0000
0300
0000
0010
2000
0000
0000
3000
0000
0000
0110
0000
0000
1100
0000
0000
,
0101
0000
1000
0000
0001
0100
0001
1000
0010
0100
0000
0010
1000
0010
0100
0000
,
0002
0000
0000
0100
0000
0000
1000
0000
0000
0023
0000
0000
0130
0000
0000
1000
0000
0000
0010
0000
0100
0001
0000
0000
,
1010
0000
0000
0000
0000
0000
0011
0000
0000
0000
0000
0000
2010
0000
0000
0000
0000
0000
3100
0000
0000
0000
0000
0000
0010
0000
0000
0000
0001
0000
0010
0000
0000
0000
0000
0000
0100
0000
0000
0000
0000
0000
1000
0000
0000
0100
0000
0000
,
0010
0000
0000
0001
0000
0100
0010
0000
0000
0010
0000
0100
0001
0000
0000
1000
0000
0000
0010
0000
0100
0010
0000
0000
,
1000
0000
0000
0001
0000
1000
0010
0000
0000
0010
0000
0100
0010
0000
0000
0100
0000
0000
0001
0000
0000
0000
0000
0000
,
1020
0000
0000
0000
0130
0010
0000
0000
0021
0000
0000
0000
0130
0000
1000
0000
,
0201
0000
0000
0310
0000
0100
0010
0000
0000
0010
0000
0000
1000
0000
0001
1000
0000
0000
0010
0000
0000
0100
0000
0000
,
0011
0000
0000
0010
0000
0001
0100
0000
0000
0010
0000
1000
0020
0000
0000
0130
0000
0000
0001
0000
1000
0100
0000
0000
,
0101
0000
0000
0001
0000
1000
0010
0000
0000
0010
0000
0000
0100
0000
0000
0001
0000
0000
2000
0000
0000
0000
0000
0000
,
3200
0302
2000
3003
,
0220
0000
0000
0330
,
1000
0000
0000
0000
0001
0000
0100
0010
0000
0010
0100
0000
0001
0000
1000
0000
,
0100
0000
0000
0000
0000
0000
1000
0010
0000
0000
0100
0000
0001
0000
0010
0000
,
0100
0000
0010
0000
0001
0000
0000
0000
0000
0000
1000
0001
1000
0001
1000
0001
,
0100
0000
0010
0000
1000
0000
0100
0010
0000
0000
0010
0000
0100
1000
0000
0000
,
0102
0000
0203
0000
1300
0000
0100
0001
0000
0000
0010
0000
0001
0100
0000
0000
,
0001
0010
0100
1000
0001
0010
0100
1000
0001
0100
0010
1000
0001
0100
0010
1000
,
0002
0003
0100
0010
0100
0000
0001
1000
0100
0000
0010
0001
0010
0100
1000
0000
,
0021
0200
0000
0000
0000
0000
0030
0000
,
1300
0000
0000
0001
0000
0000
0100
0000
0000
0010
0000
0100
0001
0000
0000
1000
0000
0000
0010
0000
1000
0100
0000
0000
,
0101
0000
0000
0001
0000
2000
0200
0000
0000
0000
0000
0000
3000
0000
0000
0000
0000
0000
0010
0000
0000
1300
0000
0000
,
0101
0000
0000
0000
1000
0100
0010
0001
0020
0000
0000
0000
0100
0000
0031
0000
,
1200
0000
0000
0020
0000
0000
0330
0000
0100
0000
0010
0000
0100
0000
1000
0000
0001
0000
1000
0000
0010
0000
0100
0000
,
0001
0000
0000
0010
0000
0000
0100
0000
0000
1000
0000
0100
0010
0000
0000
0001
0000
0000
0100
0000
0010
0100
0000
0000
,
1100
0201
0020
0000
0000
0000
0330
1000
,
0010
0000
0100
0000
0010
0000
1000
0000
0001
0000
0100
0000
0001
1000
0001
0000
,
0110
0000
0000
2000
0000
0000
0000
3001
0000
0000
0000
0000
0110
0000
0000
0001
0000
0000
0200
0000
1300
0000
0100
0000
,
0001
0000
0000
0010
0000
0001
0010
0000
0001
0000
1000
0000
0000
0200
0000
0001
0300
0000
0100
0000
1000
0000
0100
0000
,
0020
2030
3002
0203
,
1300
0200
0000
0000
0310
0100
0000
0000
0100
1000
0010
0100
0001
0100
0010
1000
,
0100
0000
0000
1000
0000
0100
0000
1000
0000
0100
0000
1000
0000
0001
0000
0100
0000
0010
0000
1000
0000
0001
0000
0000
,
1000
0000
0000
1000
0000
0010
0100
0000
0000
0100
0000
0000
0001
0000
1000
0001
0000
1000
0001
0000
0100
0000
0010
0000
,
1100
0000
0000
1000
0000
0100
0000
0010
0000
0001
0000
0010
0000
0100
0000
1000
0000
0200
0000
0301
0000
0100
0000
0000
,
2000
0000
3000
0000
0001
0100
0010
1000
0200
0000
0000
0000
0010
0000
1300
0000
,
0011
0000
0000
1000
0000
0010
0000
0100
0000
0001
0000
0100
0000
0010
0000
1000
0000
0010
0000
0100
0010
0100
0000
0000
,
0010
0000
0000
1000
0000
0000
0001
0000
0000
0010
0000
0001
0100
0000
0000
0001
0000
0000
1000
0000
0100
0000
0000
0000
,
0201
0000
0000
0010
0300
1000
0000
0010
0000
0100
0000
0001
0000
0100
0000
0010
0000
1000
0000
0001
0000
0010
0000
0000
,
1100
0110
2002
3003
,
0220
0000
0000
0000
0000
0000
0330
0000
0000
1000
0000
0000
0010
0000
0000
0100
0000
0000
0001
0000
0000
1000
0000
0100
,
1000
0000
0000
0000
0001
0000
0100
0000
0010
0100
0010
0000
1000
0000
0001
0100
,
0001
0000
0000
0000
1000
0000
0100
0000
1000
0100
0010
0000
0100
0000
1000
0000
,
0021
0000
0000
0000
0130
0000
1000
0100
2000
0000
0000
3100
0010
0001
0010
0000
,
2020
3030
0000
0000
;
