#TITLE:Koto;
#SUBTITLE:;
#ARTIST:CloZee;
#TITLETRANSLIT:;
#SUBTITLETRANSLIT:;
#ARTISTTRANSLIT:;
#GENRE:;
#CREDIT:RxSteps;
#MUSIC:Koto.ogg;
#BANNER:Koto.png;
#BACKGROUND:Koto-bg.png;
#CDTITLE:cdtitle.png;
#SAMPLESTART:116.018;
#SAMPLELENGTH:19.200;
#SELECTABLE:YES;
#OFFSET:1.582;
#BPMS:0.000=100.000;
#STOPS:;
#BGCHANGES:;
#FGCHANGES:;

//--------------- dance-single - RxSteps ----------------
#NOTES:
     dance-single:
     RxSteps:
     Beginner:
     4:
     0,0,0,0,0:
0000
0000
0000
0000
,
0001
1000
0001
0100
,
0010
0001
1000
0001
,
1000
0010
1000
0100
,
1000
0000
0100
0000
1000
0001
1000
0001
,
1000
0010
0100
0010
,
1000
0000
0100
0000
1000
0010
1000
0010
,
1000
0001
0100
0010
,
2000
0000
0000
0000
3000
0000
1000
0010
,
1000
0000
0001
0000
2000
0000
3001
1000
,
0001
0000
0010
0000
0002
0000
0013
0001
,
1000
0000
0001
0000
0100
0010
0100
0010
,
0100
0002
0003
1001
,
0001
0000
1000
0010
1000
0010
1000
0000
,
0001
0000
0100
0000
0020
0030
1000
0010
,
1000
0100
0010
0001
,
0010
0001
0010
0100
,
2000
3000
0000
0110
,
0000
0000
1000
0000
0020
0030
1000
0010
,
1000
0001
0010
0100
,
1000
0100
1000
0010
,
0200
0300
0000
1001
,
1000
0000
0001
0000
0200
0300
0001
0100
,
0001
1000
0010
0100
,
0001
1000
0010
0010
,
0200
0000
0000
0002
0000
0000
0303
0000
,
0001
0000
1000
0000
0010
2000
3000
0000
,
0001
1000
0001
1000
0001
0000
0100
0001
,
0100
0000
0010
1000
0010
0000
1000
0000
,
0002
0000
0000
0020
0000
0000
0033
0000
,
0001
0000
1000
0000
0010
0100
0010
0000
,
0100
0000
0001
0000
1000
0000
0010
1000
,
0010
0000
0100
0010
0100
0000
0001
0100
,
0002
0000
0003
0000
,
2000
0000
3000
0000
,
2020
0000
3030
0000
,
0002
0000
0000
0003
,
1000
0001
0000
1000
0000
0010
0000
0010
,
0000
1000
0000
1000
0000
0001
0000
0001
,
0100
0001
0000
0001
0000
1000
0000
1000
,
0000
0010
0000
0010
0000
0100
0000
0100
,
0001
0100
0001
0100
,
0002
0003
1000
0010
,
0010
0000
0100
0000
0100
0001
0100
0001
,
0100
0000
0010
0000
1000
0010
1000
0010
,
1000
0000
0001
0000
0100
0001
0000
0000
,
1000
0000
1000
0000
0001
0100
0001
0100
,
0002
0000
0003
0000
,
1000
0100
0010
0001
,
0011
0001
0010
0001
,
1000
0010
0010
1000
,
0001
0100
0010
1000
,
0001
1000
0001
0000
0100
0000
0010
0000
,
2002
0000
3003
0001
,
1000
0010
0010
0100
,
0001
0100
0010
0100
,
0001
1000
0010
1000
,
2020
0000
3030
1000
,
0001
0100
0100
0010
,
1000
0010
0100
0001
,
0100
0010
0100
0001
,
0202
0000
0303
0001
,
0100
0010
0010
1000
,
0001
0010
0100
0010
,
0001
0000
0000
0001
0010
0000
0000
0000
,
0001
0000
0000
1000
0001
0000
0100
0000
,
0010
0000
0010
1000
0010
0000
1000
0000
,
0001
0100
0010
0100
,
0001
1000
0010
0010
,
2000
0000
0000
3000
0000
0000
0001
0000
,
0100
0000
0000
0001
0100
0000
0010
0000
,
1000
0001
0100
0010
,
1000
0001
1000
0001
,
0200
0000
0300
0002
,
0000
0000
0000
0000
,
0000
0000
0003
0000
,
1000
0000
0000
0000
0001
0100
0001
0000
,
0100
0010
1000
0001
,
0001
0000
1000
0000
0010
0100
0010
0000
,
1000
0001
0010
0100
,
0010
0000
0001
0000
1000
0000
0001
1000
,
0002
0000
0003
0100
,
0001
0000
1000
0000
0010
0100
0010
0100
,
0010
1000
0001
0100
,
0010
1000
0100
1000
,
0020
0000
0030
1000
,
0001
0000
0001
0000
1000
0001
1000
0001
,
1000
0010
0100
0001
,
1000
0100
0010
0100
,
2000
0000
3000
0001
,
1000
0000
1000
0000
0010
1000
0010
1000
,
0010
0100
0010
1000
,
0001
0100
0010
1000
,
0001
1000
0001
0010
,
0100
0001
1000
0001
,
1000
0100
1000
0010
,
1000
0000
0010
0000
1000
0001
1000
0001
,
1000
0100
0010
0100
,
1000
0000
0010
0000
1000
0100
1000
0100
,
1000
0001
0010
0100
,
2000
0000
3000
0000
0010
1000
0010
0000
,
0200
0000
0000
0000
,
0000
0000
0000
0000
,
0300
0000
0000
0000
;

//--------------- dance-single - RxSteps ----------------
#NOTES:
     dance-single:
     RxSteps:
     Easy:
     6:
     0,0,0,0,0:
0000
0000
0000
0000
,
1000
0001
0100
0100
0001
0010
0100
1000
,
0010
0100
0001
1000
0001
0010
0001
1000
,
0001
0100
0010
0010
1000
0010
0100
0001
,
1000
0001
0100
0001
0010
0001
0001
0010
,
0001
1000
0010
0010
0100
0001
0010
0100
,
1000
0001
1000
0001
1000
0010
0010
0100
,
0001
1000
0100
0100
0010
0001
0010
0100
,
2000
0000
0000
0000
3001
0000
1000
0010
,
0100
0001
0010
0100
2000
0000
3001
1000
,
0010
0100
0001
1000
0200
0000
0310
0001
,
1000
0010
0100
0001
0010
0100
0100
1000
,
0001
0100
0010
0100
0001
0000
1100
0000
,
0001
0100
0010
1000
1000
0010
0100
0001
,
1000
0010
0100
0010
2000
3000
1000
0001
,
1000
0100
0010
0001
0010
0100
1000
0100
,
0010
0100
1000
0010
0100
0001
0010
0200
,
2000
0000
3300
0110
,
0001
0010
0001
1000
0200
0300
1000
0010
,
0100
0010
1000
0001
0100
0010
0100
0001
,
0100
0001
0010
0100
0010
0100
1000
0002
,
0200
0000
0303
0110
,
1000
0001
0001
0100
0020
0030
0010
1000
,
0100
1000
0010
0100
0001
0010
0001
1000
,
0010
0100
0010
1000
0100
1000
0010
0200
,
0002
0303
0000
1200
0000
1000
1300
0000
,
0001
0100
0010
0010
1000
0200
0000
1300
,
0100
0010
0010
0001
0200
0300
0010
1000
,
0002
0003
1000
0010
0200
0000
0301
0000
,
1100
0000
0000
1001
0000
0001
0001
0000
,
0100
0001
0010
0010
0002
1000
0000
1003
,
0001
0100
0100
0001
0200
0300
0010
1000
,
0200
0300
0010
0001
0020
0030
0100
2000
,
0002
0000
0000
3000
,
0200
0000
0000
0303
,
2020
0000
0000
0030
,
0002
0000
0000
3003
,
1000
0010
0000
0010
0000
0100
0000
0100
,
0001
0010
0000
0010
0000
0001
0000
0001
,
1000
0100
0000
0100
0000
0010
0000
0010
,
0001
1000
0000
1000
0000
0010
0000
0010
,
0100
0001
0100
0001
0100
0001
0100
0001
,
1000
0010
0100
0010
1000
0100
0100
1000
,
0100
1000
0001
0001
0100
0002
0000
0003
,
0001
1000
1000
0010
0100
0020
0000
0030
,
1000
0010
0200
0300
0001
2000
3000
0010
,
0100
0010
1000
0010
0100
0001
0001
0100
,
0002
0023
0230
2300
,
3001
1000
0010
1000
0100
1000
0001
0000
,
0011
0000
0001
1000
0000
0010
0010
0100
,
0001
1000
0010
1000
0001
0010
0100
1000
,
0100
0010
0001
0010
0100
1000
0010
0100
,
0002
0023
0230
1300
,
1001
0000
0001
0100
0000
0100
0001
1000
,
0001
0010
0100
0010
0001
1000
0010
0100
,
0001
0100
0010
1000
0001
1000
0010
0100
,
0002
2003
3020
0130
,
1100
0000
1000
0001
0000
0001
0100
0010
,
1000
0001
0100
0010
0100
0001
1000
0001
,
1000
0100
0010
0001
0100
0010
1000
0001
,
0200
0320
2030
3001
,
1010
0000
0001
0100
0000
0010
0100
0010
,
0100
0001
1000
0100
1000
0001
0100
0010
,
1000
0010
0100
0001
0010
0100
1000
0100
,
0010
0000
0000
0010
0000
0000
0001
0000
0010
0000
0000
0200
0000
0300
0000
0000
,
1000
0000
0000
0100
0000
0000
1000
0000
1000
0000
0000
0000
0002
0000
0003
0000
,
0100
0000
0000
0010
0000
0000
1000
0000
1000
0000
0000
0000
0020
0000
0030
0000
,
0100
0001
0010
0100
1000
0100
0020
0000
,
0031
0010
0100
1000
0100
1000
0020
0030
,
2000
0000
3000
0010
0100
0000
0001
0000
,
1000
0000
0000
0001
0000
0000
0100
0000
0100
0000
0000
0000
0010
0000
0000
0000
,
1000
0001
0100
0010
1000
0001
0200
0300
,
0001
0100
0010
1000
0010
0100
0020
0030
,
2000
0000
3000
0002
0000
0003
0200
0000
,
0000
0000
0000
0000
,
0000
0000
0000
0300
,
0001
0000
0000
0001
0000
0000
1000
0000
0100
0000
1000
0000
0010
0000
0000
0000
,
0100
0010
1000
0010
0100
0001
2000
3000
,
0001
0100
0100
0001
0100
0010
0020
0030
,
1000
0100
0010
0001
0010
0100
2000
3000
,
0001
0100
0010
1000
0002
0003
0100
0100
,
0002
0000
0000
0203
0000
0000
0320
0030
,
1000
0000
0000
0001
0000
0000
0100
0000
0100
0000
0010
0000
1000
0000
0010
0000
,
1000
0001
0100
0010
1000
0001
0200
0300
,
0001
0010
0100
1000
0200
0000
1300
2000
,
0200
0000
3300
0011
,
0001
0100
0001
0010
0001
0010
0010
0001
,
1000
0010
0100
0001
1000
0010
0200
0300
,
0001
1000
0010
0100
0020
0030
1000
2000
,
0002
0000
3003
0110
,
1000
0001
0100
0100
0001
1000
1000
0010
,
1000
0100
0010
0001
0010
0100
1000
0100
,
1000
0010
0100
0001
0020
0030
0001
0001
,
1000
0010
1000
0001
1000
0100
0010
0001
,
0100
0010
1000
0001
1000
0100
1000
0001
,
1000
0010
0100
0100
0001
0100
0010
1000
,
0001
1000
0010
1000
0100
1000
1000
0100
,
2000
0000
0000
0020
0000
0000
0030
3000
,
0001
1000
0001
1000
0001
0100
0010
0100
,
0001
0010
0100
1000
0100
1000
0100
0010
,
0001
1000
0100
0010
0001
0010
0010
0002
,
0200
0000
0000
0000
,
0000
0000
0000
0000
,
0303
0000
0000
0000
;

//--------------- dance-single - RxSteps ----------------
#NOTES:
     dance-single:
     RxSteps:
     Medium:
     8:
     0,0,0,0,0:
0000
0000
0000
0000
,
1000
0000
0100
1000
0000
0000
0010
0000
0000
0010
0000
0000
0100
0000
0000
0001
0000
0000
0010
0000
0000
0010
0000
0000
,
0001
1000
0001
0010
0100
0010
0001
0010
,
0100
0000
1000
0010
0000
0000
0100
0000
0000
0100
0000
0000
0001
0000
0000
0010
0000
0000
0001
0000
0000
0100
0000
0000
,
0010
0100
0001
0010
0200
1000
0010
1300
,
0001
0000
0100
0010
0000
0000
1000
0000
0000
0100
0000
0000
0010
0000
0000
0001
0000
0000
1000
0000
0000
0100
0000
0000
,
1000
0010
0100
0001
0020
0100
0001
0130
,
1000
0000
0100
0010
0000
0000
0001
0000
0000
0001
0000
0000
1000
0000
0000
0010
0000
0000
0100
0000
0000
0010
0000
0000
,
2000
0100
0001
3100
0021
0000
0130
1000
,
0101
0110
1200
0310
0012
0000
1000
0103
,
0001
0010
0100
0010
0002
0000
0100
1003
,
0001
1000
0100
0010
0200
1000
0010
1300
,
0001
1000
0010
0100
0001
0100
2020
3000
,
0130
0000
0001
0000
0010
0000
0100
0010
0100
0000
1000
0000
0001
0000
0100
0000
,
1100
0101
0021
0000
0130
1000
1000
0001
,
1000
0100
0000
0001
0010
0000
0010
0001
0000
1000
0001
0000
0100
0000
0100
0000
,
1000
0010
0000
0100
0020
0000
0100
0030
0100
0010
0000
1000
0001
0000
0020
0000
,
0230
0010
0310
0001
0020
0030
1020
0130
,
0101
0000
0110
0000
1200
0000
0310
0000
0100
0000
2000
0000
0010
3000
0010
0000
,
0100
0001
0000
0010
0100
0000
1000
0010
0000
0100
0001
0000
1000
0000
1000
0000
,
0001
0100
0000
0100
0001
0000
0001
0000
1000
0100
0000
1000
0010
0000
0010
0000
,
1000
0010
0100
0002
0020
0033
0110
1001
,
1200
0320
0001
0130
1000
0020
0100
1030
,
0001
0100
0000
0001
1000
0000
0010
1000
0000
1000
0010
0000
0100
0020
0000
0000
,
1030
0100
0010
0001
1000
0100
0010
0001
,
2002
3000
0103
0220
0030
0001
0301
0000
,
1000
0000
0001
0000
0010
0000
0001
0000
0100
0000
0010
0100
0010
0000
1000
0000
,
0001
0100
0010
1000
0002
0000
0010
0100
,
2003
0000
0010
0100
3010
0000
0110
0000
,
2001
3010
0001
0012
0000
1000
1003
0001
,
0001
1000
0010
0100
0002
1000
0103
1000
,
0110
1001
1010
0021
0230
0000
1000
0310
,
2000
0000
0000
0000
0100
0000
0001
0000
3020
0000
0000
0000
0100
0030
2000
0000
,
0002
0000
0000
3000
,
0200
0000
0000
0303
,
2200
0000
0000
0300
,
0020
0000
0000
3030
,
0011
1000
0010
1000
0001
1000
0010
1000
,
0001
0010
0100
1000
0100
0010
0100
1000
,
0102
0103
0010
0100
0001
0010
0100
1000
,
0001
0010
0100
0010
0001
0010
0100
0010
,
0002
1000
0203
0010
0302
0010
2003
0100
,
3001
0200
0010
0310
1000
0001
0010
0100
,
1000
0000
0010
0100
0010
0000
1000
0000
0010
0000
0100
0000
0010
0000
0010
0000
,
1000
0100
0010
0010
0001
2000
0010
3001
,
1000
0000
0100
0000
0010
0001
0010
0000
0001
0000
0100
0010
0100
0000
0020
0000
,
1000
0030
2000
0000
0001
0000
3001
0000
0100
0000
0001
0000
1000
0000
0100
0000
,
1000
0100
1000
0000
0001
0100
0001
0000
1000
0001
1000
0000
0020
0000
0000
0000
,
0200
0030
0000
0000
0001
0000
0000
0000
0310
0000
0000
0000
1000
0000
0100
0000
,
0101
0000
0000
1000
0100
0000
0110
0000
0000
0000
1001
0000
0110
0000
1000
0000
,
0100
0020
0100
0130
1000
0010
0100
0001
,
0010
0100
1000
0001
0100
0010
1000
0100
,
0010
0010
0001
0001
0100
0100
0010
1000
,
0101
0000
0000
0010
2000
0000
3100
0000
0000
0000
0110
0000
1001
0000
0021
0000
,
0130
2000
0010
3020
0130
0001
0010
0001
,
0010
0100
1000
0010
0100
0001
0001
0100
,
0020
0100
2030
0100
3020
0100
1030
0001
,
1200
0300
0000
0000
0000
0000
0100
0000
0001
0000
0000
0000
0110
0000
0000
0000
0000
0000
0000
0000
1010
0000
0000
0000
0021
0000
0000
0000
0130
0000
0000
0000
,
1000
0002
0100
0203
0310
1000
0010
0100
,
0010
1000
0010
0100
0001
0010
0001
0100
,
0020
1000
0230
0001
0310
1000
0100
0010
,
1001
0000
0000
0100
0010
0000
1001
0000
0000
0000
0110
0000
1100
0000
0001
0000
,
0100
0020
1000
1030
0001
0100
0010
1000
,
0110
1100
0101
0110
2001
3010
0100
0001
,
0100
0000
0000
0200
0000
0300
0020
0000
0230
0000
0000
0302
0000
0000
0000
0000
,
0103
0000
0001
0100
0001
0000
0020
0000
0100
0000
0130
0000
2000
0000
0000
3000
,
0001
0000
0100
0010
2000
0000
0010
0000
3020
0000
0130
0000
0002
0000
0003
0000
,
1000
0010
1000
0000
0001
0100
0001
0000
0100
0010
0100
0000
0002
0000
0003
0000
,
1000
0001
1000
0000
0001
0100
0001
0000
1000
0010
1000
0000
0020
0000
0030
0000
,
2001
0000
3000
0010
0100
0000
0001
0000
0001
0000
1000
0000
0200
0000
0300
0000
,
0010
0000
0001
0100
0001
0000
1000
0000
1000
0000
0001
0000
0020
0000
0030
0000
,
0001
1000
0000
0010
1000
0000
0010
0100
0000
0001
0100
0000
0020
0000
0030
0000
,
1000
0010
1000
0000
0010
0100
0010
0000
1000
0001
1000
0000
0200
0000
0300
0000
,
2200
0000
0000
0000
3300
0000
2000
0000
0020
3000
0000
0030
0000
2000
0200
0000
,
0000
0000
0000
0000
,
0000
0000
0000
3000
,
0010
0000
0000
0310
0000
0000
0001
0000
2000
0000
3100
0000
0101
0000
0000
0000
,
0001
0000
0100
0010
0000
0000
0010
0000
0000
1000
0000
0000
0100
0000
0000
0010
0000
0000
0200
0000
0000
1000
0000
0000
,
0310
0000
0001
0010
0001
0000
1000
0000
0010
0000
1100
0000
0201
0000
0310
0000
,
1000
0001
1000
0000
0001
0100
0001
0000
0010
0001
0020
0000
0230
0000
0000
0000
,
0310
0100
0010
0000
0001
1000
0001
0000
0200
0000
0000
0000
0010
0000
0301
0000
,
1200
0000
0300
0010
0002
0000
0100
0000
0203
0000
0010
0000
0002
0000
0300
0000
,
1003
0000
0000
0001
0200
0000
0010
0000
0310
0000
1001
0000
0110
0000
1001
0000
,
1000
0100
0000
0001
0010
0000
0100
0010
0000
0001
1000
0000
0001
0100
0000
0000
,
0001
1000
0100
0010
0002
0003
1100
0110
,
0202
0000
0000
0000
0000
0000
0000
0300
0000
0000
0013
0000
1100
0000
0000
0000
,
0001
0200
0010
0310
0100
0010
1000
0100
,
1000
0100
1000
0000
0010
0100
0010
0000
0100
0001
0100
0000
0002
0000
0000
0000
,
1003
0010
0100
0001
0100
0000
0011
1001
,
1020
0000
0030
0100
0001
0000
0010
0000
0020
0000
0001
0000
0230
0000
0000
0000
,
1300
0020
0100
0130
0001
1001
0110
1001
,
0001
0010
0000
0100
1000
0000
0001
0100
0000
0001
0010
0000
0001
1000
0000
0000
,
1000
0001
1000
0000
0010
0100
0010
0000
2000
0000
0000
0000
0001
0000
3010
0000
,
1000
0010
0100
0100
0010
1000
0100
0100
,
1000
0001
1000
0100
0010
0100
1000
0100
,
0010
0000
0001
0100
0000
0000
0010
0000
0000
0010
0000
0000
1000
0000
0000
0100
0000
0000
1000
0000
0000
0010
0000
0000
,
0100
0010
1000
0100
0020
0001
0100
0031
,
1000
0000
0010
0100
0000
0000
0001
0000
0000
0010
0000
0000
0100
0000
0000
1000
0000
0000
0100
0000
0000
0010
0000
0000
,
0001
0100
0010
1000
0200
0010
1000
0310
,
0001
0010
0000
0100
1000
0000
1000
0100
0000
0010
0001
0000
0100
0010
0000
0000
,
1000
0010
0100
0001
2000
0100
3010
0002
,
0200
0000
0000
0000
,
0000
0000
0000
0000
,
0303
0000
0000
0000
;

//--------------- dance-single - RxSteps ----------------
#NOTES:
     dance-single:
     RxSteps:
     Hard:
     9:
     0,0,0,0,0:
0000
0000
0000
0000
,
1000
0000
0100
1000
0000
0000
0010
0000
0000
0010
0000
0000
0100
0000
0000
0001
0000
0000
0010
0000
0000
0010
0000
0000
,
0001
1000
0001
0200
1300
0100
0001
0010
,
0100
0000
1000
0010
0000
0000
0100
0000
0000
0100
0000
0000
0001
0000
0000
0010
0000
0000
0001
0000
0000
0100
0000
0000
,
0010
0100
0001
0010
0200
1000
0010
1300
,
0001
0000
0100
0010
0000
0000
1000
0000
0000
0200
0000
0000
0301
0000
0000
1000
0000
0000
0010
0000
0000
0100
0000
0000
,
1000
0010
0100
0001
0020
0100
0001
0130
,
1000
0000
0100
0010
0000
0000
0001
0000
0000
0001
0000
0000
1000
0000
0000
0010
0000
0000
0100
0000
0000
0010
0000
0000
,
2000
0100
0001
3100
0021
0000
0130
1000
,
0101
0110
1200
0310
0001
0200
1300
0100
,
0001
0010
0100
0010
0001
0200
1300
0001
,
0010
1000
0100
0010
0200
1000
0010
1300
,
0001
0020
1030
0010
0001
0100
2020
3000
,
0130
0000
0001
0000
0010
0000
0100
0010
0100
0000
1000
0000
0001
0000
0100
0000
,
1100
0000
0101
0000
0021
0000
0130
2000
0200
0000
3000
0000
0310
0000
0001
0000
,
1000
0100
0010
0001
0010
0100
1000
0100
0010
0001
0100
0010
1000
0010
0100
0001
,
1000
0100
0010
0100
1000
0100
0010
0100
0010
0001
0010
0100
0010
0001
0020
0000
,
0230
0010
0310
0001
0020
0030
1020
0130
,
0101
0000
0110
0000
1200
0000
0310
0000
0100
0000
2000
0000
0010
3000
0010
0000
,
0100
0001
1000
0010
0100
0001
1000
0010
0100
0001
0010
0100
1000
0100
0010
0001
,
0010
0100
0010
0001
0010
0100
0010
0100
1000
0100
0010
0100
1000
0100
0010
0000
,
0001
0200
1300
0002
0020
0033
0110
1001
,
1200
0320
0001
0130
1000
0020
0100
1030
,
0001
0100
0010
1000
0001
0100
0010
1000
0100
0010
0001
1000
0100
0010
0002
0000
,
1003
0010
1000
0010
1000
0010
0200
0300
0001
0010
0001
0010
0001
0010
0100
0000
,
2002
3000
0103
0220
0030
0001
0301
0000
,
1000
0001
0020
1030
0002
0203
0000
0310
,
0001
0200
1300
0100
0002
0000
0010
0100
,
2003
0000
0010
0100
3020
0000
0031
0000
,
2001
3100
0010
0021
0230
1000
0320
0001
,
0130
1000
0010
0100
0002
1000
0103
1000
,
0110
1001
1010
0021
0230
0000
1000
0310
,
2000
0000
0000
0000
0100
0000
0001
0000
3020
0000
0000
0000
0100
0030
2000
0000
,
0002
0000
0000
3000
,
0200
0000
0000
0303
,
2200
0000
0000
0300
,
0020
0000
0000
3030
,
0011
1000
0010
1000
0001
1000
0010
1000
,
0200
0301
0100
1000
0200
0301
0100
1000
,
0020
0031
0020
1030
0020
0031
0010
1000
,
0001
0010
0100
0010
0001
0010
0100
0010
,
0002
1000
0203
0010
0302
0010
2003
0100
,
3010
0000
1000
0010
0100
0010
0100
0010
1000
0000
0100
0000
0010
0000
0010
0000
,
0001
0000
1000
0010
0100
0000
0001
0000
0010
0000
0100
1000
0100
1000
0100
1000
,
0100
0000
1000
0001
0010
0000
0010
0000
0100
0000
1000
0100
1000
0100
1000
0100
,
1000
0000
0100
0000
0010
0001
0010
0000
0001
0000
0100
0010
0100
0000
0002
0000
,
1000
0003
1000
0001
0200
0010
0300
0010
0100
0000
0020
0000
1000
0000
0130
0000
,
0001
0010
0100
1000
0001
0010
0100
1000
0001
0010
0100
2000
0020
0000
3000
0000
,
0200
0030
0000
0000
0001
0000
0000
0000
0310
0000
0000
0000
1000
0000
0100
0000
,
0101
0000
0000
1000
0100
0000
0110
0000
0000
0000
1001
0000
0110
0000
1000
0000
,
0100
0000
0010
0200
1000
0000
1300
0000
0001
0000
0200
0000
1300
0000
0100
0000
,
0001
0020
1030
0001
0100
1000
0010
0200
,
0001
0302
1000
2003
3200
0010
1300
0100
,
0101
0000
0000
0010
2000
0000
3100
0000
0000
0000
0110
0000
1001
0000
0021
0000
,
0130
0000
1000
0200
0010
0000
0310
0000
0100
0000
1000
0000
0020
0000
0031
0000
,
0010
1000
0200
0301
1000
0010
0001
0100
,
0020
0100
2030
0100
3020
0100
1030
0001
,
1200
0300
0000
0000
0000
0000
0100
0000
0001
0000
0000
0000
0110
0000
0000
0000
0000
0000
0000
0000
1010
0000
0000
0000
0021
0000
0000
0000
0130
0000
0000
0000
,
1000
0000
0001
0020
0100
0000
0130
0000
0010
0000
0001
0000
0020
0000
1030
0000
,
0010
0001
0200
1300
0001
0010
1000
0100
,
0020
0001
0230
1000
0310
0001
0100
0010
,
1001
0000
0000
0100
0010
0000
1001
0000
0000
0000
0110
0000
1100
0000
0001
0000
,
0100
0000
0010
2000
0001
0000
3001
0000
1000
0000
0100
0000
0010
0000
0001
0000
,
0110
1100
0101
0110
2001
3010
0100
0001
,
0100
0000
0000
0200
0000
0300
0020
0000
0032
0000
0000
2000
0003
0000
0000
0000
,
3100
0000
0010
0100
0001
0000
0020
0000
0100
0000
0130
0000
2000
0000
0000
3000
,
0001
0000
0100
0010
2000
0000
0010
0000
3020
0000
0230
0000
0002
0000
0303
0000
,
1000
0010
0100
0001
1000
0010
0100
0001
0010
0100
0010
0001
0020
0000
0030
0000
,
0001
0010
0100
0010
0001
0010
0100
1000
0001
0010
0100
1000
0020
0000
0030
0000
,
2001
0000
3000
0010
0100
0000
0001
0000
0001
0000
1000
0000
0200
0000
0300
0000
,
0010
0000
0001
0100
0010
0000
1000
0000
1000
0000
0001
0000
0020
0000
0030
0000
,
0001
1000
0010
0100
0001
1000
0010
0100
0001
1000
0100
0010
0200
0000
0300
0000
,
1000
0010
0100
0001
1000
0010
0100
0001
0010
0100
0010
0001
0020
0000
0030
0000
,
2200
0000
0000
0000
3300
0000
0001
0100
0020
0000
0000
0030
0000
2000
0200
0000
,
0000
0000
0000
0000
,
0000
0000
0000
3000
,
0010
0000
0000
0310
0000
0000
0001
0000
2000
0000
3100
0000
0101
0000
0000
0000
,
0001
0000
0100
0010
0000
0000
0010
0000
0000
1000
0000
0000
0100
0000
0000
0010
0000
0000
0200
0000
0000
1000
0000
0000
,
0310
0000
0001
0010
0001
0000
1000
0000
0010
0000
1100
0000
0201
0000
0310
0000
,
1000
0001
0100
0010
1000
0100
1000
0001
0010
0001
1000
0010
0200
0000
0001
0000
,
0310
0100
0001
0010
0100
1000
0100
0010
0001
0200
0000
0000
0010
0000
0301
0000
,
1200
0000
0300
0010
0002
0000
0100
0000
0203
0000
0010
0000
0002
0000
0300
0000
,
1003
0000
0000
0001
0200
0000
0010
0000
0310
0000
1001
0000
0110
0000
1002
0000
,
0013
0100
1000
0100
0010
0001
0010
0100
1000
0100
0010
0001
1000
0100
0020
0030
,
0001
0100
0010
1000
0100
1000
0010
0100
0002
0000
0003
0000
1100
0000
0110
0000
,
0202
0000
0000
0000
0000
0000
0000
0300
0000
0000
0013
0000
1100
0000
0000
0000
,
0001
0000
0100
0010
1000
0000
1000
0000
0100
0000
0010
0000
0001
0000
0100
0000
,
0010
0100
0001
1000
0100
0010
0100
1000
0001
0010
0100
0010
0002
0000
0000
0000
,
0203
1300
0001
0010
2000
3000
0011
1001
,
1020
0000
0030
0100
0001
0000
0010
0000
0020
0000
0001
0000
0230
0000
0000
0000
,
1300
0000
0010
1000
0020
0000
0100
0000
0130
0000
1001
0000
0110
0000
2001
0000
,
3100
0010
0001
0010
0100
1000
0100
0010
0001
0010
0100
1000
0001
0010
0200
0300
,
1000
0010
0100
0001
0010
0001
0100
0010
2000
0000
0000
0000
0001
0000
3010
0000
,
1000
0010
0100
0100
0010
1000
0100
0100
,
1000
0001
1000
0200
0301
0100
1000
0100
,
0010
0000
0001
0100
0000
0000
0010
0000
0000
0010
0000
0000
1000
0000
0000
0100
0000
0000
1000
0000
0000
0010
0000
0000
,
0100
0010
1000
0100
0020
0001
0100
0031
,
1000
0000
0010
0100
0000
0000
0001
0000
0000
0020
0000
0000
1030
0000
0000
0001
0000
0000
0100
0000
0000
0010
0000
0000
,
0001
0100
0010
1000
0200
0010
1000
0310
,
0001
0010
0100
1000
0001
0100
0010
1000
0010
0100
0001
1000
0100
0010
0001
0010
,
0100
0010
0001
0010
0100
1000
0001
0010
0200
0000
1000
0000
0010
0000
2300
0000
,
0002
0000
0000
0000
,
0000
0000
0000
0000
,
3003
0000
0000
0000
;
