#TITLE:KRUSH!CLOUD;
#SUBTITLE:;
#ARTIST:CLOUD ZERO;
#TITLETRANSLIT:;
#SUBTITLETRANSLIT:;
#ARTISTTRANSLIT:;
#GENRE:;
#CREDIT:RxSteps;
#MUSIC:KRUSH!CLOUD.ogg;
#BANNER:KRUSH!CLOUD.png;
#BACKGROUND:KRUSH!CLOUD-bg.png;
#CDTITLE:cdtitle.png;
#SAMPLESTART:19.046;
#SAMPLELENGTH:17.143;
#SELECTABLE:YES;
#OFFSET:0.240;
#BPMS:0.000=112.000;
#STOPS:;
#BGCHANGES:;
#FGCHANGES:;

//--------------- dance-single - RxSteps ----------------
#NOTES:
     dance-single:
     RxSteps:
     Beginner:
     4:
     0,0,0,0,0:
0000
0000
0000
0000
,
0001
0000
0000
1000
0000
0000
0010
0000
0000
0000
1000
0000
0000
0000
0000
0000
,
0001
0000
0000
1000
0000
0000
0010
0000
0000
0000
0100
0000
0000
0000
0000
0000
,
0010
0000
0000
1000
0000
0000
0010
0000
0000
0000
0100
0000
0000
0000
0000
0000
,
0001
0000
0000
1000
0000
0000
0001
0000
0000
0100
0000
0000
0000
0000
0000
0000
,
1001
0000
0001
1000
,
0010
0010
0100
0001
,
0001
1000
0001
0100
,
0001
0100
0001
0100
0001
0100
0001
0000
,
0001
0000
0000
1000
0000
0000
0010
0000
0000
0000
0100
0000
0000
0000
0000
0000
,
0001
0000
0000
0100
0000
0000
0001
0000
0000
0000
0000
0000
1000
0000
0000
0000
,
1000
0000
0000
0010
0000
0000
0100
0000
0000
0000
0000
0000
0001
0000
1000
0000
,
0001
0100
0020
0030
,
1010
0000
0000
0000
1000
0000
0001
0100
,
0001
0000
0010
0000
0001
0000
1000
0010
,
1000
0001
0001
1000
,
0010
0100
0010
0000
1000
0000
0000
0000
,
0101
0000
0000
0000
0001
0000
1000
0010
,
1000
0000
0001
0000
0100
0000
0001
0100
,
0001
0000
0000
1000
0000
0000
0010
0000
0000
1000
0000
0000
0002
0000
0000
0000
,
1003
0000
0000
0000
1000
0000
0000
0000
0020
0000
0000
0000
0000
0030
0000
0000
,
1000
0000
0000
0010
0000
0000
0100
0000
0000
0000
0001
0000
0000
0000
0000
0000
,
1000
0000
0000
0000
1000
0000
0000
0010
0000
0000
1000
0000
0000
0000
0000
0000
,
0011
0000
1000
0001
,
1000
0010
1000
0010
1000
0010
2000
0000
,
3001
0000
0000
1000
0000
0000
0010
0000
0000
0000
0010
0000
0000
0000
0000
0000
,
0100
0000
0000
0001
0000
0000
0100
0000
0000
0000
0010
0000
0000
0000
0000
0000
,
1100
0000
1000
0010
,
1000
0001
1000
0001
0200
0000
0300
0000
,
0001
0000
0100
0000
0010
0000
1000
0001
,
1000
0000
0100
0000
0010
0000
0001
0010
,
0001
1000
0001
1000
,
0001
0010
0001
0010
0001
0000
0000
0000
,
1001
0000
0001
0100
,
0001
0010
0100
1000
,
0001
0000
0000
1000
0000
0000
0010
0000
0000
1000
0000
0000
0001
0000
0000
0000
,
0001
1000
0010
0200
,
0320
0000
0000
0000
0030
0000
1000
0010
,
1000
0000
0100
1000
0100
0000
1000
0001
,
1000
0000
0001
0000
0100
0000
0001
0010
,
0001
0000
0001
1000
0001
0000
0100
0001
,
0100
0000
0010
0000
1000
0000
0001
1000
,
0001
0000
0100
0010
0100
0000
0010
1000
,
0010
0000
0100
0000
0001
0000
0100
0001
,
0200
0000
0300
0010
,
0010
0000
0000
1000
0000
0000
0001
0000
0000
0000
1000
0000
0000
0000
0000
0000
,
1000
0000
0000
0010
0000
0000
0100
0000
0000
0000
0010
0000
0000
0000
0000
0000
,
1001
0000
1000
0001
,
0010
0001
0010
0001
0010
0001
0010
0000
,
0010
0000
0000
0100
0000
0000
1000
0000
0000
0000
0001
0000
0000
0000
0000
0000
,
0100
0000
0000
0010
0000
0000
1000
0000
0000
0000
0100
0000
0000
0000
0000
0000
,
0101
0000
0000
0000
0001
1000
0001
1000
,
0020
0000
0000
2000
,
3030
0000
0000
0000
;

//--------------- dance-single - RxSteps ----------------
#NOTES:
     dance-single:
     RxSteps:
     Easy:
     6:
     0,0,0,0,0:
0000
0000
0000
0000
,
0001
0000
0000
1000
0000
0000
0001
0000
0100
0000
0010
0000
0100
0000
0010
0000
,
1000
0000
0000
0100
0000
0000
1000
0000
0001
0000
0100
0000
0000
0000
0000
0000
,
0010
0000
0000
1000
0000
0000
0100
0000
1000
0000
0001
0000
0010
0000
0100
0000
,
1000
0000
0000
0100
0000
0000
0010
0000
0000
0001
0000
0000
0100
0000
0000
0000
,
2010
0001
0010
3100
,
0102
1000
0100
1003
,
0110
0000
1000
0000
0100
0010
0100
0000
,
1000
0001
1000
0010
1000
0001
0200
0000
,
0310
0000
0000
0100
0000
0000
0010
0000
0000
0000
1000
0000
0100
0000
1000
0000
,
0001
0000
0000
0100
0000
0000
0010
0000
0000
0000
1000
0000
0100
0000
0000
0000
,
0101
0000
0000
1000
0000
0000
0010
0000
0000
0000
0100
0000
0001
0000
0100
0000
,
0001
0010
0100
1000
0200
0000
0300
0000
,
0102
1000
0010
1003
,
0001
0100
0010
1000
0010
0100
0001
2000
,
0010
0000
3010
1000
0010
0100
0001
1000
,
0010
1000
0010
0100
0001
0100
0001
0000
,
1001
0000
1000
0010
0100
0001
1000
0100
,
1000
0010
0100
0010
1000
0001
1000
0010
,
0100
0000
0000
0001
0000
0000
1000
0000
0000
0100
0000
0000
0020
0000
0000
0000
,
0031
0000
1000
0000
0200
0300
0100
0010
,
0001
0000
0000
0010
0000
0000
0001
0000
0000
0000
0100
0000
0001
0000
1000
0000
,
0100
0000
0000
0100
0000
0000
1000
0000
0000
0000
0001
0000
0010
0000
0100
0000
,
0010
0000
0000
0001
0000
0000
1000
0000
0000
0000
0001
0000
0100
0000
0010
0000
,
1000
0100
1000
0001
1000
0001
1000
0000
,
0101
0000
0000
0001
0000
0000
0010
0000
0000
0000
0001
0000
1000
0000
0010
0000
,
0100
0000
0000
0100
0000
0000
0001
0000
0000
0000
0001
0000
1000
0000
0000
0000
,
1100
0000
0000
1000
0000
0000
0010
0000
0000
0000
0100
0000
0010
0000
1000
0000
,
0001
0010
0100
0010
0002
0000
0103
0000
,
0110
1001
0110
1001
,
1000
0001
1000
0100
0010
0100
2000
0000
,
0001
3020
0100
1030
,
0001
0100
0001
0100
0010
1000
0001
0000
,
0110
2000
0001
0010
,
3002
0010
0100
1003
,
0001
0000
0000
0100
0000
0000
0010
0000
0000
0100
0000
0000
0002
0000
0000
0000
,
1000
1003
2000
3200
,
1300
0000
0001
0000
0010
0000
0001
0010
,
0200
0000
0310
0100
1000
0000
1000
0010
,
0200
0000
0010
0000
0310
0000
1000
0001
,
1000
0010
1000
0001
0100
0000
0001
0010
,
0200
0000
1000
0000
1300
0000
0001
1000
,
0020
0000
0130
0010
1000
0000
1000
0100
,
0020
0000
0100
0000
0130
0000
1000
0001
,
0200
0010
0301
1010
,
0001
0000
0000
1000
0000
0000
0010
0000
0000
0000
1000
0000
0001
0000
0010
0000
,
0100
0000
0000
0100
0000
0000
1000
0000
0000
0000
1000
0000
0100
0000
0000
0000
,
1001
0000
0000
1000
0000
0000
0010
0000
0000
0000
0100
0000
0001
0000
0100
0000
,
0010
0100
0010
1000
0100
1000
0200
0000
,
0310
0000
0000
0001
0000
0000
0010
0000
0000
0000
0100
0000
0010
0000
0100
0000
,
1000
0000
0000
0001
0000
0000
0100
0000
0000
0000
0010
0000
1000
0000
0000
0000
,
0101
0000
0000
0001
0000
0000
1000
0000
0000
0000
0010
0000
0100
0000
0002
0000
,
0023
0000
0100
0000
0002
0030
0020
0000
,
0033
0000
0000
0000
;

//--------------- dance-single - RxSteps ----------------
#NOTES:
     dance-single:
     RxSteps:
     Medium:
     8:
     0,0,0,0,0:
0000
0000
0000
0000
,
0001
0000
1000
0010
0000
1000
0001
0000
0100
0001
0100
0000
0100
0000
0010
0000
,
1000
0000
0100
1000
0000
1000
0100
0000
0010
0001
0010
0000
0020
0000
0000
0000
,
0130
0000
1000
0100
0000
0100
0010
0000
0100
1000
0100
0000
0100
0000
1000
0000
,
0001
0000
0100
0010
0000
0010
0100
0000
0001
1000
0000
0100
0010
0000
0000
0000
,
0101
0000
0000
1000
0100
0000
0000
1000
0001
0000
0000
0100
0010
0000
0000
0000
,
1100
0000
0000
0001
0100
0000
0000
0010
0200
0000
0000
0000
0301
0000
0000
0000
,
1100
0000
0000
0010
0001
0000
0000
0001
0100
0000
0000
0010
1000
0000
0100
0000
,
1000
0001
1000
0010
1000
0100
0010
0000
,
1200
0000
0310
0001
0000
0010
0100
0000
1000
0100
1000
0000
0100
0000
0000
0000
,
0101
0000
1000
0010
0000
0010
1000
0000
0001
0010
0001
0000
0010
0000
0000
0000
,
1100
0000
1000
0001
0000
0100
0001
0000
1000
0001
1000
0000
0010
0000
0100
0000
,
0001
0010
0100
0010
0001
0000
1100
0000
,
0101
0000
1200
0310
0001
1000
0010
0100
,
0001
1000
0001
0000
0100
0000
0010
0000
1000
0000
0001
0000
0100
0000
0001
0000
,
1000
0100
0000
0001
0100
0000
0010
1000
0000
1000
0100
0000
1000
0000
0001
0000
,
1000
0001
0010
0001
0100
0010
1000
0000
,
0011
0010
0100
1000
0001
1000
0010
0100
,
0001
0010
0100
0010
0001
1000
0010
0010
,
0100
0001
0000
1000
0010
0000
0100
0010
0000
1000
0001
0000
0200
0000
0000
0000
,
0310
0000
1000
0000
0200
0300
0100
0010
,
0001
0000
1000
0010
0000
0100
0001
0000
1000
0001
1000
0000
0100
0000
0000
0000
,
0101
0000
0010
1000
0000
1000
0010
0000
0010
0100
0010
0000
1000
0000
0000
0000
,
0011
0000
0001
1000
0000
1000
0010
0000
0010
1000
0010
0000
1000
0000
0100
0000
,
0010
0100
1000
0001
0010
0100
1000
0000
,
0011
0000
1000
0100
0000
0010
0001
0000
0001
0010
0001
0000
1000
0000
0000
0000
,
0011
0000
0100
1000
0000
1000
0010
0000
1000
0000
0000
0000
0110
0000
0000
0000
,
1001
0000
1000
0100
0000
0100
0010
0000
0100
0010
0100
0000
1000
0000
0001
0000
,
0100
0001
1000
0100
0010
0000
1100
0000
,
0110
1001
0110
1001
,
1000
0001
1000
0100
0010
0100
1000
0010
,
0100
0010
1000
0100
0010
0100
1000
0010
,
1000
0010
0100
0001
0010
0100
1000
0000
,
0110
0000
0000
0001
1000
0000
0000
0010
1000
0000
0000
0100
0001
0000
0000
0000
,
0110
0000
0000
1000
0010
0000
0000
0100
0001
0000
0100
0000
0010
0000
0100
0000
,
0001
0100
0000
0001
0100
0000
0010
1000
0000
0001
0010
0000
0200
0000
0000
0000
,
1000
2300
3002
0023
,
0230
0000
0010
0000
1300
0000
0001
0010
,
0200
0000
0000
0000
0310
0000
0100
0000
1000
0000
0000
0001
1000
0000
0010
0000
,
0100
0000
0000
0200
0010
0000
0000
0000
0310
0000
0000
0000
1000
0000
0001
0000
,
1000
0000
0010
0000
1000
0000
0001
0000
0100
0000
0000
0100
0001
0000
0010
0000
,
0200
0000
1000
0000
0310
0000
0001
0100
,
0020
0000
0000
0000
0130
0000
0010
0000
1000
0000
0000
0001
1000
0000
0100
0000
,
0010
0000
0000
0020
0100
0000
0000
0000
0130
0000
0000
0000
1000
0000
0001
0000
,
0200
0300
0100
0001
0010
0000
1020
0130
,
0001
0000
1000
0010
0000
0100
0001
0000
1000
0010
1000
0000
0010
0000
0000
0000
,
1200
0000
0310
0001
0000
0010
0100
0000
1000
0100
1000
0000
0010
0000
0000
0000
,
0011
0000
0001
1000
0000
0010
1000
0000
0001
1000
0001
0000
0100
0000
0010
0000
,
1000
0100
0010
0001
0200
0000
0310
0000
,
1200
0000
0310
0001
0000
0001
0100
0000
0010
0100
0001
0000
0100
0000
0000
0000
,
1020
0000
0130
0001
0000
0100
0010
0000
1000
0010
1000
0000
0100
0000
0000
0000
,
0101
0000
0001
1000
0000
0100
1000
0000
0001
1000
0001
0000
0100
0000
0002
0000
,
0023
0000
0100
0000
0001
0000
0032
2000
,
3003
0000
0000
0000
;

//--------------- dance-single - RxSteps ----------------
#NOTES:
     dance-single:
     RxSteps:
     Hard:
     9:
     0,0,0,0,0:
0000
0000
0000
0000
,
0001
0000
1000
0010
0000
1000
0001
0000
0100
0001
0100
0000
0100
0000
0010
0000
,
1000
0000
0100
1000
0000
1000
0100
0000
0010
0001
0010
0000
0020
0000
0000
0000
,
0130
0000
1000
0100
0000
0100
0010
0000
0100
1000
0100
0000
0100
0000
1000
0000
,
0001
0000
0100
0010
0000
0010
0100
0000
0001
1000
0000
0100
0010
0000
0000
0000
,
0101
0000
0000
1000
0100
0000
0000
1000
0001
0000
0000
0100
0010
0000
0000
0000
,
1100
0000
0000
0001
0100
0000
0000
0010
1000
0000
0020
0000
0031
0000
0010
0000
,
1100
0000
0000
0010
0001
0000
0000
0001
0100
0000
0000
0010
1000
0000
0200
0000
,
0301
1000
0010
0001
0200
1300
0001
0000
,
1200
0000
0310
0001
0000
0010
0100
0000
1000
0100
1000
0000
0100
0000
0010
0000
,
0101
0000
1000
0010
0000
0010
0100
0000
0001
0010
0001
0000
0100
0000
0000
0000
,
1100
0000
1000
0001
0000
0100
0001
0000
1000
0001
1000
0000
0010
0000
0100
0000
,
0001
0200
1300
0001
0010
0000
1100
0000
,
0101
0000
1200
0310
0001
1000
0010
0100
,
0001
1000
0001
0000
0100
0000
0010
0000
1000
0000
0001
0000
0100
0000
0001
0000
,
1000
0100
0000
0001
0100
0000
0010
1000
0000
1000
0100
0000
0010
0000
0100
0000
,
1000
0100
1000
0100
0010
0000
0001
0000
0100
0000
0010
0000
0200
0000
1300
0000
,
0001
0010
1000
0200
0301
0100
1000
0020
,
0031
0010
1000
0100
0010
0001
1000
0010
,
0100
0001
0000
1000
0010
0000
0100
0010
0000
1000
0001
0000
0100
0010
1000
0100
,
0020
0000
0000
0000
0001
0000
0030
0000
0100
1000
0100
1000
0100
0000
0010
0000
,
0001
0000
1000
0010
0000
0100
0001
0000
0010
0001
0010
0000
0100
0000
1000
0000
,
0101
0000
0010
1000
0000
1000
0010
0000
0010
0100
0001
0000
0010
0000
0000
0000
,
1010
0000
0001
0100
0000
0100
0010
0000
0010
1000
0001
0000
0100
0000
0020
0000
,
0031
1000
0100
0001
0020
1030
0001
0000
,
0011
0000
1000
0100
0000
0010
0001
0000
0001
1000
0010
0000
0010
0000
1000
0000
,
0011
0000
0100
1000
0000
0010
0100
0000
0001
1000
0001
0000
0110
0000
1001
0000
,
0110
0000
1000
0100
0000
0100
0010
0000
0001
1000
0001
0000
0100
0000
0010
0000
,
1000
0001
0100
0020
0031
0000
1100
0000
,
0110
1001
0110
1001
,
1000
0001
1000
0200
0301
0100
1000
0020
,
0031
0010
1000
0100
0010
0100
1000
0010
,
1000
0010
0100
0001
0200
1300
0001
0000
,
0110
0000
0000
0001
1000
0000
0000
0010
1000
0000
0000
0100
0001
0000
0000
0000
,
0110
0000
0000
1000
0010
0000
0000
0100
0001
0000
0200
0000
1300
0000
0100
0000
,
0001
0100
0000
0001
0100
0000
0010
1000
0000
0001
0010
0000
0200
0000
0000
0000
,
2300
0000
0000
0000
3200
0000
0000
0000
0302
0000
0000
0000
1003
0010
0100
1000
,
0200
0000
0010
0000
1300
0000
0001
0010
,
0200
0000
0000
0000
0310
0000
0100
0000
1000
0000
0000
0001
1000
0000
0010
0000
,
0100
0000
0000
0200
0010
0000
0000
0000
0310
0000
0000
0000
1000
0000
0001
0000
,
0020
0000
1030
0000
0010
0000
0001
0000
0100
0000
0000
0100
0001
0000
0010
0000
,
0200
0000
1000
0000
0310
0000
0001
0100
,
0020
0000
0000
0000
0130
0000
0010
0000
1000
0000
0000
0001
1000
0000
0100
0000
,
0010
0000
0000
0020
0100
0000
0000
0000
0130
0000
0000
0000
1000
0000
0001
0000
,
1000
0010
1000
0010
1000
0000
0001
0000
0010
0000
0000
0000
1020
0000
0130
0000
,
0001
0000
1000
0010
0000
0100
0001
0000
1000
0010
1000
0000
0010
0000
0100
0000
,
1200
0000
0310
0001
0000
0010
0100
0000
1000
0100
1000
0000
0010
0000
0000
0000
,
0011
0000
0001
1000
0000
0010
1000
0000
0001
1000
0001
0000
0100
0000
0010
0000
,
1000
0020
0031
1000
0200
0000
0301
0000
,
1200
0000
0310
0001
0000
0001
0100
0000
0010
0100
0001
0000
0100
0000
0010
0000
,
1020
0000
0130
0001
0000
0100
0010
0000
1000
0010
1000
0000
0100
0000
0000
0000
,
0101
0000
0001
1000
0000
0100
1000
0000
0001
1000
0001
0000
0100
0000
0002
0000
,
0023
0000
0000
0000
2000
0000
0030
3000
0010
1000
0010
1000
0020
0000
0200
0000
,
0330
0000
0000
0000
;
