#TITLE:It's Pizza Time!;
#SUBTITLE:;
#ARTIST:Pizza Tower Mr. Sauceman;
#TITLETRANSLIT:;
#SUBTITLETRANSLIT:;
#ARTISTTRANSLIT:;
#GENRE:;
#CREDIT:RxSteps;
#MUSIC:It's Pizza Time!.ogg;
#BANNER:It's Pizza Time!.png;
#BACKGROUND:It's Pizza Time!-bg.png;
#CDTITLE:cdtitle.png;
#SAMPLESTART:42.647;
#SAMPLELENGTH:28.000;
#SELECTABLE:YES;
#OFFSET:-0.076;
#BPMS:0.000=100.000
,16.250=104.000
,16.500=108.000
,16.750=112.000
,17.000=116.000
,17.250=120.000
,17.500=124.000
,17.750=128.000
,18.000=132.000
,20.000=136.000
,20.250=140.000
,20.500=144.000
,20.750=148.000
,21.000=152.000
,22.000=156.000
,23.000=160.000
,24.000=164.000
,24.500=166.000
,25.000=168.000
,25.500=170.000
,26.000=172.000
,26.500=174.000
,28.000=176.000
,30.000=180.000
,500.000=181.000
,500.500=182.000
,501.000=183.000
,501.500=184.000
,502.000=185.000
,502.500=186.000
,503.000=190.000
,503.500=193.000
,504.000=196.000
,504.500=200.000
,505.000=204.000
,505.500=208.000
,506.000=212.000
,506.500=220.000
,507.000=224.000
,507.500=228.000
,508.000=232.000
,508.500=236.000
,509.000=240.000
,509.500=244.000
,510.000=248.000
,510.500=252.000
,511.000=256.000
,511.500=260.000
,512.000=264.000
,520.000=267.000
,528.000=276.000
,644.000=274.000
,644.500=242.000
,645.000=260.000
,645.500=230.000
,646.000=168.000
,647.000=120.000
,647.500=98.000
,648.000=92.000
,648.500=84.000
,649.000=80.000
,649.500=76.000
,650.500=70.000
,651.500=64.000
,652.000=62.000
,652.500=60.000
;
#STOPS:;
#BGCHANGES:;
#FGCHANGES:;

//--------------- dance-single - RxSteps ----------------
#NOTES:
     dance-single:
     RxSteps:
     Beginner:
     3:
     0,0,0,0,0:
0001
0100
0001
0000
,
1000
0010
1000
0000
,
0001
1000
0001
0000
,
0100
0001
0100
0000
,
0001
0010
0001
0000
,
1000
0100
0010
0000
,
0002
0003
0200
0300
,
0010
0000
0100
0000
,
0001
0000
0100
0000
,
0001
0000
1000
0001
,
1000
0000
0010
0000
,
1000
0010
1000
0010
,
1000
0000
0001
0000
,
0100
0000
0001
0000
,
0020
0030
0000
0000
,
0002
0003
0000
0000
,
1000
0000
0010
0000
,
0100
0000
0010
0000
,
2000
3000
0000
0000
,
0020
0030
0000
0000
,
1000
0000
0100
0000
,
1000
0000
0001
0000
,
0010
0001
0010
0001
,
0020
0030
0000
0000
,
0001
0000
0100
0000
,
0001
0000
1000
0000
,
0010
1000
0010
1000
,
0020
0030
0000
0000
,
0100
0000
0001
0000
,
1000
0000
0100
0000
,
1000
0100
1000
0100
,
2000
3000
0000
0000
,
0001
0010
0001
0000
,
1000
0001
1000
0000
,
0020
0030
0000
0000
,
0200
0300
0000
0000
,
0001
0100
0001
0000
,
1000
0010
1000
0000
,
0002
0003
0000
0000
,
0200
0300
0000
0000
,
0001
1000
0001
0000
,
0100
0001
0100
0000
,
0020
0030
0000
0000
,
2000
3000
0000
0000
,
1000
0100
1000
0000
,
0001
0010
0001
0000
,
1000
0010
1000
0010
,
0200
0300
0000
0000
,
0001
0000
0000
1000
,
0000
0000
0010
1000
,
0010
0000
0000
0100
,
0000
0000
0001
0010
,
0001
0000
1000
0000
,
0001
0000
0100
0000
,
0010
0100
0010
0100
,
0010
0000
0000
0000
,
1000
0000
0000
0001
,
1000
0000
0010
0000
,
1000
0000
0000
0001
,
1000
0000
0100
0000
,
0010
0000
0000
0100
,
0010
0000
0000
0000
,
0001
0000
0000
1000
,
0001
0000
0100
0001
,
0100
0000
0000
0010
,
1000
0000
0000
0000
,
0001
0100
0001
0100
,
0020
0030
0000
0000
,
1000
0001
1000
0000
,
0010
1000
0010
0000
,
0100
0010
0100
0010
,
1000
0000
0001
0000
,
1000
0000
0100
0000
,
0010
0000
0001
0000
,
1000
0000
0100
0000
,
0010
0000
0001
0000
,
1000
0000
0010
0000
,
0100
0000
0001
0100
,
0001
0000
1000
0000
,
0010
0000
0100
0010
,
0100
0000
0001
0000
,
1000
0000
0100
1000
,
0100
0000
1000
0000
,
0010
0000
0100
0010
,
0100
0000
0001
0000
,
1000
0000
0010
1000
,
0010
0000
0100
0000
,
0002
0000
0003
0000
,
0100
0020
0000
0030
,
0000
2000
0000
3000
,
0020
0030
0000
0200
,
0000
0000
0300
0000
,
0001
0010
0001
0000
,
1000
0001
1000
0000
,
0020
0030
0000
0000
,
0200
0300
0000
0000
,
0001
1000
0001
0000
,
0010
0001
0010
0000
,
0002
0000
0000
0000
,
0003
0000
0000
0000
,
2000
0000
0000
0000
,
3000
0000
0000
0000
,
0020
0000
0000
0000
,
0030
0000
0000
0000
,
0100
0000
0000
0001
0000
0000
0100
0000
,
0000
0001
0000
0000
1000
0000
0001
0000
,
1000
0000
0000
0010
0000
0000
1000
0000
,
0000
0010
0000
0000
0100
0000
0010
0000
,
0200
0000
0000
0000
,
0300
0000
0000
0000
,
0002
0000
0003
0000
,
2000
0000
3000
0000
,
0010
0000
0100
0000
,
0001
0000
1000
0000
,
0001
0000
0100
0000
,
0002
0000
0003
0000
,
1000
0001
1000
0000
,
0010
1000
0010
0000
,
2000
3000
0000
0000
,
0002
0003
0000
0000
,
0010
0001
0010
0000
,
0001
0100
0001
0000
,
2000
3000
0000
0000
,
0020
0030
0000
0000
,
1000
0000
0001
0000
,
1000
0000
0001
0000
,
1000
0000
0001
0000
,
1000
0000
0010
0000
,
1000
0000
0010
0000
,
1000
0000
0001
0000
,
0100
0000
0001
0000
,
0100
0000
0001
0000
,
1000
0000
0010
0000
,
0100
0000
0001
0000
,
0100
0000
0010
0000
,
2000
0000
3000
0000
,
0001
0000
0100
0000
,
0010
0000
0100
0000
,
0001
0000
1000
0000
,
0002
0000
0003
0000
,
1000
0000
0001
0000
,
0100
0000
0010
0000
,
0100
0000
0001
0000
,
2000
0000
3000
0000
,
0001
0000
0100
0000
,
0010
0000
0100
0000
,
0001
0000
1000
0000
,
0200
0000
0300
0000
,
2000
0000
3000
0000
,
0002
0000
0003
0000
,
0100
0000
0010
0000
,
0100
0000
0000
0000
,
0002
0000
0003
0000
,
0020
0000
0030
0000
,
0100
0000
1000
0000
,
0200
0000
0300
0000
,
0020
0000
0030
0000
,
0002
0000
0003
0000
,
1000
0000
0001
0000
,
2000
0000
3000
0000
,
0020
0000
0000
0030
0000
0000
0000
0000
,
0200
0000
0300
0000
,
0001
0010
0100
1000
,
0001
0100
0001
0100
0010
1000
0010
1000
,
0020
0030
0000
0000
;

//--------------- dance-single - RxSteps ----------------
#NOTES:
     dance-single:
     RxSteps:
     Easy:
     5:
     0,0,0,0,0:
0001
0100
0010
0000
,
0010
1000
0001
0000
,
0100
0010
1000
0000
0001
0000
0000
0000
,
0100
0001
1000
0000
,
0001
1000
0010
0000
0100
0000
0000
0000
,
0001
1000
0100
0000
,
1000
0000
0001
0000
0100
0010
0100
0001
,
1000
0001
0000
0000
0100
0001
0000
0000
,
1000
0100
0010
0001
,
1000
0000
0010
0000
0100
0000
0001
0010
,
0001
0010
0100
1000
,
0100
1000
0100
0000
0010
0001
0010
0000
,
0001
0100
0010
0000
,
1000
0100
0010
0000
,
0001
0010
0001
0010
0002
0000
0003
0000
,
0010
0001
1000
0001
,
0100
0010
1000
0000
,
0001
0010
0100
0000
,
1000
0010
1000
0010
2000
0000
3000
0000
,
0001
1000
0010
0100
,
0001
1000
0100
0000
,
0010
0100
1000
0000
,
0001
0100
0001
0100
0020
0000
0030
0000
,
1000
0001
0100
0010
,
1000
0001
0100
0000
,
0001
0010
0100
0000
,
1000
0001
1000
0001
2000
0000
3010
0000
,
0100
0001
0100
0010
,
1000
0100
0010
0000
,
0001
0100
0010
0000
,
0100
0010
0100
0010
0200
0000
0300
0000
,
0002
0000
0003
0000
,
1000
0001
0100
0010
,
0100
0001
1000
0010
,
0100
0001
0100
0001
0200
0000
0310
0000
,
1000
0001
0100
0010
,
1000
0010
0100
0001
,
1000
0001
0010
0001
,
0100
0001
0100
0001
0200
0000
0310
0000
,
1000
0001
1000
0010
,
0100
0001
0100
0010
,
1000
0001
0100
0010
,
1000
0100
1000
0100
2000
0000
3001
0000
,
0100
0010
1000
0010
,
0100
0001
0010
0001
,
0010
0100
1000
0100
,
0010
0001
0010
0001
0020
0000
0130
0000
,
2000
0000
0000
3000
,
0001
1000
0000
0010
1000
0000
0001
0100
,
0000
0010
1000
0000
0002
0000
0003
0000
,
0001
0010
0000
0100
1000
0000
0001
0010
,
0000
0001
1000
0000
0010
0000
1000
0000
,
0001
0010
0100
0000
,
0010
0001
0100
0000
,
0001
0010
0001
0010
0002
0000
0003
0000
,
0200
0000
0300
0000
,
0001
1000
0010
1000
,
0001
0000
0100
0000
0010
0100
0010
0000
,
1000
0100
0010
0001
,
2000
0000
3000
0000
0001
0000
0100
0010
,
0100
0010
1000
0001
,
1000
0010
0100
0010
,
1000
0100
0010
0001
,
2000
0000
3000
0000
0010
0000
0100
0001
,
0100
0010
1000
0010
,
0100
0001
1000
0010
,
0100
0001
0100
0001
0200
0000
0310
0000
,
1000
0000
0001
0000
0100
0000
0001
0100
,
0001
0010
0100
1000
,
0001
1000
0010
1000
,
0100
1000
0100
1000
0200
0000
0310
0000
,
0001
0000
1000
0000
0001
0000
1000
0100
,
1000
0100
0010
0001
,
1000
0100
0010
0001
,
1000
0100
0010
0001
,
1000
0100
0010
0001
,
1000
0010
1000
0000
0001
0000
0100
0000
,
0010
0100
0001
0010
,
0100
1000
0100
0000
0010
0000
0100
0000
,
1000
0001
1000
0100
,
1000
0001
1000
0000
0010
0000
0100
0000
,
0001
0100
0010
0100
,
0001
1000
0001
0000
0100
0000
0010
0000
,
1000
0100
0010
0100
,
1000
0010
0100
0000
0010
0000
1000
0000
,
0010
0100
0001
0100
,
0010
0100
0010
0000
1000
0000
0001
0000
,
0200
0000
0000
0300
,
0010
2000
0000
0000
,
3000
0002
0000
0003
,
0100
0010
0100
0002
,
0000
0000
0003
0000
,
1000
0010
0100
0010
,
1000
0001
0100
0010
,
1000
0001
1000
0001
2000
0000
3010
0000
,
0100
0001
0100
0010
,
1000
0100
1000
0001
,
0100
0010
0100
0001
,
2000
0000
0000
0000
,
0000
0000
0000
3000
,
0001
0100
0000
0010
1000
0000
0010
0000
,
0100
0000
0000
0001
1000
0000
0001
0000
,
0100
0010
0000
0100
0010
0000
1000
0000
,
0001
0100
0000
0001
0000
0000
1000
0000
,
0010
0000
0000
0100
0000
0000
0001
0000
,
0000
1000
0000
0000
0100
0000
1000
0000
,
0100
0000
0000
0010
0000
0001
0010
0000
,
0000
0100
1000
0000
0001
0000
1000
0000
,
0001
0010
0100
1000
,
0001
0010
0100
1000
,
0020
0000
0000
0030
,
0200
0000
0000
0300
,
0001
0100
0010
1000
,
0100
0010
0001
0010
,
0100
1000
0010
0100
,
0002
0000
0000
0003
,
1000
0001
0010
0100
,
0010
0001
1000
0100
,
0010
0001
0010
0001
0020
0000
0130
0000
,
1000
0001
0010
0100
,
1000
0100
0010
0001
,
1000
0001
0100
0001
,
0010
0001
0010
0001
0020
0000
0130
0000
,
1000
0001
1000
0100
,
1000
0001
1000
0001
,
1000
0001
1000
0001
,
1000
0010
0100
0010
,
1000
0010
0100
0010
,
1000
0001
0010
0001
,
0010
0001
0010
0001
,
0010
0000
0100
0000
,
0010
0000
0001
0000
,
1000
0000
0000
0010
0000
0000
0100
0000
,
0000
0010
0000
0000
1000
0000
0001
0000
,
0100
0000
0000
0010
0000
0000
0100
0000
,
0002
0000
0000
0003
,
1000
0000
0000
0001
0000
0000
0010
0000
,
0000
0001
0000
0000
1000
0000
0100
0000
,
1000
0000
0000
0001
0000
0000
1000
0000
,
0020
0000
0000
0030
,
1000
0000
0000
0001
0000
0000
0010
0000
,
0000
0001
0000
0000
1000
0000
0010
0000
,
1000
0000
0000
0010
0000
0000
1000
0000
,
0002
0000
0000
0003
,
0100
0000
0000
0001
0000
0000
0100
0000
,
0000
0001
0000
0000
0010
0000
0001
0000
,
0010
0000
0000
0001
0000
0000
0100
0000
,
0020
0000
0000
0030
,
1000
0000
0100
0000
,
1000
0000
0010
0000
,
0100
0010
0100
0010
,
2000
0000
0000
3000
,
0001
0000
0010
0000
,
0100
0000
0010
0000
,
0001
0010
0001
0010
,
0002
0000
0000
0003
,
1000
0000
0100
0000
,
1000
0000
0010
0000
,
1000
0010
1000
0010
,
2000
0000
0000
3000
,
0001
0000
1000
0000
,
0001
0000
0100
0000
,
0001
0100
0010
1000
0010
0100
0001
1000
,
0001
0100
0001
0100
0001
0100
0001
1000
0010
0100
0001
0100
0010
1000
0100
1000
,
0200
0300
0000
0000
;

//--------------- dance-single - RxSteps ----------------
#NOTES:
     dance-single:
     RxSteps:
     Medium:
     8:
     0,0,0,0,0:
0001
0100
0010
0000
,
0010
1000
0001
0000
,
0100
0010
1000
0000
0001
0000
0000
0000
,
0100
0001
1000
0000
,
0001
1000
0010
0000
0100
0000
0000
0000
,
0001
1000
0100
0000
,
1000
0001
0100
0010
1000
0001
0100
0010
,
1000
0001
0000
0000
0100
0001
0000
0000
,
1000
0100
0010
0001
0010
0001
0010
0001
,
1000
0001
0100
0010
1000
0001
0200
0000
,
0310
1000
0010
0100
0001
0100
0010
1000
,
0001
0100
0020
0000
2030
0000
3001
0000
,
1000
0010
0100
0001
0010
0000
0100
0000
,
1000
0010
0100
0010
0100
0000
0001
0000
,
1000
0100
0010
0001
1000
0100
0010
0001
,
0020
0000
0000
0030
,
0001
1000
0001
0100
0010
0000
1000
0000
,
0001
0100
0010
1000
0010
0000
0100
0000
,
0001
1000
0001
1000
0001
1000
0010
0100
,
0002
0000
0000
0003
,
1000
0010
0100
0001
0010
0000
0001
0000
,
1000
0001
0100
0001
1000
0000
0010
0000
,
1000
0100
1000
0100
1000
0100
0010
0001
,
0020
0000
0000
0030
,
0001
1000
0100
0010
0100
0000
0010
0000
,
0001
0100
0010
0100
0001
0000
1000
0000
,
0010
0100
0010
0100
0010
1000
0001
0100
,
0020
0000
0000
0030
,
1000
0001
0100
0010
1000
0000
0010
0000
,
0100
0010
1000
0001
0010
0000
0001
0000
,
1000
0010
1000
0010
1000
0001
0100
0010
,
2000
0000
0000
3000
,
0001
0010
0100
1000
0010
0000
0100
0000
,
0001
0100
0010
1000
0100
0000
1000
0000
,
0001
0100
0001
0100
0001
0100
0010
1000
,
0200
0000
0000
0000
0000
0000
0000
0300
,
1000
0001
0010
0001
0100
0000
0001
0000
,
1000
0010
0100
0001
1000
0000
0010
0000
,
0100
0010
0100
0010
0100
0010
0100
0001
,
0020
0000
0000
0000
0000
0000
0000
0030
,
0001
1000
0010
0100
0001
0000
0010
0000
,
0100
1000
0100
0010
0100
0000
1000
0000
,
0010
0100
0010
0100
0010
1000
0001
0100
,
0002
0000
0000
0003
,
1000
0010
0100
0010
0100
0000
0001
0000
,
1000
0001
0100
0010
1000
0000
0100
0000
,
1000
0100
1000
0100
1000
0001
0100
0010
,
2000
0000
0000
0000
0000
0000
3000
0001
,
0010
0200
0300
1000
0100
0000
0010
0001
,
0000
1000
0010
0000
0100
0001
0100
0001
,
1000
0010
0000
0100
0001
0000
0010
0001
,
0000
1000
0100
0000
1000
0001
0010
0100
,
1000
0001
0100
0010
1000
0000
0100
0000
,
0010
0001
1000
0100
0010
0000
0100
0000
,
1000
0001
1000
0001
1000
0010
0100
0001
,
2000
0000
0000
0000
0000
3000
0000
0000
,
1000
0001
0010
0001
0010
0001
1000
0001
,
2000
0000
3000
0000
0010
0100
0010
0100
,
0001
0100
0010
1000
0010
0100
0001
1000
,
0002
0000
0003
0000
0200
0300
0010
0100
,
0001
1000
0010
1000
0010
1000
0001
0100
,
0002
0000
0003
0000
0100
0010
0100
0010
,
1000
0010
0100
0001
0100
0010
1000
0100
,
2000
0000
3000
0000
0002
0003
0100
0010
,
1000
0001
0100
0010
0100
0000
0001
0000
,
1000
0100
0010
0001
0020
0000
0030
0000
,
0001
0100
0001
0100
0001
1000
0010
1000
,
0200
0000
0300
0000
0020
0030
0001
0100
,
0001
0100
0010
1000
0001
0000
0100
0000
,
0010
1000
0001
1000
0200
0000
0300
0000
,
1000
0010
1000
0010
1000
0010
0100
0001
,
0200
0000
0300
0000
0020
0030
1000
0100
,
0010
0001
0010
0100
,
1000
0001
0010
0100
,
1000
0001
0010
0100
,
1000
0001
0010
0100
,
1000
0100
0010
0000
0001
0010
0100
0000
,
0010
0000
0100
0000
1000
0001
0100
0010
,
0100
0001
1000
0000
0001
0100
0010
0000
,
1000
0000
0001
0000
0010
0100
0010
0001
,
0010
0100
1000
0000
0100
0010
0001
0000
,
0100
0000
0010
0000
1000
0001
0100
0010
,
0100
0010
1000
0000
0001
0100
0010
0000
,
0100
0000
0001
0000
0010
0001
1000
0100
,
1000
0010
0100
0000
0010
1000
0100
0000
,
1000
0000
0010
0000
1000
0100
0010
0100
,
1000
0001
0100
0000
0010
0100
0001
0000
,
1000
0100
0020
0000
0000
0000
0000
0000
,
0130
0000
1000
0001
0010
0000
0100
1000
,
0100
0000
0010
0000
0100
0000
1000
0010
,
0100
0001
0020
0000
0030
0000
0001
0000
,
1000
0000
0010
0000
0100
0010
0100
0010
,
1000
0001
1000
0100
0010
0000
0001
0000
,
1000
0010
0100
0010
1000
0000
0001
0000
,
0100
0010
0100
0010
0100
0001
0100
0010
,
2000
0000
0000
0000
0000
0000
0000
3000
,
0100
1000
0001
0100
0010
0000
0100
0000
,
0001
0010
0100
0010
0001
0000
1000
0000
,
0010
0100
0002
0000
0000
0000
0000
0000
,
0000
0000
0003
0000
,
1000
0010
0000
0100
0001
0000
1000
0010
,
1000
0010
0000
1000
0100
0000
0010
0001
,
0010
0100
0000
1000
0100
0000
0010
0100
,
1000
0010
0000
0100
0000
0000
0001
0010
,
0100
0000
0010
0001
0000
1000
0100
0000
,
1000
0010
0000
0100
0001
0100
0001
0100
,
0010
0000
0000
1000
0001
1000
0010
0000
,
0100
0001
0000
0010
0001
0000
1000
0000
,
0001
0010
0100
1000
0001
0000
0010
0000
,
0001
0100
0010
1000
0010
0000
0100
0000
,
0001
0010
0100
1000
0100
0000
0010
0000
,
0100
1000
0100
1000
0100
0000
0010
0000
,
0001
0010
0100
1000
0001
0000
1000
0000
,
0001
0100
0010
1000
0001
0000
0100
0000
,
0001
1000
0010
0100
0001
1000
0010
0100
,
0002
0000
0000
0003
,
1000
0100
0010
0100
1000
0000
0001
0000
,
1000
0010
0100
0001
0010
0000
0001
0000
,
0010
0001
1000
0010
1000
0100
1000
0001
,
0020
0000
0000
0000
0000
0000
0000
0030
,
0001
1000
0100
1000
0010
0000
0100
0000
,
0001
0100
0010
1000
0100
0000
1000
0000
,
0010
0100
0010
0100
0001
0100
0010
1000
,
0002
0000
0000
0003
,
0001
1000
0001
1000
,
0001
1000
0001
1000
,
0001
0100
0010
0100
,
0001
0100
0010
0100
,
0001
1000
0010
0100
,
0010
1000
0010
0100
,
0010
1000
0001
0010
,
0100
1000
0100
0010
,
0001
0000
0000
0100
0000
0000
0010
0000
,
0000
0100
0000
0000
0001
0000
1000
0000
,
0010
0000
0000
0100
0000
0000
0010
0000
,
1000
0100
0010
0001
,
1000
0000
0000
0001
0000
0000
0010
0000
,
0000
0001
0000
0000
0010
0000
0100
0000
,
0010
0000
0000
0001
0000
0000
1000
0000
,
0001
0010
0100
1000
,
0001
0000
0000
1000
0000
0000
0100
0000
,
0000
1000
0000
0000
0001
0000
0100
0000
,
0010
0000
0000
0100
0000
0000
0001
0000
,
1000
0010
0100
0001
,
1000
0000
0000
0010
0000
0000
0100
0000
,
0000
0001
0000
0000
0010
0000
0001
0000
,
0100
0000
0000
0010
0000
0000
0100
0000
,
0001
0100
0010
1000
,
0010
0100
0010
0000
,
1000
0100
0010
0000
,
0001
0010
0001
0010
,
0002
0000
0000
0003
,
1000
0001
0100
0000
,
0010
1000
0100
0000
,
1000
0001
1000
0001
,
2000
0000
0000
3000
,
0001
0010
0001
0000
,
1000
0010
0100
0000
,
0001
0100
0001
0100
,
0002
0000
0000
0003
,
0001
0010
0100
0000
,
1000
0001
0100
0000
,
0001
0100
0010
1000
0100
0010
0001
1000
,
0001
0100
0001
0100
0001
0100
0001
1000
0010
0100
0001
0100
0010
1000
0100
0010
,
0002
0003
0000
0000
;

//--------------- dance-single - RxSteps ----------------
#NOTES:
     dance-single:
     RxSteps:
     Hard:
     9:
     0,0,0,0,0:
0001
0100
0010
0000
,
0010
1000
0001
0000
,
0100
0010
1000
0000
0001
0000
0000
0000
,
0100
0001
1000
0000
,
0001
1000
0010
0000
0100
0000
0000
0000
,
0001
1000
0100
0000
,
1000
0001
0100
0010
1000
0001
0100
0010
,
1000
0001
0000
0000
0100
0001
0000
0000
,
1000
0001
0100
0010
1000
0001
0100
0010
,
1000
0001
0100
0010
1000
0001
0100
0010
,
0100
0001
0010
0100
1000
0100
0010
0001
,
0100
0010
1000
0100
0010
0001
0100
0010
,
1000
0010
0100
0001
0010
0001
0010
0001
,
1000
0010
0100
0001
0010
0001
0010
0001
,
1000
0010
0100
0010
1000
0100
0010
0100
,
1000
0001
0100
0010
0100
0001
1000
0010
,
0100
0001
0010
0001
1000
0010
1000
0001
,
0010
0001
1000
0100
0010
0100
1000
0001
,
1000
0001
0010
0100
1000
0100
0010
0001
,
0100
0010
1000
0010
0100
0001
1000
0100
,
0010
0000
0100
0000
1000
0000
0100
0000
0020
0030
0000
0000
0001
0000
0000
0000
,
1000
0001
0100
0001
1000
0000
0010
0000
,
1000
0100
1000
0100
1000
0100
0010
0001
,
0200
0001
0001
0301
,
0001
1000
0100
0010
0100
1000
0100
1000
,
0001
0100
0010
0100
0001
1000
0001
1000
,
0010
0100
0010
0100
0010
1000
0100
0010
,
0002
1000
1000
1003
,
1000
0001
0100
0010
1000
0100
1000
0001
,
0100
0010
1000
0001
0010
0100
0010
0001
,
1000
0010
1000
0010
1000
0001
0100
0010
,
2000
0000
0000
3000
,
0001
0010
0100
1000
0010
0100
0010
1000
,
0001
0100
0010
1000
0100
1000
0100
0010
,
0100
1000
0010
0100
0001
0010
0001
1000
,
0200
0000
0010
0000
0010
0000
0010
0300
,
1000
0001
0010
0001
0100
0010
0100
0001
,
1000
0010
0100
0001
0010
0001
0010
0001
,
0100
0010
1000
0100
1000
0010
0100
0001
,
0020
0000
0100
0000
0100
0000
0100
0030
,
0001
1000
0010
0100
0001
1000
0100
0010
,
0001
0010
0100
0010
0001
1000
0100
1000
,
0010
0100
0010
0100
0010
1000
0100
0010
,
0002
1000
1000
1003
,
1000
0010
0100
0010
0100
0001
1000
0001
,
0010
0001
0100
0010
1000
0001
0100
0010
,
1000
0100
1000
0100
1000
0001
0100
0010
,
1000
0100
0010
0001
0100
0010
1000
0001
,
0010
0200
0300
1000
0100
0000
0010
0001
,
0000
1000
0010
0000
0100
0001
0100
0001
,
1000
0010
0000
0100
0001
0000
0010
0001
,
0000
1000
0100
0000
1000
0001
0010
0100
,
1000
0001
0100
0010
1000
0000
0100
0000
,
0010
0001
1000
0100
0010
0000
0100
0000
,
1000
0001
1000
0001
1000
0010
0100
0001
,
0010
0100
1000
0010
0100
0001
0100
0010
,
1000
0001
0010
0001
0010
0100
1000
0001
,
1000
0010
0100
0001
0010
0100
0010
0100
,
1000
0001
0100
0010
0100
0001
1000
0010
,
1000
0100
0010
0001
0200
0300
0010
0100
,
0001
1000
0010
1000
0100
1000
0001
0100
,
0001
0010
0100
1000
0010
0100
0010
1000
,
0001
0100
0010
1000
0010
0100
0001
1000
,
0001
0010
0100
0010
0002
0003
0100
0010
,
1000
0001
0100
0010
1000
0010
0100
0001
,
0010
0001
0100
0001
0010
0001
0010
0001
,
0100
0001
0100
0001
0100
0010
1000
0100
,
0020
0000
0001
0000
0001
0030
0001
1000
,
0001
0010
0100
0010
0001
1000
0001
0100
,
0010
1000
0100
1000
0010
0100
0010
1000
,
0001
0010
0001
0010
0001
0100
0010
1000
,
0200
0000
1000
0000
1000
0300
1000
0001
,
0100
0001
0010
0100
,
1000
0001
0010
0100
,
1000
0001
0010
0100
,
1000
0001
0010
0100
,
1000
0100
0010
0001
0010
0100
1000
0100
,
0010
0001
0010
0100
1000
0001
0100
0010
,
0100
0001
1000
0010
0100
0001
0100
0010
,
1000
0010
0100
0001
1000
0100
0010
0100
,
1000
0001
0010
0100
0010
0001
1000
0100
,
0010
0100
1000
0001
0100
0010
1000
0100
,
0010
0001
0100
0010
0100
0001
1000
0010
,
0100
0010
1000
0001
0010
0001
1000
0010
,
0100
0001
1000
0010
0100
0001
0010
0100
,
1000
0001
0100
0010
1000
0100
0010
0100
,
1000
0001
0100
0010
0100
0001
1000
0010
,
1000
0100
0010
0001
0010
0001
0010
0100
,
1000
0100
1000
0001
0100
0010
0100
0010
,
1000
0100
0010
0001
0100
0010
1000
0100
,
1000
0001
0100
0010
1000
0010
1000
0001
,
0100
0001
0100
0001
0100
0010
1000
0100
,
0010
0100
1000
0100
0010
0100
0010
0001
,
0010
0100
0010
0001
0010
0001
0100
0010
,
1000
0001
1000
0001
1000
0001
0100
0010
,
2000
0000
0100
0000
0100
0000
0100
3000
,
0100
1000
0001
0100
0010
1000
0010
0100
,
0001
0010
0100
0010
0001
1000
0001
0100
,
0010
1000
0002
0000
0000
0000
0000
0000
,
0000
0000
0003
0000
,
1000
0100
0010
0001
0010
0100
0010
0001
,
1000
0010
0100
0001
1000
0010
0100
0001
,
1000
0100
0010
0001
1000
0100
0010
0001
,
0100
0010
0100
0001
1000
0100
1000
0010
,
0200
0300
0001
1000
0000
0010
0100
0000
,
0001
0010
0000
0001
1000
0000
0010
0100
,
0010
0000
1000
0001
0000
0100
0001
0000
,
1000
0010
0000
1000
0001
0100
0010
0100
,
0001
0010
0100
1000
0001
0010
0100
1000
,
0001
0010
0100
1000
0001
0010
0100
1000
,
0010
0100
0001
1000
0010
0100
0001
1000
,
0100
0010
0100
1000
0001
0100
0010
0100
,
0001
0100
0010
1000
0001
0100
0010
1000
,
0001
0100
0010
1000
0001
0100
0010
1000
,
0001
0100
0010
1000
0001
0100
0010
1000
,
0002
0010
0010
0013
,
1000
0100
0010
0001
0100
0010
0100
0001
,
1000
0010
0100
0001
0010
0001
0010
0100
,
0010
0001
0100
0010
1000
0100
1000
0001
,
0020
0000
0100
0000
0100
0000
0100
0030
,
0001
1000
0100
1000
0010
0100
0010
1000
,
0001
0100
0010
1000
0100
1000
0100
1000
,
0010
0100
0001
0010
0001
0100
0010
1000
,
0200
0000
0010
0000
0010
0000
0010
0300
,
0001
1000
0001
1000
,
0001
1000
0001
1000
,
0001
0100
0010
0100
,
0001
0100
0010
0100
,
0001
1000
0010
0100
,
0010
1000
0010
0100
,
0010
1000
0001
0010
,
0100
1000
0100
0010
,
0001
0100
0010
1000
,
0100
1000
0001
0010
,
0001
1000
0010
1000
,
0001
0010
0001
0010
0001
0010
0001
0010
,
0001
1000
0010
0100
,
0001
0010
0001
0100
,
0010
1000
0001
1000
,
0100
1000
0100
1000
0100
1000
0100
1000
,
0100
0010
0001
0100
,
0010
1000
0001
0100
,
0010
1000
0001
0100
,
0010
0100
0010
0100
0010
0100
0010
0100
,
0010
1000
0001
0100
,
0010
1000
0001
0010
,
0100
1000
0001
0100
,
0010
1000
0010
1000
0010
1000
0010
1000
,
0010
0100
0010
1000
,
0001
0100
0001
1000
,
0001
0100
0010
1000
0001
0100
0010
1000
,
0002
0000
0000
0003
,
1000
0100
0010
0100
,
1000
0001
0010
0001
,
1000
0100
0010
0001
1000
0100
0010
0001
,
2000
0000
0000
3000
,
0001
0010
0001
0100
,
0010
1000
0010
0100
,
0001
0010
0100
1000
0001
0010
0100
1000
,
0002
0000
0000
0003
,
1000
0010
0100
0010
,
1000
0000
0001
0000
0100
0000
0010
1000
,
0001
0100
0010
1000
0100
0010
0001
1000
,
0001
0100
0001
0100
0001
0100
0001
1000
0010
0100
0001
0100
0010
1000
0100
0010
,
0002
0003
0000
0000
;

//--------------- dance-single - RxSteps ----------------
#NOTES:
     dance-single:
     RxSteps:
     Challenge:
     11:
     0,0,0,0,0:
0001
0100
0010
0000
,
0010
1000
0001
0000
,
0100
0010
1000
0000
0001
0000
0000
0000
,
0100
0001
1000
0000
,
0001
1000
0010
0000
0100
0000
0000
0000
,
0001
1000
0100
0000
,
1000
0001
0100
0010
1000
0001
0100
0010
,
1000
0001
0000
0000
0100
0001
0000
0000
,
1000
0001
0100
0010
1000
0001
0100
0010
,
1000
0001
0100
0010
1000
0001
0100
0010
,
0100
0001
0010
0100
1000
0100
0010
0001
,
0100
0010
1000
0100
0010
0001
0100
0010
,
1000
0010
0100
0001
0010
0001
0010
0001
,
1000
0010
0100
0001
0010
0001
0010
0001
,
1000
0010
0100
0010
1000
0100
0010
0100
,
1000
0001
0100
0010
0100
0001
1000
0010
,
0100
0001
0010
0001
1000
0010
1000
0001
,
0010
0001
1000
0100
0010
0100
1000
0001
,
1000
0001
0010
0100
1000
0100
0010
0001
,
0100
0010
1000
0010
0100
0001
1000
0100
,
0010
0100
1000
0100
0010
0100
0010
0001
,
1000
0001
0100
0001
1000
0001
0010
0100
,
1000
0100
1000
0100
1000
0100
0010
0001
,
0010
0000
0010
0100
0000
1000
0010
0000
,
0010
1000
0100
0010
0100
1000
0100
1000
,
0001
0100
0010
0100
0001
1000
0001
1000
,
0010
0100
0010
0100
0010
1000
0100
0010
,
0001
0000
0001
0010
0000
0010
0100
0000
,
1000
0001
0100
0010
1000
0100
1000
0001
,
0100
0010
1000
0001
0010
0100
0010
0001
,
1000
0010
1000
0010
1000
0001
0100
0010
,
2000
0000
0000
3000
,
0001
0010
0100
1000
0010
0100
0010
1000
,
0001
0100
0010
1000
0100
1000
0100
0010
,
0100
1000
0010
0100
0001
0010
0001
1000
,
0100
0000
0100
0010
0000
0010
0001
0000
,
1000
0001
0010
0001
0100
0010
0100
0001
,
1000
0010
0100
0001
0010
0001
0010
0001
,
0100
0010
1000
0100
1000
0010
0100
0001
,
0010
0000
0010
0001
0000
0001
1000
0000
,
0001
1000
0010
0100
0001
1000
0100
0010
,
0001
0010
0100
0010
0001
1000
0100
1000
,
0010
0100
0010
0100
0010
1000
0100
0010
,
0001
0000
0001
0100
0000
0100
0010
0000
,
1000
0010
0100
0010
0100
0001
1000
0001
,
0010
0001
0100
0010
1000
0001
0100
0010
,
1000
0100
1000
0100
1000
0001
0100
0010
,
1000
0100
0010
0001
0100
0010
1000
0001
,
0010
0100
0010
0001
0100
0010
1000
0001
,
0100
0001
0010
0100
1000
0001
0100
0001
,
1000
0010
0100
0010
1000
0100
0010
0001
,
0010
0001
0100
0010
1000
0001
0010
0100
,
1000
0001
0100
0010
1000
0100
1000
0100
,
0010
0001
1000
0100
0010
0100
0010
0100
,
1000
0001
1000
0001
1000
0010
0100
0001
,
0010
0100
1000
0010
0100
0001
0100
0010
,
1000
0001
0010
0001
0010
0100
1000
0001
,
1000
0010
0100
0001
0010
0100
0010
0100
,
1000
0001
0100
0010
0100
0001
1000
0010
,
1000
0100
0010
0001
0200
0300
0010
0100
,
0001
1000
0010
1000
0100
1000
0001
0100
,
0001
0010
0100
1000
0010
0100
0010
1000
,
0001
0100
0010
1000
0010
0100
0001
1000
,
0001
0010
0100
0010
0002
0003
0100
0010
,
1000
0001
0100
0010
1000
0010
0100
0001
,
0010
0001
0100
0001
0010
0001
0010
0001
,
0100
0001
0100
0001
0100
0010
1000
0100
,
0010
0100
1000
0100
0020
0030
0001
1000
,
0001
0010
0100
0010
0001
1000
0001
0100
,
0010
1000
0100
1000
0010
0100
0010
1000
,
0001
0010
0001
0010
0001
0100
0010
1000
,
0100
0010
0100
1000
0002
0003
1000
0001
,
0100
0001
0010
0100
,
1000
0001
0010
0100
,
1000
0001
0010
0100
,
1000
0001
0010
0100
,
1000
0100
0010
0001
0010
0100
1000
0100
,
0010
0001
0010
0100
1000
0001
0100
0010
,
0100
0001
1000
0010
0100
0001
0100
0010
,
1000
0010
0100
0001
1000
0100
0010
0100
,
1000
0001
0010
0100
0010
0001
1000
0100
,
0010
0100
1000
0001
0100
0010
1000
0100
,
0010
0001
0100
0010
0100
0001
1000
0010
,
0100
0010
1000
0001
0010
0001
1000
0010
,
0100
0001
1000
0010
0100
0001
0010
0100
,
1000
0001
0100
0010
1000
0100
0010
0100
,
1000
0001
0100
0010
0100
0001
1000
0010
,
1000
0100
0010
0001
0010
0001
0010
0100
,
1000
0100
1000
0001
0100
0010
0100
0010
,
1000
0100
0010
0001
0100
0010
1000
0100
,
1000
0001
0100
0010
1000
0010
1000
0001
,
0100
0001
0100
0001
0100
0010
1000
0100
,
0010
0100
1000
0100
0010
0100
0010
0001
,
0010
0100
0010
0001
0010
0001
0100
0010
,
1000
0001
1000
0001
1000
0001
0100
0010
,
2000
3000
0000
0000
1000
0000
0020
0000
0000
0000
0030
0000
0100
0000
0000
0000
,
0001
1000
0001
0100
0010
1000
0010
0100
,
0001
0010
0100
0010
0001
1000
0001
0100
,
0010
1000
0002
0000
0000
0000
0000
0000
,
0000
0000
0003
0000
,
1000
0100
0010
0001
0010
0100
0010
0001
,
1000
0010
0100
0001
1000
0010
0100
0001
,
1000
0100
0010
0001
1000
0100
0010
0001
,
0100
0010
0100
0001
1000
0100
1000
0010
,
0100
0010
1000
0001
0100
0010
0100
0001
,
0010
0100
1000
0001
1000
0100
0010
0100
,
0020
0030
0001
1000
0100
0010
0001
0100
,
0001
1000
0010
0100
0001
0010
0100
0010
,
0001
0010
0100
1000
0001
0010
0100
1000
,
0001
0010
0100
1000
0001
0010
0100
1000
,
0010
0100
0001
1000
0010
0100
0001
1000
,
0100
0010
0100
1000
0001
0100
0010
0100
,
0001
0100
0010
1000
0001
0100
0010
1000
,
0001
0100
0010
1000
0001
0100
0010
1000
,
0001
0100
0010
1000
0001
0100
0010
1000
,
0001
0010
0001
0010
0001
0010
0002
0003
,
1000
0100
0010
0001
0100
0010
0100
0001
,
1000
0010
0100
0001
0010
0001
0010
0100
,
0010
0001
0100
0010
1000
0100
1000
0001
,
0020
0030
0001
1000
0001
0100
0010
0100
,
0001
1000
0100
1000
0010
0100
0010
1000
,
0001
0100
0010
1000
0100
1000
0100
1000
,
0010
0100
0001
0010
0001
0100
0010
1000
,
0200
0300
0100
1000
0100
0010
0001
0100
,
0001
1000
0001
1000
,
0001
1000
0001
1000
,
0001
0100
0010
0100
,
0001
0100
0010
0100
,
0001
1000
0010
0100
,
0010
1000
0010
0100
,
0010
1000
0001
0010
,
0100
1000
0100
0010
,
0001
0010
0100
1000
0100
0010
0001
0010
,
0100
1000
0010
0100
0001
0100
0010
1000
,
0001
0010
0100
1000
0010
0100
0010
1000
,
0001
0010
0001
0010
0001
0010
0001
0010
,
0001
1000
0010
0100
0010
1000
0001
0010
,
0100
1000
0001
0010
0100
1000
0010
0100
,
0001
0010
0001
0100
0010
1000
0001
0010
,
0100
1000
0100
1000
0100
1000
0100
1000
,
0100
0010
0001
0010
0100
1000
0001
0010
,
0001
1000
0100
1000
0001
0100
0010
1000
,
0010
0100
0001
1000
0001
0100
0001
1000
,
0010
0100
0010
0100
0010
0100
0010
0100
,
0010
1000
0010
0100
0001
1000
0010
0100
,
0001
0100
0010
1000
0100
0010
0001
1000
,
0100
0010
0001
0010
0100
1000
0100
1000
,
0010
1000
0010
1000
0010
1000
0010
1000
,
0010
0100
0001
1000
0010
0100
0010
1000
,
0001
0010
0100
0010
0001
0010
0100
1000
,
0001
0100
0010
1000
0001
0100
0010
1000
,
0002
0000
0000
0003
,
1000
0001
0100
0010
1000
0001
1000
0100
,
0010
0100
1000
0100
0010
0001
1000
0001
,
0010
0100
0010
0001
1000
0100
0010
0001
,
2000
0000
0000
3000
,
0001
0010
0100
0010
0001
0010
0001
1000
,
0001
1000
0010
1000
0001
1000
0010
0100
,
0001
0010
0100
1000
0001
0010
0100
1000
,
0002
0000
0000
0003
,
1000
0001
0100
0010
1000
0001
0100
0010
,
0100
0001
0010
0001
0100
0010
1000
0001
,
0100
0010
0100
0001
0010
0100
1000
0001
,
1000
0010
1000
0010
1000
0010
1000
0001
0100
0010
1000
0010
0100
0001
0010
0100
,
2000
3000
0000
0000
;
