#TITLE:Illusion;
#SUBTITLE:;
#ARTIST:Dua Lipa;
#TITLETRANSLIT:;
#SUBTITLETRANSLIT:;
#ARTISTTRANSLIT:;
#GENRE:;
#CREDIT:RxSteps;
#MUSIC:Illusion.ogg;
#BANNER:illusion.png;
#BACKGROUND:Illusion-bg.png;
#CDTITLE:cdtitle.png;
#SAMPLESTART:29.550;
#SAMPLELENGTH:24.567;
#SELECTABLE:YES;
#OFFSET:0.686;
#BPMS:0.000=127.000;
#STOPS:;
#BGCHANGES:;
#FGCHANGES:;

//--------------- dance-single - RxSteps ----------------
#NOTES:
     dance-single:
     RxSteps:
     Beginner:
     4:
     0,0,0,0,0:
0000
0000
0002
0000
,
0000
0000
0003
0000
,
0000
0001
1000
0001
0000
0100
0001
0100
,
0001
0000
0001
0000
0000
0000
0000
0100
,
0000
0001
0100
0001
0000
1000
0010
1000
,
0010
0010
0100
0001
,
0000
0100
0001
0100
0000
0001
1000
0001
,
0100
0000
0100
0000
0000
0000
0000
0010
,
0000
1000
0010
1000
0000
0010
0100
0010
,
0100
0100
0001
1000
,
0010
1000
0100
0010
,
0001
0010
0100
2000
,
3000
0001
0100
0010
,
0100
0001
1000
0020
,
0030
1000
0001
0100
,
0010
1000
0100
2000
,
3000
0001
1000
0001
1000
0001
1000
0000
,
0010
0100
0001
1000
,
0220
0000
0330
0000
0000
0000
0001
0100
,
0001
0000
0000
2000
0000
0000
3000
0000
,
0001
0010
0100
0010
,
0002
0000
0000
0100
0003
0000
0100
0000
,
0001
1000
0100
0010
,
0010
0001
0100
0001
,
0100
0001
0100
0001
0100
0001
0100
0000
,
0010
1000
0010
0100
,
0001
0001
1000
0100
,
0010
0010
0100
1000
,
0001
0100
0010
0100
,
0001
1000
0010
1000
,
0002
0003
0000
1000
,
0010
0010
1000
0001
,
0010
0010
0100
1000
,
0001
0001
0100
0100
,
0000
0001
0100
0001
0000
1000
0100
1000
,
0100
1000
0010
0100
,
0001
1000
0001
1000
0000
0010
1000
0010
,
1000
0001
0100
0010
,
1000
0100
1000
0100
0000
1000
0001
1000
,
0001
0000
0100
0000
0010
0000
1000
0001
,
0000
0010
0000
0001
0000
1000
0001
1000
,
0001
0100
0010
0010
,
1000
0001
0100
0010
,
1000
0100
0010
0002
,
0003
0100
0010
1000
,
0001
0010
0100
2000
,
3000
0100
1000
0010
,
0100
0010
0100
0002
,
0003
1000
0001
1000
0001
1000
0001
1000
,
0001
0100
0010
1000
,
0220
0000
0330
0000
0000
0000
1000
0010
,
1000
0000
0000
0002
0000
0000
0003
0000
,
1000
0100
0010
0100
,
2000
0000
0000
0010
3000
0000
0010
0000
,
1000
0001
0010
0100
,
0100
1000
0010
1000
,
0010
1000
0010
1000
0010
1000
0010
0000
,
0100
0001
0100
0010
,
1000
1000
0001
0010
,
0100
0100
0010
0001
,
1000
0010
0100
0010
,
1000
0001
0100
0001
,
2000
3000
0000
0001
,
0100
0100
0001
1000
,
0100
0100
0010
0001
,
1000
1000
0010
0010
,
2000
0000
3000
0002
0000
0000
0003
0100
,
0001
0100
0001
0100
0001
0200
0000
0300
,
0020
0000
0000
2030
0000
3000
0000
0100
,
1000
0100
1000
0100
1000
0100
1000
0000
,
0002
0000
0003
0200
0000
0300
0000
0001
,
1000
0001
1000
0001
2000
3000
0000
0010
,
0100
0010
0100
0010
0100
0000
0000
0000
,
0001
1000
0010
0100
,
2002
3003
0000
0001
,
0100
0010
1000
0001
,
0010
0100
1000
0100
,
0010
0001
0100
0010
,
0100
0001
1000
0010
,
0100
0001
0010
0100
,
1000
0100
0010
0001
,
0100
0100
0001
0001
,
2002
0000
3003
0000
0000
0000
0001
0010
,
0001
0000
0000
2000
0000
0000
3000
0000
,
0001
0100
0010
0100
,
0002
0000
0000
0010
0003
0000
0010
0000
,
0001
1000
0010
0100
,
0100
0001
0010
0001
,
0010
0001
0010
0001
0010
0001
0010
0000
,
0100
0000
1000
0000
0100
1000
0100
1000
,
0001
0001
1000
0010
,
0100
0100
0010
1000
,
0001
0010
0100
0010
,
0001
1000
0100
1000
,
0002
0003
0000
1000
,
0100
0100
1000
0001
,
0100
0100
0010
1000
,
0001
0001
0010
0010
,
0100
0000
0100
0000
2000
0000
0000
0002
,
0000
3003
0000
0000
;

//--------------- dance-single - RxSteps ----------------
#NOTES:
     dance-single:
     RxSteps:
     Easy:
     6:
     0,0,0,0,0:
0000
0000
0002
0000
,
0000
0000
0000
0003
,
0100
0001
0100
0010
0000
1000
0001
1000
,
0010
0000
0010
0000
0000
0000
0100
0001
,
0000
1000
0010
1000
0000
0001
0100
0010
,
1000
1000
0001
0100
,
0010
1000
0001
0000
0000
0001
0100
0010
,
0100
0000
0200
0000
0000
0000
0300
0001
,
0000
1000
0001
1000
0000
0010
0100
0010
,
1000
0001
0010
0100
,
1000
0000
0001
0100
0001
0100
0010
0000
,
1000
0100
1000
0100
0020
0000
0100
0000
,
0130
0000
1000
0100
0010
0001
0010
0000
,
0001
1000
0001
0100
0020
0000
0100
0000
,
0130
0000
0001
0010
0100
1000
0100
0000
,
1000
0010
1000
0010
0100
0000
0002
0003
,
0010
0001
0010
0001
1000
0001
1000
0010
,
0100
0100
0001
1100
,
0101
0000
1000
0000
0010
0000
0100
0010
,
0200
0300
0001
0200
0000
0000
0310
0000
,
1000
0100
1000
0001
0100
0001
0010
0001
,
2000
0000
0000
3100
0000
1000
0100
0010
,
0002
0000
0100
0000
0103
0000
0001
1000
,
0200
0000
0300
0020
0000
0000
0030
0001
,
0010
0100
1000
0001
1000
0010
1000
0001
,
0100
0010
0100
0001
0100
0010
1000
0001
,
0100
0000
0200
0000
0301
0000
1000
0010
,
1000
0000
1000
0000
0001
0010
0100
0010
,
0001
0000
0001
0000
1000
0100
0010
0100
,
1000
0000
1000
0001
1000
0010
0100
0010
,
2000
0000
3001
0000
0100
0010
0100
0001
,
1000
0010
1000
0010
0100
0001
0100
0001
,
1000
0100
1000
0001
0100
0010
1000
0001
,
0100
0010
1000
0001
0100
0000
0100
0000
,
0001
0100
0001
1000
0000
0010
0100
0010
,
1000
0000
1000
0000
0001
0000
0010
0001
,
0000
0010
0100
0010
0000
0001
0100
0001
,
1000
0001
1000
0010
0100
0001
0010
0000
,
0001
0010
0001
1000
0000
0010
0100
0010
,
1000
0010
0100
0000
0010
0000
0010
0100
,
0001
0000
1000
0001
0000
1000
0010
1000
,
0001
0100
0001
0100
0001
1000
0010
0000
,
0010
0000
1000
0010
1000
0010
0100
0000
,
0001
0010
0001
0010
0200
0000
0010
0000
,
0310
0000
0001
0010
0100
1000
0100
0000
,
1000
0001
1000
0010
0200
0000
0010
0000
,
0310
0000
1000
0100
0010
0001
0010
0000
,
0001
0100
0001
0100
0010
0000
2000
3000
,
0100
1000
0100
1000
0001
1000
0001
0100
,
0010
0010
1000
0011
,
1010
0000
0001
0000
0100
0000
0010
0100
,
0020
0030
1000
0020
0000
0000
0130
0000
,
0001
0010
0001
1000
0010
1000
0100
1000
,
0002
0000
0000
0013
0000
0001
0010
0100
,
2000
0000
0010
0000
3010
0000
1000
0001
,
0020
0000
0030
0200
0000
0000
0300
1000
,
0100
0010
0001
1000
0001
0100
0001
1000
,
0010
0100
0010
1000
0010
0100
0001
1000
,
0010
0000
0020
0000
1030
0000
0001
0100
,
0001
0000
0001
0000
1000
0100
0010
0100
,
1000
0000
1000
0000
0001
0010
0100
0010
,
0001
0000
0001
1000
0001
0100
0010
0100
,
0002
0000
1003
0000
0010
0100
0010
1000
,
0001
0100
0001
0100
0010
1000
0010
1000
,
0001
0010
0001
1000
0010
0100
0001
1000
,
0010
0100
0001
1000
0010
0000
0010
0000
,
0100
0001
0000
0200
0000
0000
0310
0100
,
0001
0100
0010
1000
0001
0100
0000
0000
,
0200
0000
0010
0000
0001
0300
0010
1000
,
0001
1000
0001
0100
0001
1000
0100
0020
,
0001
0000
0100
0000
0032
0003
1000
0010
,
1000
0001
0100
0001
0010
0001
0000
0001
,
1000
0010
0100
0001
0100
0010
1000
0000
,
0002
0010
1000
0013
,
1010
0000
0001
1000
0001
1000
0010
1000
,
0001
0100
0001
1000
0010
0100
0010
1000
,
0010
0100
0001
1000
0010
0100
0010
0100
,
0001
1000
0010
1000
0001
1000
0010
1000
,
0001
0100
0010
1000
0010
0100
0001
1000
,
0100
1000
0100
0010
0001
0010
0001
0010
,
0100
1000
0100
1000
0001
0100
0010
1000
,
0001
0200
0010
0000
0001
0000
0310
0000
,
0011
0000
1000
0000
0100
0000
0010
0100
,
0020
0030
0001
0020
0000
0000
0130
0000
,
1000
0010
1000
0001
0010
0001
0100
0001
,
2000
0000
0000
3010
0000
1000
0010
0100
,
0002
0000
0010
0000
0013
0000
0001
1000
,
0020
0000
0030
0200
0000
0000
0300
0001
,
0100
0010
1000
0001
1000
0100
1000
0001
,
0010
0100
0010
0001
1000
0000
1000
0000
,
0110
0000
0001
0000
0010
0000
0100
0010
,
0200
0300
1000
0200
0000
0000
0310
0000
,
0001
0100
0001
1000
0100
1000
0010
1000
,
0002
0000
0000
0103
0000
0001
0100
0010
,
2000
0000
0100
0000
3100
0000
1000
0001
,
0200
0000
0300
0020
0000
0000
0030
1000
,
0010
0100
0001
1000
0001
0010
0001
1000
,
0100
0010
0100
1000
0100
0010
0001
0010
,
0001
0010
0001
0010
0001
1000
0020
0200
,
0000
0330
0000
0000
;

//--------------- dance-single - RxSteps ----------------
#NOTES:
     dance-single:
     RxSteps:
     Medium:
     7:
     0,0,0,0,0:
0000
0000
2000
0000
,
0000
0000
0000
3000
,
0001
1000
0100
0010
0000
0010
0100
1000
,
0001
0000
0020
0000
0000
0030
0010
0100
,
0000
1000
0001
0100
0000
0010
0100
0001
,
0010
0001
0000
0000
1000
0000
0000
0100
1000
0100
0000
0000
0010
0000
0000
0000
,
0001
0010
0100
0010
0000
0001
0010
0001
,
0100
0000
0020
0000
0000
0030
1000
0100
,
0000
0010
0100
1000
0000
0001
0100
0010
,
1000
0000
0000
0000
0100
1000
0000
0000
0001
0020
0000
0000
0130
0000
0000
0000
,
0101
0000
0001
1000
0010
0100
0001
0010
,
0001
0100
0010
1000
0010
0200
0001
0000
,
0310
0000
1000
0100
0010
0001
1000
0010
,
0100
0001
1000
0010
0100
0020
1000
0000
,
0130
0000
0001
0010
0001
0100
0010
1000
,
0100
1000
0010
0100
0001
0020
0100
0000
,
0032
0103
0001
1000
0010
0100
0001
0000
,
1100
0101
0110
1001
,
0110
0000
1000
0001
0100
0010
1000
0100
,
0010
0001
0010
0100
0010
0001
1000
0001
,
1000
0001
0100
0010
0100
0001
0100
0001
,
0020
0000
0000
0100
0000
0031
0010
0000
,
1100
0000
0110
0000
0011
0000
0001
0010
,
0200
0000
1300
0100
0010
0100
1000
0010
,
0100
0001
0010
0100
1000
0010
0100
0000
,
1100
0110
0011
1002
,
0103
0010
0100
0001
1000
0100
0010
0001
,
0200
0000
0010
0000
0001
0000
0310
1000
,
0200
0000
0010
0000
1000
0000
0310
0100
,
1000
0001
0100
0010
1000
0010
0100
0000
,
1100
0101
0110
1020
,
0130
0001
0100
0010
1000
0001
0010
0100
,
1000
0100
0010
0100
1000
0010
0100
0001
,
0010
0001
1000
0200
0010
0000
1300
0000
,
1000
0010
0100
0010
1000
0001
0100
0010
,
0100
0020
0000
0000
0100
0000
0000
0000
1000
0000
0000
0000
0130
0000
0010
0000
,
1000
0001
1000
0200
0300
0010
0001
1000
,
0001
0100
0010
1000
0100
0010
0001
0000
,
0001
0100
0010
2000
3000
0100
0010
0100
,
1000
0010
0200
0000
0010
0000
0301
0200
,
0310
0000
1000
0100
0000
1000
0001
0100
,
0010
0100
0001
1000
0100
0000
0101
0000
,
0110
0000
0001
1000
0001
0010
0100
0010
,
0001
1000
0100
1000
0010
0200
0001
0000
,
0310
0000
0100
0001
0010
0100
1000
0010
,
0100
0001
1000
0100
0010
0200
1000
0000
,
0010
0300
0100
1000
0010
0100
0001
1000
,
0010
1000
0100
1000
0001
0020
0100
0000
,
0031
0010
0100
1000
0001
1000
0010
0000
,
0011
1010
0110
1001
,
0110
0000
0001
1000
0010
0100
0001
0010
,
0100
1000
0100
0010
0100
1000
0001
1000
,
0001
1000
0010
0100
0010
1000
0010
1000
,
0200
0000
0000
0010
0000
1300
0100
0000
,
0011
0000
0110
0000
1100
0000
1000
0100
,
0020
0000
0031
0010
0100
0010
0001
0100
,
0010
1000
0100
0010
0001
0100
0010
0000
,
0011
0110
1100
2001
,
3010
0100
0010
1000
0001
0010
0100
1000
,
0020
0000
0100
0000
1000
0000
0130
0001
,
0020
0000
0100
0000
0001
0000
0130
0010
,
0001
1000
0010
0100
0001
0100
0010
0000
,
0011
1010
0110
0201
,
0310
1000
0010
0100
0001
1000
0100
0010
,
0001
0010
0100
0010
0001
0100
0010
1000
,
0100
1000
0001
0020
0100
0000
0031
0010
,
0002
0000
0103
0020
0000
0000
0030
1000
,
0100
0010
0100
1000
0100
0020
0001
0000
,
0100
0000
0031
0010
0200
0000
1300
0001
,
0100
0010
0100
0001
1000
0100
0010
0200
,
1000
0000
0310
0100
1000
0001
0100
0010
,
1000
0001
0100
0010
1000
0010
0000
0010
,
0100
0001
1000
0100
0010
0002
0003
0000
,
1001
0110
1001
1100
,
0021
0130
1000
0100
0010
0001
0010
0100
,
0010
0001
0100
0010
1000
0001
1000
0100
,
0010
0001
0100
0010
1000
0100
1000
0001
,
0100
0010
1000
0001
1000
0010
1000
0000
,
0101
0000
1200
0310
0001
0010
0100
1000
,
0010
0100
0010
1000
0100
0010
0100
1000
,
0001
0100
0010
1000
0001
0010
0100
0000
,
0011
0110
1100
1001
,
0110
0000
1000
0001
0010
0100
1000
0010
,
0100
0001
0100
0010
0100
0001
1000
0001
,
0100
0010
1000
0001
0010
0100
0010
0001
,
0200
0000
0000
0010
0000
0301
0100
0000
,
1100
0000
0101
0000
1010
0000
0001
0100
,
0020
0000
1030
0010
0100
0010
1000
0100
,
0010
0001
0100
0010
1000
0100
0010
0000
,
1100
0101
0021
0130
,
1010
0000
0001
0100
0010
1000
0001
0100
,
0010
1000
0010
0100
0010
1000
0001
1000
,
0100
0010
0100
1000
0010
0100
0001
1000
,
0020
0000
0000
0100
0000
1030
0010
0000
,
0011
0000
0110
0000
1100
0000
1000
0010
,
0200
0000
0301
0100
0010
0100
0001
0010
,
0100
1000
0010
0100
0001
0010
0100
0000
,
0101
0000
0110
0000
1010
0000
1000
0001
,
0010
0100
0010
0001
1000
0010
0200
0002
,
0000
0303
0000
0000
;

//--------------- dance-single - RxSteps ----------------
#NOTES:
     dance-single:
     RxSteps:
     Hard:
     8:
     0,0,0,0,0:
0000
0000
2000
0000
,
0000
0000
0000
3000
,
0001
1000
0100
0010
0000
0010
0100
1000
,
0001
0000
0020
0000
0000
0030
0010
0100
,
0000
1000
0001
0100
0000
0010
0100
0001
,
0010
0001
0000
0000
1000
0000
0000
0100
1000
0100
0000
0000
0010
0000
0000
0000
,
0001
0100
1000
0200
0300
0001
0010
0001
,
0100
0000
0020
0000
0000
0030
1000
0100
,
0000
0010
0100
1000
0000
0001
0100
0010
,
1000
0000
0000
0000
0100
1000
0000
0000
0001
0020
0000
0000
0130
0000
0000
0000
,
0101
0000
0001
1000
0010
0100
0001
0010
,
0001
0100
0010
1000
0010
0100
0001
0100
,
1000
0100
0001
0010
0100
1000
0001
0100
,
0010
1000
0200
0301
1000
0010
0001
0100
,
1000
0100
0001
0010
0001
0100
0010
1000
,
0100
1000
0010
0100
0001
0010
1000
0010
,
0001
0100
0001
1000
0010
0100
0001
0100
,
1100
0101
0110
1001
,
0110
0000
1000
0001
0100
0010
1000
0100
,
0010
0001
0010
0100
0010
0001
1000
0001
,
0100
1000
0100
0001
0100
1000
0100
0001
,
0020
0000
0000
0100
0000
0031
0010
0100
,
1100
0000
0110
0000
0011
0000
0001
0010
,
0200
0000
1300
0100
0001
0100
1000
0010
,
0100
0001
0010
0100
1000
0010
0100
0001
,
1100
0110
0011
1002
,
0103
1000
0100
0001
0010
1000
0010
0001
,
0200
0000
0010
0000
0001
0000
0310
1000
,
0200
0000
0010
0000
1000
0000
0310
0100
,
1000
0001
0200
1300
0001
0010
0100
0001
,
1100
0101
0110
1020
,
0130
0001
0100
1000
0100
0001
0010
0100
,
1000
0100
0001
0100
1000
0010
0100
0001
,
0010
0001
1000
0200
0010
0000
1300
0000
,
1000
0010
0100
0010
1000
0001
0100
0010
,
0100
0020
0000
0000
0100
0000
0000
0000
1000
0000
0000
0000
0130
0000
0010
0000
,
1000
0001
1000
0200
0300
1000
0020
0031
,
1000
0100
0010
1000
0100
0010
0001
1000
,
0010
0100
0001
2000
3000
0100
0010
0100
,
1000
0010
0200
0000
0010
0000
0301
0200
,
2300
3000
0001
0020
0030
1000
0100
1000
,
0100
0000
0010
0000
0100
0000
1000
0000
0100
1000
0000
0000
0101
0000
0000
0000
,
0110
0000
0001
1000
0001
0010
0100
0010
,
0001
1000
0100
1000
0010
0100
0001
0010
,
1000
0010
0001
1000
0100
0010
0001
0100
,
0010
1000
0001
0010
0100
0010
0001
0100
,
1000
0100
0001
1000
0010
0100
0001
1000
,
0010
1000
0100
1000
0010
0100
0001
0010
,
1000
0010
0001
1000
0001
1000
0010
0100
,
0011
1010
0110
1001
,
0110
0000
0001
1000
0010
0100
0001
0010
,
0100
1000
0100
0010
0100
1000
0001
1000
,
0010
0001
0010
1000
0010
0001
0010
1000
,
0200
0000
0000
0010
0000
1300
0100
0010
,
0011
0000
1001
0000
1100
0000
1000
0100
,
0020
0000
0031
0010
1000
0010
0001
0100
,
0010
1000
0100
0010
0001
0100
0010
1000
,
0110
1001
0110
2001
,
3010
0001
0010
1000
0100
0001
0100
1000
,
0020
0000
0100
0000
1000
0000
0130
0001
,
0020
0000
0100
0000
0001
0000
0130
0010
,
0001
1000
0020
0031
1000
0100
0010
1000
,
0011
1010
0110
0201
,
0310
1000
0010
0001
0010
1000
0100
0010
,
0001
0010
1000
0010
0001
0100
0010
1000
,
0100
1000
0001
0020
0100
0000
0031
0010
,
0002
0000
0103
0020
0000
0000
0030
1000
,
0100
0010
0100
1000
0100
0020
0001
0000
,
0130
0000
0001
0010
0200
0000
0310
0001
,
0100
1000
0100
0001
1000
0100
0010
0200
,
1000
0000
0310
0100
1000
0001
0100
0010
,
1000
0200
0301
1000
0010
0100
0000
0010
,
0100
1000
0001
0200
1300
0001
0000
0010
,
1001
0110
1001
1100
,
0021
0130
1000
0100
0010
0001
0100
1000
,
0100
0001
0010
1000
0010
0001
1000
0100
,
0010
0001
0100
0010
1000
0100
1000
0001
,
0100
0010
1000
0001
1000
0010
1000
0100
,
0101
0000
1200
0310
0001
0010
0100
1000
,
0010
0001
0010
1000
0100
0001
0100
1000
,
0001
0100
0010
1000
0001
0010
0100
1000
,
0011
0110
1100
1001
,
0110
0000
1000
0001
0010
0100
1000
0010
,
0100
0001
0100
0010
0100
0001
1000
0001
,
0010
1000
0010
0001
0010
1000
0010
0001
,
0200
0000
0000
0010
0000
0301
0100
0010
,
1100
0000
0101
0000
1010
0000
0001
0100
,
0020
0000
1030
0010
0001
0010
1000
0100
,
0010
0001
0100
0010
1000
0100
0010
0001
,
1100
0101
0021
0130
,
1010
0000
0001
0100
0010
1000
0001
0100
,
0010
1000
0010
0100
0010
1000
0001
1000
,
0100
0001
0100
1000
0100
0001
0100
1000
,
0020
0000
0000
0100
0000
1030
0010
0100
,
0011
0000
0110
0000
1100
0000
1000
0010
,
0200
0000
0301
0100
1000
0100
0001
0010
,
0100
1000
0010
0100
0001
0010
0100
1000
,
0101
0000
0110
0000
1010
0000
1000
0001
,
0010
0100
0010
0001
0200
1300
0002
0020
,
0000
0033
0000
0000
;
