#TITLE:Hurricane;
#SUBTITLE:;
#ARTIST:Cannons;
#TITLETRANSLIT:;
#SUBTITLETRANSLIT:;
#ARTISTTRANSLIT:;
#GENRE:;
#CREDIT:RxSteps;
#MUSIC:Hurricane.ogg;
#BANNER:Hurricane.png;
#BACKGROUND:Hurricane-bg.png;
#CDTITLE:cdtitle.png;
#SAMPLESTART:35.222;
#SAMPLELENGTH:22.500;
#SELECTABLE:YES;
#OFFSET:2.278;
#BPMS:0.000=104.000;
#STOPS:;
#BGCHANGES:;
#FGCHANGES:;

//--------------- dance-single - RxSteps ----------------
#NOTES:
     dance-single:
     RxSteps:
     Beginner:
     3:
     0,0,0,0,0:
0000
0000
0000
0000
,
1000
0000
0010
0000
0000
0010
1000
0000
,
0001
0000
0100
0000
0000
0001
0100
0000
,
0010
0000
1000
0000
0000
0001
1000
0000
,
0010
0000
1000
0000
0000
0001
0100
0000
,
0010
0000
1000
0010
1000
0010
0000
0000
,
1000
0001
0100
0001
0100
0001
0000
0000
,
1000
0010
1000
0000
0100
0000
0010
0000
,
0001
0001
1000
0001
,
0100
0000
0001
0000
1000
0000
0010
0100
,
0010
0100
0010
0000
1000
0000
0001
1000
,
0001
1000
0001
0000
0100
0000
0010
0000
,
0010
0100
0000
0001
,
1000
0000
0010
0000
1000
0000
0100
1000
,
0100
1000
0100
0000
0010
0000
0001
0010
,
0001
0010
0001
0000
1000
0000
0001
0000
,
0100
0100
0010
1000
,
0010
1000
0010
0000
0100
0000
0001
0100
,
0001
0100
0000
0000
0010
0000
1000
0000
,
0100
1000
0100
0000
1000
0000
0001
0100
,
0001
0100
0000
0000
0010
0000
0010
0100
,
0010
0100
0010
0000
1000
0000
0001
0010
,
0001
0010
0000
0000
0001
0000
1000
0000
,
0010
0100
0010
0000
1000
0000
0100
1000
,
0100
1000
0100
0000
1000
0001
0000
1000
,
0001
1000
0010
0000
0100
0010
0000
0000
,
1000
0001
1000
0000
0010
0100
0000
0100
,
0010
0100
0010
0000
1000
0000
0001
0000
,
0001
1000
0010
0100
,
0001
0000
1000
0000
0001
0000
0010
0001
,
0010
0001
0010
0000
0100
0000
1000
0100
,
1000
0100
1000
0000
0001
0000
0100
0000
,
0100
0001
1000
0010
,
1000
0000
0001
0000
0010
0000
0100
1000
,
0100
1000
0100
0000
0010
0000
0001
1000
,
0001
1000
0001
0000
0100
0000
0001
0000
,
0001
0100
0100
0001
,
0100
0001
0100
0000
0010
0000
1000
0010
,
1000
0010
0000
0000
0100
0000
0001
0000
,
0010
0001
0010
0000
0001
0000
1000
0010
,
1000
0010
0000
0000
0100
0000
0100
0010
,
0100
0010
0100
0000
0001
0000
1000
0100
,
1000
0100
0000
0000
1000
0000
0001
0000
,
0100
0010
0100
0000
0001
0000
0010
0001
,
0010
0001
0010
0000
0001
1000
0000
0001
,
1000
0001
1000
0000
0010
0000
0100
0000
,
0001
1000
0100
0010
,
0001
0000
0010
0100
0010
0000
0001
0010
,
0001
0000
1000
0001
1000
0000
0010
1000
,
0010
0000
0100
0010
0100
0000
0001
0100
,
0001
0000
1000
0010
1000
0000
0001
0000
,
0100
0000
0100
0001
0100
0000
0010
0000
,
1000
0010
0000
0000
1000
0001
0000
0000
,
0001
0100
0001
0000
1000
0000
0010
1000
,
0010
1000
0000
0000
0001
0000
1000
0010
,
0000
0010
0000
0000
0100
0000
0001
0100
,
0000
0100
0000
0000
0010
0000
1000
0001
,
0000
0000
0100
0000
0001
0000
1000
0100
,
1000
0100
0000
0000
1000
0000
0001
0100
,
0000
0010
0000
0000
0100
0000
0010
0100
,
0000
0100
0000
0000
0001
0000
1000
0000
,
0100
1000
0100
0000
0010
0000
0001
0010
,
0001
0010
0000
0000
0100
0000
1000
0000
,
0010
1000
0010
0000
1000
0000
0001
0010
,
0001
0010
0000
0000
0100
0000
0100
0010
,
0100
0010
0100
0000
1000
0000
0001
0100
,
0001
0100
0000
0000
0001
0000
1000
0000
,
0100
0010
0100
0000
1000
0000
0010
1000
,
0010
1000
0010
0000
1000
0001
0000
1000
,
0001
1000
0001
0000
0100
0000
0001
0010
,
0001
0010
0001
0000
1000
0000
0001
1000
,
0001
1000
0001
0000
0100
0000
0001
0100
,
0001
0100
0001
0000
1000
0000
0100
1000
,
0100
1000
0100
0000
0010
0000
0001
0010
,
0001
0010
0001
0000
0100
0000
0010
0100
,
0010
0100
0010
0000
1000
0000
0001
0100
,
0001
0100
0001
0000
1000
0000
0010
1000
,
0002
0200
0000
0000
0000
0000
0000
0000
,
0303
0000
0000
0000
;

//--------------- dance-single - RxSteps ----------------
#NOTES:
     dance-single:
     RxSteps:
     Easy:
     5:
     0,0,0,0,0:
0000
0000
0000
0000
,
1000
0000
0001
0000
0100
0010
0100
0001
,
1000
0010
0100
0000
0000
0001
1000
0100
,
0010
0100
1000
0000
0000
0001
0100
0000
,
1010
0000
0000
0000
0001
0000
0000
0100
0000
0000
0001
0000
1000
0000
0000
0000
,
0010
0100
0001
0100
0010
1000
0001
0000
,
0100
0000
0001
0000
1000
0000
0010
0000
0100
0000
0010
0000
0000
0000
0000
1000
,
0010
1000
0001
0100
0010
1000
0000
0000
,
0011
0000
0000
0000
1000
0000
0000
0001
1000
0000
0001
0000
0100
0000
0000
0000
,
0010
0000
1000
0100
0010
0001
0100
0000
,
0010
1000
0001
0100
0010
0100
0001
1000
,
0001
0010
0001
0000
1000
0010
1000
0000
,
0011
0000
0000
0000
0001
0000
0000
0010
0001
0000
0010
0000
0100
0000
0000
0000
,
1000
0000
0001
0100
0010
0100
0001
0000
,
1000
0010
1000
0001
0100
0010
0100
0001
,
0010
0100
1000
0100
0010
0001
0010
0000
,
1010
0000
1000
0001
1000
0020
0100
0030
,
0100
0010
1000
0001
0010
0100
1000
0100
,
0010
0200
0300
1000
0001
1000
0010
0000
,
0100
0001
1000
0100
1000
0001
0100
0010
,
0100
0002
0000
0003
1000
0010
0100
0001
,
1000
0001
0100
0020
1000
0030
1000
0100
,
0010
0002
0003
0010
0001
1000
0200
0300
,
0010
0001
1000
0020
0100
0030
0100
0010
,
2000
0100
0000
3000
0200
0010
0300
0010
,
0001
0010
0001
1000
0010
0100
0010
0000
,
1000
0000
0001
0000
0010
0000
0100
0000
2000
0000
0100
0000
3000
0000
0000
0100
,
1000
0100
1000
0001
1000
0010
0100
0000
,
1001
0000
0000
0000
0001
0000
0000
0100
0000
0000
0001
0000
1000
0000
0000
0000
,
0010
0000
1000
0100
0010
0001
0010
0000
,
0100
0010
0001
1000
0001
0100
0001
0010
,
0001
1000
0100
0000
1000
0001
1000
0000
,
0110
0000
0000
0000
0001
0000
0000
1000
0000
0000
0001
0000
0010
0000
0000
0000
,
0001
0000
1000
0010
0100
0001
0100
0000
,
0010
1000
0001
1000
0010
0100
0001
0000
,
1000
0100
1000
0100
0010
0001
1000
0000
,
0010
0000
0000
0000
1000
0000
0000
0001
0100
0000
0002
0000
0100
0000
0003
0000
,
0100
0001
1000
0001
0100
0000
0001
1000
,
0100
0020
0030
0001
1000
0001
0100
0000
,
0010
1000
0001
0010
0001
1000
0010
0100
,
0010
2000
0000
3000
0001
0100
0010
1000
,
0001
1000
0010
0200
0001
0300
0001
0010
,
0100
2000
3000
0100
1000
0001
0020
0030
,
0100
1000
0001
0200
0010
0300
0010
0100
,
0002
0010
0000
0003
0020
0100
0030
0100
,
1000
0100
0010
0100
1000
0000
0001
0100
,
0010
0100
0001
0000
1000
0000
0010
0100
,
0010
0100
0001
0020
0100
0030
0100
1000
,
0100
0000
0010
0002
0010
0003
0010
0100
,
1000
0000
0001
1000
0001
0000
0100
0020
,
0100
0030
0100
0010
0100
0000
0001
1000
,
0001
0100
0010
1000
0010
0000
0100
0000
,
0001
0020
0000
0030
0100
2000
0000
3000
,
0100
0010
0001
0000
1000
0000
0001
0010
,
0002
2000
3003
0000
0110
0000
0001
2000
,
0000
0020
3030
0000
0011
0000
0001
0020
,
0000
0200
0330
0000
1001
0000
0000
1000
,
0100
0000
1000
0000
0010
0000
0100
0010
,
0200
0002
0303
0000
1100
0000
1000
0200
,
0000
0020
0330
0000
1001
0000
0001
0020
,
0000
0031
0000
0010
0100
2000
0100
3000
,
0100
1000
0010
0100
0002
0003
1000
0010
,
0100
0020
0030
1000
0001
1000
0100
0000
,
0010
0001
1000
0010
1000
0001
0010
0100
,
0010
0002
0000
0003
1000
0100
0010
0001
,
1000
0001
0010
0200
1000
0300
1000
0010
,
0100
0002
0003
0100
0001
1000
0020
0030
,
0100
0001
1000
0200
0010
0300
0010
0100
,
2000
0010
0000
3000
0020
0100
0030
0100
,
0001
0100
0010
1000
0001
0100
0010
0100
,
0001
1000
0000
0001
0100
0010
0100
0010
,
1000
0001
0000
0010
0001
0010
0001
1000
,
0100
1000
0000
0100
0010
0001
0010
0100
,
1000
0100
1000
0001
1000
0010
1000
0100
,
2000
0001
3000
0001
1000
0001
0100
0010
,
0200
0001
0300
0001
0100
0010
1000
0100
,
0020
0001
0030
0001
0010
0100
1000
0001
,
2000
0020
0000
0000
0000
0000
0000
0000
,
3030
0000
0000
0000
;

//--------------- dance-single - RxSteps ----------------
#NOTES:
     dance-single:
     RxSteps:
     Medium:
     8:
     0,0,0,0,0:
0000
0000
0000
0000
,
1000
0200
0010
0000
1300
0001
0100
0010
,
0100
0001
2000
3000
0001
0010
0001
0100
,
0010
1000
0002
0003
0100
0010
1000
0000
,
0021
0000
0030
0000
0100
0000
0000
1010
0000
0000
0100
0000
0002
0000
0003
0000
,
1000
0010
0100
0001
0010
0001
0100
0010
,
1000
0000
0001
0000
0100
0000
0010
0000
1000
0000
0100
0000
0010
0000
0100
1000
,
0100
0000
0010
0000
0001
0000
1000
0000
0010
0000
0100
0000
0001
0000
0000
1000
,
0100
0000
0010
0000
0001
0000
0000
0100
0010
0000
1000
0000
0001
0000
0000
0000
,
0110
1000
0100
0010
0001
0100
0010
0100
,
0001
0010
0100
1000
0001
0100
0010
1000
,
0001
0100
0010
0100
0001
0010
0100
0000
,
1002
0000
0003
0000
0100
0000
0000
0010
1000
0000
0100
0000
0020
0000
0000
0000
,
0031
0100
1000
0010
0100
0001
1000
0100
,
0010
0000
0100
0000
2000
3000
0000
0001
0010
0000
0100
0000
1000
0000
0010
0000
,
0100
0001
0010
0001
0100
0010
1000
0000
,
0201
0300
0010
1000
0001
0020
0100
0000
,
0130
0010
0001
0100
0010
1000
0001
1000
,
0001
0100
0010
1000
0100
0010
0200
0300
,
1000
0100
0020
0001
0130
1000
0010
0100
,
0010
1000
0001
0100
0010
1000
0100
0101
,
1200
0300
0010
0000
0001
0000
0100
0000
0010
0000
1000
0000
0001
0000
0100
0000
,
0001
1000
0010
0100
0001
1000
0010
0100
,
0001
0000
0100
0000
0010
0000
2000
0000
0100
0000
0000
3000
0100
0000
0020
0000
,
0001
0130
1000
0200
0010
1300
0001
0110
,
1002
0003
0100
0000
0010
0000
1000
0000
0001
0000
0100
0000
0010
0000
0100
0000
,
0001
0000
1000
0000
0010
0000
1000
0000
0100
0000
0010
0000
0002
0003
0000
0100
,
0010
0000
1000
0000
0001
0000
0010
0000
0001
0000
1000
0000
0010
0000
0000
0100
,
0001
0000
1000
0000
0010
0000
0000
0010
0100
0000
0001
0000
0020
0000
0000
0000
,
0130
0020
0030
0001
1000
0010
1000
0001
,
0100
0010
0100
0001
1000
0010
0100
0001
,
0010
0100
1000
0010
1000
0100
0010
0000
,
2001
0000
3000
0000
0010
0000
0000
0100
0001
0000
0010
0000
0200
0000
0000
0000
,
1300
0010
0001
0100
0010
1000
0001
0100
,
0010
0000
1000
0000
0002
0003
0000
0010
0100
0000
0010
0000
0001
0000
0100
0000
,
0010
1000
0100
1000
0010
0100
0001
1000
,
0010
0100
0001
1000
0001
0200
0010
0000
,
0310
0100
0001
0010
0100
1000
0001
1000
,
0001
0100
0010
0100
0001
2000
0100
0000
,
3100
0010
0200
1000
0310
0001
0100
0010
,
0100
0001
1000
0010
0100
0001
0010
1010
,
0021
0030
0100
0000
1000
0000
0010
0000
0100
0000
0001
0000
0010
0000
0100
0000
,
0010
0001
0100
0010
1000
0001
1000
0100
,
0010
0000
0001
0000
0100
0000
0002
0000
0010
0000
0000
0003
0010
0000
0200
0000
,
1000
0310
0001
0020
0100
0031
1000
0110
,
2001
3000
0010
0000
0100
0000
0001
0000
1000
0000
0010
0000
0100
0000
0010
0000
,
1000
0000
0001
0000
0010
0000
0000
0100
1000
0000
0001
0000
0100
0000
0010
0000
,
0100
0001
0010
0100
1000
0200
0010
1300
,
0001
0100
0010
1000
0001
0100
0010
1000
,
0001
0000
0010
0000
0100
0000
0000
1000
0010
0000
0100
0000
0001
0000
0100
0000
,
0010
0000
1000
0000
0001
0000
0000
0100
0010
0000
1000
0000
0001
0000
1000
0000
,
0010
0100
0001
1000
0100
1000
0001
0020
,
0100
0030
0001
0000
1000
0000
0020
0000
0100
0030
1000
0000
0001
0000
0200
0000
,
0010
0300
0001
0000
1000
0000
0000
0000
0220
0000
0330
0000
0001
0000
0010
0000
,
0002
0000
2000
0000
3003
0000
0000
0000
0110
0000
0000
0000
1000
0000
0002
0003
,
0100
0000
2200
0000
0000
3300
0000
0000
0201
0000
0300
0000
0010
0000
0100
0000
,
0002
0000
0020
0000
0000
0033
0000
0000
1020
0000
0000
0030
0100
0000
0101
0000
,
1200
0000
0310
0000
0101
0000
1000
0100
,
2000
0002
3003
0000
0110
0000
1000
0100
,
0010
0000
0202
0000
0000
0303
0000
0000
1020
0000
0030
0000
0100
0000
0001
0000
,
0020
0000
0200
0000
0000
0330
0000
0000
1002
0000
0000
0000
0203
0000
0000
0300
,
0010
0100
0001
0010
0001
1000
0010
0100
,
0001
0010
0100
1000
0010
0100
0020
0030
,
1000
0010
0200
0001
0310
1000
0100
0010
,
0100
0010
0001
0010
0100
1000
0010
0011
,
1020
0030
0100
0000
0001
0000
0010
0000
0100
0000
1000
0000
0001
0000
0100
0000
,
0001
1000
0100
0010
0001
1000
0010
0100
,
0001
0000
0010
0000
0100
0000
2000
0000
0010
0000
0000
3000
0010
0000
0200
0000
,
0001
0310
1000
0020
0100
1030
0001
0110
,
1001
0000
1100
0000
0201
0300
0010
0000
1000
0000
0001
0000
0100
0000
0010
0000
,
1000
0100
1000
0010
0100
0001
0010
0100
,
0010
0000
0001
0000
2000
3000
0000
0000
0220
0330
0000
0000
0001
0000
1000
0000
,
0100
0020
0001
0130
1000
0010
0100
0001
,
0010
0000
0001
0000
2000
3000
0000
0000
0110
0000
0001
0000
1000
0000
0010
0000
,
0100
0001
0010
0001
0100
0010
1000
0100
,
0010
0000
0100
0000
2000
3000
0000
0000
0201
0300
0010
0000
1000
0000
0001
0000
,
0100
0010
1000
0100
1000
0001
0010
0001
,
2000
0020
0000
0000
0000
0000
0000
0000
,
3030
0000
0000
0000
;

//--------------- dance-single - RxSteps ----------------
#NOTES:
     dance-single:
     RxSteps:
     Hard:
     9:
     0,0,0,0,0:
0000
0000
0000
0000
,
1000
0000
0200
0000
0010
0000
0000
0000
1300
0000
0020
0030
0001
0000
1000
0000
,
0100
0000
0010
0000
2000
0000
3000
0000
0001
0000
0010
0000
0200
0300
0001
0000
,
1000
0010
0002
0003
0100
0010
1000
0000
,
0021
0000
0030
0000
0100
0000
0000
1010
0000
0000
0100
0000
0002
0000
0003
0000
,
1000
0000
0010
0000
0100
0000
0001
0000
0010
0000
0001
0000
0100
0000
0020
0030
,
0001
0000
1000
0000
0100
0000
0010
0000
1000
0000
0100
0000
0010
0000
0100
1000
,
0010
0000
0100
0000
0001
0000
1000
0000
0010
0000
0100
0000
0001
0000
0000
1000
,
0100
0000
0010
0000
0001
0000
0000
0100
0010
0000
1000
0000
0001
0000
0000
0000
,
0110
0000
1000
0000
0100
0000
0010
0000
0001
0000
0100
0000
0020
0030
0001
0000
,
1000
0100
0010
1000
0001
0100
0010
1000
,
0001
0000
0200
0300
1000
0000
0100
0000
0001
0000
0010
0000
0100
0000
0000
0000
,
1002
0000
0003
0000
0100
0000
0000
0010
1000
0000
0100
0000
0020
0000
0000
0000
,
0031
0000
0100
0000
1000
0000
0010
0000
0100
0000
0001
0000
0200
0300
1000
0000
,
0001
0000
0010
0000
1000
0000
0200
0300
0001
0000
0100
0000
1000
0000
0010
0000
,
0100
0001
0010
0001
0100
0010
1000
0000
,
0201
0300
0010
1000
0001
0020
0100
0000
,
0130
0000
0010
0000
0001
0000
0200
0300
1000
0000
0010
0000
0001
0000
1000
0000
,
0001
0000
0100
0000
0010
0000
1000
0000
0200
0300
0001
0000
0200
0000
0300
0000
,
1000
0000
0100
0000
0020
0000
0001
0000
0130
0000
1000
0000
0020
0030
0001
0000
,
1000
0100
0001
0100
0010
1000
0100
0101
,
1200
0300
0010
0000
0001
0000
0100
0000
0010
0000
1000
0000
0200
0300
0001
0000
,
0100
0000
1000
0000
0010
0000
0100
0000
0001
0000
0100
0000
0020
0030
0001
0000
,
1000
0000
0100
0000
0010
0000
2000
0000
0100
0000
0000
3000
0100
0000
0020
0000
,
0001
0130
1000
0200
0010
1300
0001
0110
,
1002
0003
0100
0000
0010
0000
1000
0000
0001
0000
0100
0000
0010
0000
0200
0300
,
1000
0000
0001
0000
0010
0000
1000
0000
0100
0000
1000
0000
0002
0003
0000
0100
,
0010
0000
1000
0000
0200
0300
0001
0000
0100
0000
1000
0000
0010
0000
0000
0100
,
0001
0000
1000
0000
0010
0000
0000
0010
0100
0000
0001
0000
0020
0000
0000
0000
,
1030
0000
0020
0000
0030
0000
0001
0000
1000
0000
0010
0000
0200
0300
1000
0000
,
0001
0010
0100
0001
1000
0010
0100
0001
,
1000
0000
0020
0030
0001
0000
0010
0000
1000
0000
0100
0000
0010
0000
0000
0000
,
2001
0000
3000
0000
0010
0000
0000
0100
0001
0000
0010
0000
0200
0000
0000
0000
,
1300
0000
0010
0000
0001
0000
0100
0000
0010
0000
1000
0000
0020
0030
0001
0000
,
1000
0000
0100
0000
0001
0000
0020
0030
1000
0000
0010
0000
0001
0000
0100
0000
,
0010
0000
1000
0000
0100
0000
1000
0000
0010
0000
0100
0000
0001
0000
0200
0300
,
1000
0100
0001
1000
0001
0200
0010
0000
,
0310
0000
0100
0000
0001
0000
0020
0030
1000
0000
0100
0000
0001
0000
1000
0000
,
0001
0000
0100
0000
0020
0030
0001
0000
0010
0000
2000
0000
0100
0000
0000
0000
,
3100
0000
0010
0000
0200
0000
1000
0000
0310
0000
0001
0000
0200
0300
1000
0000
,
0001
0010
1000
0010
0100
0001
0010
1010
,
0021
0030
0100
0000
1000
0000
0010
0000
0100
0000
0001
0000
0020
0030
1000
0000
,
0010
0000
0001
0000
0100
0000
0010
0000
1000
0000
0010
0000
0200
0300
1000
0000
,
0001
0000
0010
0000
0100
0000
0002
0000
0010
0000
0000
0003
0010
0000
0200
0000
,
1000
0310
0001
0020
0100
0031
1000
0110
,
2001
3000
0010
0000
0100
0000
0001
0000
1000
0000
0010
0000
0100
0000
0010
0000
,
1000
0000
0001
0000
0010
0000
0000
0100
1000
0000
0001
0000
0100
0000
0010
0000
,
0100
0001
0010
0100
1000
0200
0010
1300
,
0001
0000
0100
0000
0020
0030
0001
0000
1000
0000
0100
0000
0010
0000
1000
0000
,
0001
0000
0010
0000
0100
0000
0000
1000
0010
0000
0100
0000
0001
0000
0100
0000
,
0010
0000
1000
0000
0001
0000
0000
0100
0010
0000
1000
0000
0001
0000
1000
0000
,
0010
0000
0100
0000
0001
0000
0200
0300
1000
0000
0100
0000
0001
0000
0020
0000
,
0100
0030
0001
0000
1000
0000
0020
0000
0100
0030
1000
0000
0001
0000
0200
0000
,
0010
0300
0001
0000
1000
0000
0000
0000
0220
0000
0330
0000
0001
0000
0010
0000
,
2000
0000
0002
0000
3003
0000
0000
0000
0110
0000
0000
0000
1000
0000
0002
0003
,
0100
0000
2200
0000
0000
3300
0000
0000
0201
0000
0300
0000
0010
0000
0100
0000
,
0002
0000
0020
0000
0000
0033
0000
0000
1020
0000
0000
0030
0100
0000
0101
0000
,
1200
0000
0310
0000
0101
0000
1000
0010
,
0002
2000
3003
0000
0110
0000
1000
0100
,
0010
0000
0202
0000
0000
0303
0000
0000
1020
0000
0030
0000
0100
0000
0001
0000
,
0020
0000
0200
0000
0000
0330
0000
0000
1002
0000
0000
0000
0203
0000
0000
0300
,
0010
0000
0100
0000
0001
0000
0020
0030
1000
0000
0100
0000
0001
0000
1000
0000
,
0001
0000
0010
0000
0100
0000
1000
0000
0020
0030
0001
0000
0020
0000
0030
0000
,
1000
0000
0010
0000
0200
0000
0001
0000
0310
0000
1000
0000
0200
0300
0001
0000
,
1000
0010
0001
0010
0100
1000
0010
0011
,
1020
0030
0100
0000
0001
0000
0010
0000
0100
0000
1000
0000
0020
0030
0001
0000
,
0010
0000
1000
0000
0100
0000
0010
0000
0001
0000
0010
0000
0200
0300
0001
0000
,
1000
0000
0010
0000
0100
0000
2000
0000
0010
0000
0000
3000
0010
0000
0200
0000
,
0001
0310
1000
0020
0100
1030
0001
0110
,
1001
0000
1100
0000
0201
0300
0010
0000
1000
0000
0001
0000
0100
0000
0010
0000
,
1000
0000
0100
0000
1000
0000
0010
0000
0100
0000
0001
0000
0020
0030
1000
0000
,
0010
0000
0001
0000
2000
3000
0000
0000
0220
0330
0000
0000
0001
0000
1000
0000
,
0100
0020
0001
0130
1000
0010
0100
0001
,
0010
0000
0001
0000
2000
3000
0000
0000
0110
0000
0001
0000
1000
0000
0010
0000
,
0100
0000
0001
0000
0010
0000
0001
0000
0100
0000
0010
0000
1000
0000
0200
0300
,
0001
0000
0100
0000
2000
3000
0000
0000
0201
0300
0010
0000
1000
0000
0001
0000
,
0100
0000
0020
0030
0001
0000
0010
0000
1000
0000
0100
0000
0010
0000
0001
0000
,
0200
2000
0000
0000
0000
0000
0000
0000
,
3300
0000
0000
0000
;
