#TITLE:How It's Done;
#SUBTITLE:;
#ARTIST:KPop Demon Hunters, HUNTR/X, EJAE, AUDREY NUNA, REI AMI;
#TITLETRANSLIT:;
#SUBTITLETRANSLIT:;
#ARTISTTRANSLIT:;
#GENRE:;
#CREDIT:RxSteps;
#MUSIC:How It's Done.ogg;
#BANNER:How It's Done.png;
#BACKGROUND:How It's Done-bg.png;
#CDTITLE:cdtitle.png;
#SAMPLESTART:45.181;
#SAMPLELENGTH:24.000;
#SELECTABLE:YES;
#OFFSET:1.319;
#BPMS:0.000=160.000;
#STOPS:;
#BGCHANGES:;
#FGCHANGES:;

//--------------- dance-single - RxSteps ----------------
#NOTES:
     dance-single:
     RxSteps:
     Beginner:
     3:
     0,0,0,0,0:
0000
0000
0000
0000
,
1000
0000
0010
0000
,
1000
0000
0000
0001
,
0100
0000
0001
0000
,
0100
0000
0000
0000
,
0010
0000
0100
0000
,
0010
0000
0000
1000
,
0010
0000
0100
0000
,
0001
0100
0001
0000
,
1000
0000
0000
0001
,
0000
0100
0001
0100
,
0001
0000
0000
1000
,
0000
0010
1000
0010
,
1000
0000
0000
0000
,
0001
0100
0000
0000
,
0010
0100
0010
0000
,
1000
0001
1000
0000
,
0001
0000
0000
0100
0000
0000
0001
0000
,
1000
0000
0000
0010
0000
0000
1000
0000
,
0010
0000
0000
0100
0000
0000
0010
0000
,
0100
0000
0000
0001
0000
0000
0000
0000
,
1000
0000
0000
0010
,
1000
0000
0000
0001
,
0010
0000
0001
0000
,
1000
0000
0010
0000
,
1000
0000
0100
0000
,
0010
0000
0001
0000
,
1000
0000
0000
0000
,
0010
0000
0000
0000
,
1000
0000
0001
0000
,
0100
0000
0001
0000
,
0200
0000
0000
0000
,
0310
0000
0000
0000
,
1001
0000
0000
0000
,
1000
0000
0010
0000
,
0100
0001
0100
0001
,
0100
0000
0010
0000
,
1000
0000
0001
0000
,
0100
0000
0001
0000
,
0010
0000
0002
0000
,
1003
0000
0000
0000
,
0110
0000
0000
0000
,
1000
0000
0010
0000
,
1000
0100
1000
0000
,
0001
0000
1000
0000
,
0010
0100
0010
0000
,
1000
0000
0100
0000
,
1000
0000
0001
0000
,
0100
0000
0010
0100
,
0010
0000
0000
0000
,
1000
0000
0000
0001
,
0100
0000
0000
0000
,
0001
0000
0000
1000
0000
0000
0010
0000
,
1000
0000
0000
0001
,
0100
0001
0100
0000
,
0010
0000
1000
0000
,
0010
1000
0010
0000
,
1000
0000
0010
0000
,
0100
0010
0100
0000
,
0001
0000
1000
0000
,
0100
1000
0100
0000
,
1000
0000
0001
0000
,
0100
0000
0010
0000
,
1000
0010
1000
0000
,
0001
0000
0010
0000
,
0001
0000
1000
0000
,
0010
1000
0010
0000
,
0100
0000
0000
0001
,
0100
0000
0000
0000
,
0001
0000
0010
0000
,
0100
0000
1000
0000
,
0001
0000
0100
0001
,
0100
0000
0010
0000
,
1000
0000
0001
0000
,
0100
0000
0001
0000
,
0200
0000
0300
0000
,
0002
0000
0000
0000
,
2000
0000
0000
0000
,
3003
0000
0000
0000
,
0110
0000
0000
0000
,
0001
0000
1000
0000
,
0100
0000
1000
0100
,
1000
0000
0001
0010
,
0001
0000
0010
0000
,
0100
0000
1000
0000
,
0002
0003
0000
0100
,
0010
0000
0000
0000
,
1001
0000
0000
0000
,
1000
0000
0000
0000
,
0010
0000
0000
0000
,
0100
0000
0000
0000
,
0001
0000
1000
0000
,
0010
0000
0100
0000
,
0010
0000
1000
0000
,
0001
0000
0200
0000
,
0020
0000
0000
0000
,
0330
0000
0000
0000
,
1001
0000
0000
0000
,
1000
0000
0010
0100
,
0010
0000
1000
0000
,
0001
0000
0010
0001
,
0010
0000
0001
0000
,
1000
0000
0100
1000
,
0100
0000
1000
0000
,
0001
0000
0100
0001
,
0100
0000
0001
0000
,
0100
0000
0010
0100
,
0010
0000
1000
0000
,
0001
0000
0010
0001
,
0010
0000
0001
0000
,
0100
0000
0010
1000
,
0010
0000
2000
0000
,
3001
0000
0000
0000
,
0220
0000
0000
0000
,
0330
0000
0000
0000
;

//--------------- dance-single - RxSteps ----------------
#NOTES:
     dance-single:
     RxSteps:
     Easy:
     5:
     0,0,0,0,0:
0000
0000
0000
0000
,
0001
0000
0010
0001
,
2000
0010
3000
0010
,
1000
0000
0010
0100
,
0010
1000
0001
0000
,
0110
0000
0001
1000
,
0200
0010
0300
0010
,
0200
0300
2000
3000
,
0001
0010
0100
1000
,
0001
0000
0100
0001
0100
0000
0001
1000
,
0001
0000
1000
0010
1000
0010
1000
0000
,
0002
0100
0003
0100
,
0001
1000
0010
0100
,
0001
0000
0010
0001
0010
0001
0010
0000
,
0100
1000
0100
0010
,
0001
1000
0020
0030
,
1000
0001
0100
0010
,
2000
3000
0000
0200
0300
0000
0010
0001
,
0020
0030
0000
0200
0300
0000
1000
0100
,
2000
3000
0000
0002
0000
0000
0100
0003
,
0100
0000
0000
0001
0000
0100
0001
0100
,
0001
1000
0001
0100
,
0001
0000
1000
0000
0002
0000
0100
0003
,
0100
0001
0001
1000
,
0020
0000
0100
0030
0100
0000
0010
0000
,
2000
3000
0002
0003
,
1000
0010
1000
0020
,
0100
0030
0100
0010
,
2000
0000
3000
0000
,
0002
0003
0020
0030
,
0200
0300
0020
0030
,
0001
0010
0100
2000
,
0002
0000
3003
0000
,
0110
0000
1000
0020
,
0100
0030
0100
0000
0010
0000
1000
0000
,
0001
0100
0010
0100
,
0002
0003
1000
0100
,
0020
0030
0001
2000
,
0100
3000
0100
0000
1000
0000
0001
0000
,
0200
0300
0010
2000
,
0100
3000
0100
0000
1000
0000
0001
0000
,
0010
0001
1000
0020
,
0100
0030
0100
0010
,
1000
0001
0010
0001
,
2000
3000
0020
0030
,
1000
0000
0010
0100
0010
0000
1000
0000
,
0002
0003
0100
0020
,
1000
0030
1000
0010
,
0100
0001
0010
0100
,
2000
0000
3000
0000
,
0001
0000
0200
0000
0000
0000
0010
0300
,
0010
0000
1000
0100
,
0020
0000
0000
0001
0000
0030
0001
0000
,
1000
0001
0100
0010
,
1000
0002
0100
0003
,
0100
0001
0010
0100
,
1000
0001
1000
0000
,
0010
0000
0100
0001
,
0100
0010
1000
0010
,
0100
0010
1000
0002
,
0100
0003
0200
0000
0001
0300
0001
0000
,
2000
3000
0020
0030
,
0100
0000
0000
0020
1000
0000
0030
0000
,
1000
0010
0100
0001
,
0100
0010
2000
3000
,
0001
0010
0100
0010
,
0100
0010
0001
0010
,
0002
0000
0003
0100
,
0001
0100
0010
0000
,
1000
0000
0000
0000
0001
0100
0001
0000
,
1000
0000
0010
0100
0010
0000
1000
0000
,
0001
0000
0100
0010
,
2000
0000
3000
0000
,
0001
0000
0000
0000
1000
0100
1000
0000
,
0001
0000
0100
0001
0100
0000
0010
0000
,
0100
0001
0100
0010
,
1000
0001
1000
0020
,
0200
0000
0000
0000
,
0330
0000
0000
0000
,
1001
0000
1000
0020
,
1000
0030
1000
0000
0001
0000
0010
0000
,
0002
0003
0010
0100
,
1000
0100
1000
0001
,
0200
0300
0010
0100
,
0002
0003
2000
0000
,
0100
0000
3000
0100
,
1000
0001
0010
0001
,
2000
3000
0200
0300
,
0020
0030
0200
0300
,
2000
3000
0002
0003
,
0200
0300
0020
0030
,
0100
0001
0100
0010
,
0100
0001
1000
0010
,
1000
0100
0010
0001
,
0100
0001
1000
0010
,
0200
0000
0000
0000
,
0300
0002
1003
0000
,
0110
0000
0001
0200
,
0010
0300
0010
0100
,
0001
1000
0010
1000
,
0001
0000
1000
0100
,
0010
0000
0001
0010
0001
0000
0010
0000
,
0100
1000
0001
0010
,
0001
1000
0001
0200
,
0020
0000
0330
0000
,
1001
0000
0001
0020
,
0100
0030
0100
0010
,
0001
0000
1000
0020
,
0100
0030
0100
0010
,
1000
0000
0001
0010
,
0001
0000
1000
0010
,
0100
0010
1000
0100
,
0010
0002
1003
0000
,
0220
0000
0000
0000
,
0330
0000
0000
0000
;

//--------------- dance-single - RxSteps ----------------
#NOTES:
     dance-single:
     RxSteps:
     Medium:
     8:
     0,0,0,0,0:
0000
0000
0000
0000
,
0001
0000
0010
0001
1000
0100
1000
0010
,
1000
0000
0001
0000
0100
0010
1000
0010
,
0100
0000
0001
1000
0001
0100
0010
1000
,
0001
0020
0002
0033
,
1020
0030
0100
0010
1000
0001
0100
0010
,
0100
0000
0001
0000
1000
0100
1000
0000
,
0110
0000
0001
1000
0100
0010
0001
0020
,
0100
0000
0031
0000
1000
0001
0100
0010
,
0100
0000
0000
0000
0001
0020
0000
0000
0100
0030
0000
0000
0100
1000
0000
0000
,
0100
0000
0010
0001
0010
0001
0010
0001
,
1000
0000
0000
0000
0001
0200
0000
0000
0010
0300
0000
0000
0010
0100
0000
0000
,
0001
0000
1000
0001
0010
0100
1000
0200
,
0010
0300
1000
0100
0010
0001
1000
0020
,
0100
0030
0000
0000
0100
0000
0010
0000
1000
0000
0001
0000
0010
0000
0002
0000
,
1003
0000
0110
0000
0001
1000
0010
0200
,
0001
0000
0000
0300
0010
0000
0000
0000
1000
0000
0000
0000
0001
0000
0000
0000
,
1000
0100
0010
0100
0010
0001
1000
0100
,
1000
0100
0010
0001
1000
0001
0010
0001
,
0010
0100
1000
0100
0010
0001
1000
0100
,
1000
0001
0100
0010
0100
0001
0010
0001
,
0010
0100
1000
0010
,
0110
0201
0310
1000
,
0021
0000
0100
0030
0001
0010
0100
0010
,
0001
1000
0100
0010
0100
1000
0001
0010
,
0100
1000
0001
0100
,
0010
0000
1000
0020
0200
0000
0330
0000
,
2002
3003
0001
0100
,
2010
3000
0001
0000
0100
0000
0001
0000
,
0100
0010
1000
0010
1000
0002
0100
0003
,
0100
0001
0010
0100
1000
0100
0010
0001
,
0020
0030
0100
1000
0200
0300
0010
0000
,
1002
0000
0010
1003
,
0110
0000
0001
0000
0010
0000
0201
0300
,
0010
0000
1000
0000
0021
0000
0100
0030
,
0001
1000
0100
0010
,
0100
0000
1000
0200
0010
0000
1000
0000
,
0310
0100
1000
0001
,
0100
0000
0001
0000
1020
0000
0100
0030
,
1000
0001
0100
0010
,
0100
0000
0001
0020
0100
0000
0001
0030
,
0100
1000
0001
2000
,
0010
3000
0000
0000
0010
0000
0100
0000
0001
0000
0000
0000
1000
0000
0000
0000
,
0100
0000
1100
0000
0101
0000
0010
0200
,
0001
0300
0001
0100
0010
0000
1000
0000
,
0010
0000
1000
0200
0010
0000
1000
0300
,
0010
0001
0200
0300
,
2001
0000
0010
3001
,
0110
0000
1000
0010
0100
0000
0011
0000
,
2020
0000
3030
0000
1000
0001
0010
0200
,
1000
0300
0010
0000
0001
1000
0001
2000
,
0100
3000
0100
1000
0001
0010
0001
2000
,
0010
0000
0000
3200
0000
0000
0310
0000
,
0001
0010
0001
0000
1000
0000
0001
0200
,
0010
0300
0010
0100
0001
0000
0010
0000
,
2001
0010
3002
0100
,
1003
0110
2002
3003
,
0001
0000
1000
0020
0100
0030
0100
0010
,
1000
0001
0010
0001
,
1000
0200
0010
0300
0010
0100
1000
0000
,
0001
0000
1000
0000
0100
0000
0010
0100
,
2000
0000
0000
0000
0000
0000
0000
3000
0200
0000
0000
0000
0010
0000
0300
0000
,
1000
0000
0000
0001
0020
0000
0000
0000
,
0100
0030
0001
0000
1000
0000
0010
0100
,
0010
0000
1000
0000
0001
0010
0001
0000
,
1000
0010
0100
0001
0200
0300
0010
2000
,
0010
3000
0010
0000
0100
0000
0001
0000
,
1000
0100
1000
0100
1000
0000
0001
0000
,
0100
0001
0100
0020
1000
0000
0130
0000
,
2002
0000
3003
0000
0001
0100
0002
0000
,
0010
0003
0010
0001
1000
0000
0200
0000
,
0010
0000
0310
0100
,
1000
0000
0100
0010
0001
0000
0010
0000
,
0200
0000
0300
0000
1000
0001
0020
0000
,
0100
0030
0001
0010
0100
0000
1000
0000
,
0001
0000
0100
0010
1000
0000
0100
0000
,
1000
0000
0001
0100
0001
0100
0010
1000
,
0001
0100
0010
1000
0001
0100
0010
1000
,
0002
0000
0100
1003
,
0110
0000
0000
0000
0001
0000
0010
0000
0200
0000
0000
0300
0010
0000
0001
0000
,
0010
0000
0100
1000
0200
0000
0010
0300
,
1000
0000
0001
0200
0010
0300
0010
0100
,
0001
0000
1000
0010
0100
0000
1001
0000
,
0220
0330
0001
1000
,
0100
0000
0011
0000
1200
0000
0010
0300
,
2000
0000
0010
3000
0002
0000
0100
0000
,
0013
0000
0001
0020
0100
0000
0001
0030
,
0200
0300
1000
0100
,
0010
0000
0100
0000
1000
0000
0001
0200
,
0010
0300
0010
1000
,
0001
0000
0010
0000
0100
0000
1000
0100
,
1000
0001
0100
0010
,
0100
0001
1000
0100
,
1000
0001
0100
0010
,
1000
0010
1000
0010
1000
0010
1000
0001
,
0020
0000
0000
0000
,
0030
0000
0001
1000
0010
0000
0100
0000
,
1001
0000
0110
0000
2001
3000
0010
0100
,
0001
0000
0010
0000
1200
0000
0010
0300
,
1000
0001
0010
0100
,
0010
0001
0200
0010
,
0301
0000
0100
0010
1000
0000
0110
0000
,
2001
3000
0010
0000
0200
0000
0010
0300
,
0001
1000
0010
0100
,
0010
0000
0000
0000
1000
0000
0020
0000
0100
0000
0000
0030
1000
0000
0000
0000
,
0001
0010
0001
0010
,
2100
0000
0001
0010
,
3001
1000
0010
0100
,
0002
0000
0010
0003
0010
0000
0001
0000
,
0100
0000
0001
1000
0010
0000
1100
0000
,
0201
0000
0000
0000
0010
0000
0001
0300
,
0010
1000
0100
0020
,
0001
0030
0100
1000
0100
0000
0010
0000
,
2002
0000
0000
0000
,
3003
0000
0000
0000
;

//--------------- dance-single - RxSteps ----------------
#NOTES:
     dance-single:
     RxSteps:
     Hard:
     9:
     0,0,0,0,0:
0000
0000
0000
0000
,
0001
0000
0010
0001
1000
0100
1000
0010
,
1000
0000
0001
0000
0010
0100
1000
0010
,
0100
0000
0001
1000
0001
0100
0010
1000
,
0100
0020
0002
0033
,
1020
0030
0100
0010
1000
0001
0010
0100
,
0010
0000
0001
0000
1000
0100
1000
0000
,
0110
0000
0001
0100
0010
0100
0001
0020
,
0100
0000
0031
0000
1000
0001
0100
0010
,
0100
0000
0000
0000
0001
0020
0000
0000
0100
0030
0000
0000
0100
1000
0000
0000
,
0100
0000
0010
0001
0010
0100
1000
0010
,
0100
0000
0000
0000
0001
0200
0000
0000
0010
0300
0000
0000
0010
1000
0000
0000
,
0100
0000
1000
0001
0100
0010
1000
0200
,
0010
0300
1000
0100
0010
0001
1000
0020
,
0100
0030
0000
0000
0100
0000
0010
0000
1000
0000
0001
0000
0010
0000
0002
0000
,
1003
0000
0110
0000
0001
1000
0010
0200
,
0310
1100
0201
0310
,
1000
0100
0010
0100
0010
0001
1000
0100
,
1000
0001
0100
0010
1000
0001
0100
0001
,
0010
0100
1000
0100
0010
0001
0100
0010
,
0100
0001
1000
0010
0100
0001
0010
0001
,
0010
1200
0310
1000
,
0110
0201
0310
1000
,
0021
0000
0100
0030
0001
0010
0100
0010
,
0001
1000
0100
0010
0100
1000
0010
0100
,
0010
1000
0001
0010
,
0100
0000
1000
0001
0100
0000
0010
0000
,
2002
3003
0001
0100
,
1020
0030
0100
0001
1000
0000
0100
0000
,
0010
0100
1000
0100
1000
0002
0100
0003
,
0100
0001
0010
0100
1000
0010
0100
0001
,
0020
0030
0100
1000
0020
0030
0100
0000
,
1002
0000
0010
1003
,
0110
0000
0001
0000
0010
0000
0201
0300
,
0010
0000
1000
0000
0021
0000
0100
0030
,
0001
1000
0200
0301
,
0100
0000
1000
0100
0010
0000
0101
0000
,
1200
0000
0010
0300
1000
0000
0001
0000
,
0010
0000
0100
0000
1020
0000
0100
0030
,
1000
0000
0001
0000
0200
0300
1000
0000
,
0100
0000
0001
0010
0100
0000
1010
0000
,
0021
0000
0100
0030
0001
0000
2000
0000
,
0010
3000
0000
0000
0010
0000
0100
0000
0001
0000
0000
0000
0010
0000
0000
0000
,
0100
0000
1100
0000
0101
0000
0010
0200
,
0001
0300
0001
1000
0010
0000
0100
0000
,
0010
0000
1000
0100
0010
0000
0011
0000
,
1020
0000
0200
0330
,
2001
0000
0010
3001
,
0110
0000
1000
0010
0100
0000
0011
0000
,
2020
0000
3030
0000
1000
0001
0010
0200
,
1000
0300
0010
0000
0001
0100
0010
2000
,
0100
3000
0100
1000
0001
0010
0001
2000
,
0010
0000
0000
3200
0000
0000
0310
0000
,
1001
0000
0000
0000
1000
0100
0000
0000
0010
0001
0000
0000
1000
0001
0000
0000
,
0100
0010
0000
0000
1000
0010
0000
0000
0100
0000
0000
0000
0021
0000
0030
0000
,
0100
1000
0000
0000
0001
0010
0000
0000
0100
0010
0000
0000
0001
1000
0000
0000
,
0010
0100
0000
0000
0001
1000
0000
0000
0220
0000
0000
0000
0330
0000
0000
0000
,
0001
0000
0000
0000
1000
0100
0000
0000
0010
0001
0000
0000
1000
0010
0000
0000
,
0100
0001
0000
0000
1000
0010
0000
0000
0100
0020
0000
0000
1030
0000
0000
0000
,
0101
0110
1100
0110
,
0011
0000
1000
0000
0100
0000
0010
0100
,
2000
0000
0000
0000
0000
0000
0000
3000
0200
0000
0000
0000
0010
0000
0300
0000
,
1000
0000
0000
0001
0020
0000
0000
0000
,
0100
0030
0001
0000
1000
0000
0010
0100
,
0010
0000
1000
0000
0001
0010
0001
0000
,
1000
0010
0100
0001
0020
0030
0100
2000
,
0010
3000
0010
0000
0100
0000
0001
0000
,
1000
0100
1000
0100
1000
0002
0010
0003
,
0010
0001
0100
0020
1000
0000
0130
0000
,
2002
0000
3003
0000
0001
0100
0002
0000
,
0010
0003
0010
0001
1000
0000
0200
0000
,
0001
0000
0301
0100
,
1000
0000
0010
0100
0001
0000
0010
0000
,
0200
0000
0300
0000
1000
0001
0020
0000
,
0100
0030
0001
1000
0010
0000
0100
0000
,
0001
0000
0000
0100
0010
0000
1000
0000
0001
0000
0000
0100
0010
0000
1000
0000
,
0001
0000
0000
0100
0010
0000
1000
0000
0001
0000
0010
0000
0100
0000
1000
0000
,
0001
0010
0100
1000
0001
0100
0010
1000
,
0002
0000
0100
1003
,
0110
0000
0000
0000
0001
0000
0010
0000
0200
0000
0000
0300
0010
0000
0001
0000
,
0100
0000
0010
1000
0200
0000
0010
0300
,
1000
0000
0001
0200
0010
0300
0010
0100
,
0001
0000
1000
0010
0100
0000
0021
0030
,
0100
0000
0010
0000
0001
0000
1000
0000
0020
0000
0000
0000
0100
0030
0000
0000
,
0100
0000
0011
0000
1200
0000
0010
0300
,
2000
0000
0010
3000
0002
0000
0100
0000
,
0013
0000
0001
0010
0100
0000
1100
0000
,
0202
0000
0300
0003
1000
0000
0100
0000
,
0010
0000
0100
0000
1000
0000
0001
0200
,
0010
0300
0010
1000
,
0001
0000
0010
0000
0100
0000
1000
0100
,
1000
0001
0200
1300
,
0100
0000
0000
0000
0001
0000
0000
0000
0100
0000
0000
0000
0020
0000
0000
0030
,
0001
0010
0100
0010
1000
0100
0010
0001
,
0100
0010
1000
0100
1000
0010
0100
0001
,
0020
0000
0000
0000
,
0030
0000
0100
1000
0100
0000
0010
0000
,
1001
0000
0110
0000
2001
3000
0010
0100
,
0001
0000
0010
0000
1200
0000
0010
0300
,
1000
0001
0020
1030
,
0010
0002
0103
1010
,
0021
0030
0100
0010
0001
0000
0110
0000
,
2001
3000
0010
0000
0200
0000
0010
0300
,
0001
1000
0020
0031
,
0010
0000
1000
0100
0010
0000
0101
0000
,
1200
0000
0000
0300
0010
0000
0000
0001
1000
0000
0000
0000
0010
0000
0000
0000
,
2200
3300
0201
0010
,
0301
0000
0110
0000
1200
0300
0010
0000
,
0002
0000
0100
0003
0100
0000
0001
0000
,
0010
0000
0001
0010
0100
0000
1100
0000
,
0201
0000
0010
0301
,
1200
0310
0100
1000
,
0110
0000
0001
0100
0010
0000
1100
0000
,
0202
0000
0000
0000
,
0303
0000
0000
0000
;
