#TITLE:Higher;
#SUBTITLE:;
#ARTIST:Wolfgang Gartner;
#TITLETRANSLIT:;
#SUBTITLETRANSLIT:;
#ARTISTTRANSLIT:;
#GENRE:;
#CREDIT:RxSteps;
#MUSIC:Higher.ogg;
#BANNER:Higher.png;
#BACKGROUND:Higher-BG.png;
#CDTITLE:cdtitle.png;
#SAMPLESTART:135.278;
#SAMPLELENGTH:20.625;
#SELECTABLE:YES;
#OFFSET:1.597;
#BPMS:0.000=128.000;
#STOPS:;
#BGCHANGES:;
#FGCHANGES:;

//--------------- dance-single - RxSteps ----------------
#NOTES:
     dance-single:
     RxSteps:
     Beginner:
     2:
     0,0,0,0,0:
0000
0000
0000
0000
,
0010
0000
0000
0000
,
0100
0000
0000
0000
,
1000
0000
0000
0000
,
1000
0000
0000
0000
,
0001
0000
0000
0000
,
0010
0000
0000
0000
,
0010
0000
0000
0000
,
1000
0000
0000
0000
,
0001
0000
0000
0000
,
0100
0000
0000
0000
,
0010
0000
0000
0000
,
0010
0000
0000
0000
,
1000
0000
0000
0000
,
0001
0000
0000
0000
,
0100
0000
0000
0000
,
0100
0000
0000
0000
,
0001
0000
0000
0000
,
0001
0000
0000
0100
,
0000
0000
0000
0000
,
0100
0000
0000
0000
,
0000
0010
0000
0000
,
1000
0000
0000
0000
0000
0000
0000
0001
,
0000
0000
0000
0000
,
0100
0000
0000
0000
,
0000
1001
0000
0000
,
0001
0000
0100
0000
,
0010
0000
1000
0000
,
1000
0000
0001
0001
,
0000
1001
0000
0000
,
1000
0000
0010
0000
,
0010
0000
0100
0000
,
0001
0000
1000
1000
,
0000
1001
0000
0000
,
0001
0000
0010
0000
,
0100
0000
0100
0000
,
0010
0000
1000
1000
,
0000
0001
0000
0100
,
0000
0001
0000
0100
,
0000
0010
0000
0001
,
0000
0000
0100
0100
,
0000
0001
0000
1000
,
0000
0001
0000
0100
,
0000
0010
0000
0010
,
0000
1000
0000
0100
,
0000
0001
0000
1000
,
0000
0010
0000
0000
,
0100
0100
0100
0000
,
0001
0001
0001
0000
,
0000
2000
0000
0000
,
3000
0000
0000
0000
,
0000
0001
0000
0000
0000
0000
0000
0000
,
0100
0000
0000
0000
,
0020
0000
0030
0000
,
0020
0000
0030
0000
,
0200
0000
0300
0000
,
0002
0000
0003
0000
,
0020
0000
0000
0000
,
0030
0000
0000
0000
,
2000
0000
3000
0000
,
0002
0000
0003
0000
,
0200
0000
0300
0000
,
0200
0000
0300
0000
,
0020
0000
0030
0000
,
2000
0000
3000
0000
,
0001
0000
0000
0000
,
0100
0100
0000
0010
,
0010
0000
0000
0000
,
1000
0000
0000
0000
,
0000
1000
0000
0000
,
0010
0010
0000
0100
,
0100
0000
0000
0000
,
0001
0000
0000
0000
,
0000
0110
0000
0000
,
1000
0000
0000
0010
,
0010
0000
0100
0000
,
0001
0000
1000
1000
,
0000
0010
0000
0010
,
0000
0001
0000
0001
,
0001
0000
0000
0100
,
0000
0000
0000
0000
,
0000
0110
0000
0000
,
0001
0000
0010
0000
,
0010
0000
1000
0000
,
1000
0000
0100
0100
,
0000
1000
0000
0010
,
0000
0010
0000
1000
,
0000
0001
0000
0001
,
0000
0000
0100
0100
,
0000
0010
0000
0000
,
0010
0000
0000
0000
,
1001
0000
0000
0000
,
1001
0000
0000
0000
,
0100
0000
0000
0000
,
0010
0000
0000
0000
,
0110
0000
0000
0000
,
0110
0000
0000
0000
,
0000
2000
3000
0000
,
0002
0003
0000
0000
,
1000
0000
0010
0000
,
0100
0000
0010
0000
,
0000
0001
0001
0000
,
0100
0100
0000
0000
,
0010
0000
1000
0000
,
0001
0000
0010
0000
,
0001
0000
1000
0000
,
0010
0010
0000
0000
,
2000
0000
3000
0000
,
0002
0000
0003
0000
,
0000
0100
0100
0000
,
0001
0000
1000
0000
,
0010
0000
0000
0000
,
1000
0000
0000
0000
,
0000
0100
0000
0000
,
0100
0000
0000
0000
,
0001
0000
0000
0000
,
1000
0000
0000
0000
,
0000
0010
0000
0000
,
0010
0000
0000
0000
,
0001
0000
0000
0000
,
0100
0000
0000
0000
,
0000
2000
0000
0000
,
0000
0000
0000
0000
,
0000
0000
0000
0000
,
3000
0000
0000
0000
,
0002
0000
0000
0000
,
0000
0000
0000
0000
,
0000
0000
0000
0000
,
0000
0000
0000
0000
,
0003
0000
0000
0000
;

//--------------- dance-single - RxSteps ----------------
#NOTES:
     dance-single:
     RxSteps:
     Easy:
     4:
     0,0,0,0,0:
0000
0000
0000
0000
,
2000
0000
0000
0000
,
0000
0000
3000
0000
,
0002
0000
0003
0000
,
0200
0000
0300
0000
,
0020
0000
0030
0000
,
2000
0000
3000
0000
,
0200
0000
0300
0000
,
0020
0000
0030
0000
,
0002
0000
0003
0000
,
0200
0000
0300
0000
,
0002
0000
0003
0000
,
2000
0000
3000
0000
,
0200
0000
0300
0000
,
0020
0000
0030
0000
,
2000
0000
3000
0000
,
0002
0000
0003
0000
,
0100
0001
0100
0001
,
0100
0001
0100
0000
0010
0000
1000
0010
,
1000
0010
1000
0000
0100
0000
0010
0000
,
0002
0000
0000
0000
,
0003
0100
0001
1000
,
0010
1000
0010
0000
1000
0000
0001
0100
,
0001
0100
0001
0000
0100
0000
0010
0000
,
2000
0000
0000
3100
,
0000
1001
0000
0001
,
0100
0010
1000
0100
,
1000
0100
0010
0001
,
0100
0000
0001
0100
0001
0100
0010
0000
,
0100
0001
0010
0100
,
1000
0100
0100
1000
,
1000
0010
0100
0001
,
1000
0000
0010
1000
0010
1000
0100
0000
,
0000
0101
0000
1000
,
1000
0010
0010
0100
,
0100
0001
0001
1000
,
0100
0000
1000
0100
1000
0100
0010
0000
,
0001
0002
0100
1000
,
0103
2000
0010
0001
,
3010
1000
0010
0100
,
0001
0000
0100
0001
0100
0001
1000
0000
,
0000
0002
0100
2003
,
3020
0100
1030
0001
,
0100
0001
0010
0100
,
1000
0100
1000
0000
0100
0000
0010
0000
,
0001
2000
0010
3002
,
0203
0010
0301
1000
,
0010
1000
0001
0100
,
0010
1000
0001
0100
,
0000
0000
0000
0000
,
0002
0000
0000
0000
0000
0003
0000
0000
,
0000
2000
0000
0000
0000
0000
3000
0000
,
0020
0000
0030
0000
,
0200
0000
0300
0000
,
0002
0000
0003
0000
,
0000
0020
0000
0000
0030
0000
0000
0000
,
0002
0000
0003
0000
,
2000
0000
3000
0000
,
0020
0000
0030
0000
,
0200
0000
0300
0000
,
0002
0000
0003
0000
,
0200
0000
0300
0000
,
2000
0000
3000
0000
,
0200
0000
0300
0000
,
2000
0000
3000
0000
,
0010
1000
1000
1000
,
0001
0100
0001
0000
0001
0000
0100
0010
,
0100
0010
0100
0000
0001
0000
1000
0000
,
0020
0000
0000
0000
,
0030
1000
0001
0100
,
0010
1000
0010
0000
1000
0000
0001
1000
,
0001
1000
0001
0000
0010
0000
0100
0000
,
1000
0000
0000
0001
,
0000
0110
0000
1000
,
0010
0100
0010
0000
1000
0000
0010
1000
,
0010
1000
0001
0000
0001
0000
1000
0000
,
0010
0000
1000
0010
1000
0010
0100
0000
,
0010
1000
0100
0010
,
0001
0010
0001
0000
1000
0000
0001
1000
,
0001
1000
0001
0000
1000
0000
1000
0000
,
0001
0000
0100
0001
0100
0000
0010
0000
,
0000
1010
0000
0001
,
0001
0100
0100
0010
,
0010
1000
1000
0001
,
0010
0000
0001
0010
0001
0010
0100
0000
,
1000
2000
0010
0001
,
3010
0002
0100
1000
,
0103
0001
0100
0010
,
1000
0000
0010
1000
0010
1000
0001
0000
,
0000
0101
0000
2000
,
0000
3020
0000
0130
,
0010
0100
0010
0000
0010
0000
1000
0000
,
0010
1000
0010
0000
1000
0000
0001
0000
,
0100
0002
1000
0103
,
2000
0010
0001
3010
,
1000
0001
0100
0010
,
0010
0100
0001
0010
,
0000
0000
2200
0000
0000
3300
0000
0000
,
0202
0000
0000
0303
0000
0000
0000
0000
,
0001
1000
0001
0100
,
0010
1000
0010
0000
1000
0000
0001
0000
,
0000
0000
2020
0000
0000
3030
0000
0000
,
0022
0000
0033
0000
,
1000
0010
1000
0100
,
1000
0100
1000
0000
0001
0000
0100
0000
,
0000
0000
2002
0000
0000
3003
0000
0000
,
0220
0000
0330
0000
,
1000
0100
0010
0001
,
0100
0010
0100
0000
0010
0000
1000
0000
,
0000
0000
0202
0000
0000
0303
0000
0000
,
2200
0000
3300
0000
,
0001
0100
0010
0010
,
1000
0010
1000
0000
0001
0000
0100
0000
,
0001
1000
0010
1000
,
0001
0001
0100
0010
,
1000
0010
1000
0000
0010
0000
0100
0000
,
0001
0100
0001
0000
1000
0000
0001
0000
,
0000
0200
0000
0000
,
0002
0300
0000
0003
,
1000
0100
1000
0000
0100
0000
0010
0000
,
0001
0010
0001
0000
0010
0000
0100
0000
,
2000
0000
0000
0000
,
0020
0000
0000
0000
,
0000
0000
0000
0000
,
0000
0000
3000
0030
,
1000
0002
0000
0000
0000
0000
0000
0000
,
0200
0000
0000
0000
,
0000
0000
0000
0000
,
0000
0000
0000
0000
,
0303
0000
0000
0000
;

//--------------- dance-single - RxSteps ----------------
#NOTES:
     dance-single:
     RxSteps:
     Medium:
     7:
     0,0,0,0,0:
0000
0000
0000
0000
,
0002
0000
0000
0000
,
0020
0000
0000
0003
,
0200
0000
0000
0030
,
0020
0000
0000
0030
,
2000
0000
0000
0300
,
0200
0000
0000
3000
,
0020
0000
0000
0300
,
0200
0000
0000
0030
,
0002
0000
0000
0300
,
2000
0000
0000
0003
,
0200
0000
0000
3000
,
0020
0000
0000
0300
,
2000
0000
0000
0030
,
0020
0000
0000
3000
,
0200
0000
0000
0030
,
0002
0000
0000
0303
,
0001
0100
0010
1000
,
0001
0100
0010
0000
0100
0000
0001
0100
,
0010
0100
0001
0000
1000
0000
0010
0000
,
0200
0000
0000
0000
,
0300
0001
0100
0001
,
0010
0001
0100
0000
0010
0000
1000
0010
,
1000
0001
0100
0000
0010
0000
0100
0000
,
0002
0000
0000
0003
,
0110
0000
1010
0000
0001
0100
0001
0010
,
0001
1000
0002
0100
1003
0010
1000
0100
,
1000
0001
0100
0010
1000
0010
0100
0010
,
1000
0020
0100
1030
0100
0010
0002
0000
,
1003
0000
0110
0000
0101
0000
1000
0100
,
1000
0010
1000
0100
1000
0010
0100
0001
,
0100
0001
1000
0010
0100
0001
0100
0010
,
0100
0001
1000
0010
0100
0001
0100
0000
,
1100
0000
0011
0000
1010
0000
1000
0001
,
2000
0010
3001
0100
0001
0010
0001
1000
,
0010
0100
0001
0100
0010
0100
0001
0200
,
0010
0301
1000
0001
0100
0010
1000
0000
,
0001
1001
0110
0101
,
1100
0110
0011
1100
,
0011
0110
0101
1010
,
0101
0000
1000
0010
1000
0100
0020
0000
,
0000
0200
0300
0002
,
0030
2000
0003
3010
,
0100
0002
0100
0000
1003
0000
0010
0000
,
0100
0001
0200
0000
0010
0000
0301
0000
,
1000
0000
0010
0200
0010
0000
0301
0100
,
0001
0000
1000
0001
1000
0000
0010
0100
,
0001
1100
0011
1010
,
0011
1000
0010
0000
0101
0000
0110
0000
,
0002
0000
0200
0000
0000
0003
0300
0020
,
2000
0000
0000
0000
0000
0000
0000
0030
,
0000
0002
0000
0000
3000
0003
0000
0200
,
0020
0000
0000
0000
0000
0300
0000
0000
,
0130
0000
0000
0000
0001
0000
0000
1000
0000
0000
0010
0000
0000
0000
0100
0000
,
0010
0000
0000
0000
1000
0000
0000
0001
0000
0000
0100
0000
0000
0000
0001
0000
,
0000
0000
0010
0000
0100
0000
0000
0010
0000
0000
0001
0000
0000
0000
1000
0000
,
0010
0000
0000
0000
0100
0000
0000
0010
0000
0000
1000
0000
0000
0000
0001
0000
,
0200
0002
0000
0300
,
0023
0200
0000
0030
,
2300
0020
0000
3000
,
0200
0030
0002
0000
0000
0000
0300
0000
,
0023
0000
0200
0000
0000
0000
0000
0030
,
2300
0002
0000
3000
,
0203
0020
0000
0030
,
0320
0000
2000
0000
0000
0000
0000
3000
,
1030
0010
0100
0001
,
1000
0010
0100
0000
0010
0000
1000
0010
,
0100
0010
1000
0000
0001
0000
0100
0000
,
0020
0000
0000
0000
,
0030
1000
0010
1000
,
0100
1000
0010
0000
0100
0000
0001
0100
,
0001
1000
0010
0000
0100
0000
0010
0000
,
2000
0000
0000
3000
,
0110
0000
0101
0000
0001
0100
0001
0010
,
0001
1000
0002
0100
1003
0010
1000
0100
,
1000
0001
0100
0010
1000
0010
0100
0010
,
1000
0020
0100
1030
0100
0010
0002
0000
,
1003
0000
0110
0000
0101
0000
1000
0100
,
1000
0010
1000
0100
1000
0010
0100
0001
,
0100
0001
1000
0010
0100
0001
0100
0010
,
0100
0001
1000
0010
0100
0001
0100
0000
,
1100
0000
0011
0000
1010
0000
0001
0100
,
0001
0010
0001
0100
0001
0010
0100
1000
,
0100
1000
0001
0010
0100
1000
0100
0010
,
0100
1000
0001
0010
0100
2000
0100
0000
,
3001
1001
0110
0101
,
1100
0110
0011
1100
,
0011
0110
0101
1010
,
0101
0000
1000
0010
1000
0100
0010
0000
,
0101
2020
0030
0002
,
3000
0200
0000
0003
,
0301
0000
1010
1000
0010
0100
0001
0010
,
0100
0000
0101
0001
0100
0010
1000
0001
,
0200
0000
0310
1000
0010
0100
0001
0100
,
0001
0010
0001
0100
0010
1000
0010
0100
,
0001
1100
0011
1010
,
0011
1000
0010
0000
0101
0000
1001
0000
,
0200
0000
0301
0000
0100
0001
0000
1000
,
0100
0000
1000
0000
0010
0100
0000
0000
,
0010
2000
0100
3001
1000
0020
0100
1030
,
0010
0100
0001
2000
0010
3001
1000
0020
,
0100
1030
0001
0000
0100
0001
0000
0001
,
0100
0000
0001
0000
1000
0010
0000
0000
,
0020
1000
0130
0000
0001
0000
0100
0000
,
0001
1000
0100
0000
0010
0000
0100
0000
,
1000
0000
0010
0100
0010
0100
0001
0100
,
0010
1000
0010
1000
0001
0010
0001
1000
,
2010
3010
0012
0203
,
0310
1000
0002
0000
1003
0000
0100
1000
,
0020
0000
1030
0001
1000
0010
1000
0100
,
1000
0001
0100
0001
0010
0001
0100
0001
,
1000
0011
1100
0101
,
1100
0001
0100
0000
1010
0000
0110
0000
,
1001
2200
0000
3300
,
0202
0000
0000
0003
,
0310
1000
0010
0000
0100
0000
0001
0000
,
0010
0001
0010
0000
0100
0000
1000
0000
,
0000
2000
0000
0000
,
0200
0000
0000
0000
0000
0000
0300
3000
,
0010
0200
0020
0000
0000
0000
0030
0300
,
0001
2000
0002
0000
0000
0000
0000
0000
,
3000
0020
0000
0003
,
0200
0000
0000
0000
0000
0030
0000
2000
,
0000
0000
0000
0000
,
0000
0000
0000
0000
0000
0000
0300
3000
,
0001
2000
0000
0000
0000
0000
0000
0000
,
0020
0000
0000
0000
,
0000
0000
0000
0000
,
0000
0000
0000
0000
,
3030
0000
0000
0000
;

//--------------- dance-single - RxSteps ----------------
#NOTES:
     dance-single:
     RxSteps:
     Hard:
     9:
     0,0,0,0,0:
0000
0000
0000
0000
,
0002
0000
0000
0000
,
0020
0000
0000
0003
,
2000
0000
0000
0030
,
0002
0000
0000
3000
,
0200
0000
0000
0003
,
2000
0000
0000
0000
0000
0300
0000
0000
,
0020
0000
0000
3000
,
0200
0000
0000
0000
0000
0030
0000
0000
,
2000
0000
0000
0300
,
0002
0000
0000
3000
,
2000
0000
0000
0003
,
0200
0000
0000
3000
,
0020
0000
0000
0300
,
2000
0000
0000
0030
,
0200
0000
0000
3000
,
0020
0000
0000
0330
,
0001
0000
0100
0010
0100
0000
0100
0000
,
0001
1000
0001
0000
0010
0000
0010
0001
,
1000
0001
0100
0000
0010
0000
1000
0000
,
0200
1000
1000
0010
,
1300
0000
0001
0100
0010
0000
0010
0000
,
1000
0100
0010
0000
0010
0000
0001
0010
,
0100
0010
0001
0000
0001
0000
0001
0000
,
0200
2300
3002
0013
,
1100
0101
1100
0110
,
0001
0100
0010
0100
0001
0010
0001
1000
,
0001
0100
1000
0100
0001
0010
0100
1000
,
0100
0010
0002
1000
0203
0010
0302
0000
,
0103
1000
0100
0001
0010
1000
0010
0001
,
0100
1000
0100
0001
0010
0100
1000
0020
,
0100
1030
0001
0010
0100
1000
0001
0010
,
0001
0100
0010
1000
0100
0001
0200
0000
,
1300
0011
0110
1100
,
1001
0110
1100
0201
,
1300
0100
0001
0100
1000
0100
0001
0100
,
2000
0000
3100
0010
1000
0100
0020
0000
,
0130
1001
0101
1010
,
1100
0110
0011
1001
,
1010
0101
0110
1010
,
2001
0000
3100
1000
0100
0001
0200
0000
,
0300
0000
1000
0100
0010
0100
1000
0100
,
0001
0100
1000
0100
0010
0100
1000
0010
,
0100
1001
0110
1020
,
0031
0010
1000
0010
0100
0001
0010
0100
,
2000
0000
3002
0203
2000
0300
3100
0010
,
2000
0000
3100
0001
2000
0000
3020
0001
,
0230
1000
0001
1300
,
0001
0020
1000
0000
0001
0000
1000
0000
,
0032
0000
0000
0000
0103
0000
0000
0010
0000
0000
0100
0000
0000
0000
0001
0000
,
0010
0000
0000
0000
0100
0000
0000
1000
0000
0000
1000
0000
0000
0000
0001
0000
,
0000
0000
0100
0000
0010
0000
0000
0100
0000
0000
0001
0000
0000
0000
0001
0000
,
0100
0000
0000
0000
0010
0000
0000
1000
0000
0000
0100
0000
0000
0000
0200
0000
,
0000
0000
0000
0000
0010
0000
0000
1000
0000
0000
1300
0000
0000
0000
0001
0000
,
0020
0000
0000
0000
0100
0000
0000
0001
0000
0000
0032
0000
0000
0000
0203
0000
,
0000
0000
1300
0000
0100
0000
0000
0002
0000
0000
0013
0000
0000
0000
0020
0000
,
1000
0000
0030
0000
0010
0000
0000
0001
0000
0000
0100
0000
0000
0000
0200
0000
,
2300
0001
0001
3001
,
0020
1000
1000
1030
,
0200
0001
0001
0302
,
1000
1003
2000
0020
,
3001
0001
0032
0203
,
1000
1000
1300
0200
,
0320
2030
3200
0302
,
2003
3020
0032
0103
,
0011
0000
0010
0001
0010
0100
0010
0001
,
0010
1000
0010
0001
0100
0010
0100
0001
,
0100
0001
0100
1000
0100
0001
0100
1000
,
0100
0000
0001
0000
0100
0001
0000
0000
1000
0100
0000
0000
0100
0001
0000
0000
,
1000
0100
0000
0000
0010
0001
0000
0000
0010
0001
0000
0000
0010
0001
0000
0000
,
1000
0010
0000
0000
2000
0000
0000
0000
3200
0000
0000
0000
0301
0000
1000
0000
,
0001
1000
0020
0000
0032
0000
0203
0000
,
2000
3000
0310
1100
,
0011
1010
0011
0110
,
1000
0010
0100
0010
1000
0100
1000
0001
,
1000
0010
0001
0010
1000
0100
0010
0001
,
0010
0100
2000
0001
3020
0100
2030
0000
,
3010
0001
0010
1000
0100
0001
0100
1000
,
0010
0001
0010
1000
0100
0010
0001
0200
,
0010
0301
1000
0100
0010
0001
1000
0100
,
1000
0010
0100
0001
0020
0000
1030
0000
,
0101
1100
0110
0011
,
1001
0110
0011
1020
,
0031
0010
1000
0010
0001
0010
1000
0010
,
0002
0000
0013
0100
0001
0010
0200
0000
,
0310
1001
0110
0101
,
1200
0000
0301
0100
1000
0100
0001
0100
,
1000
0010
0100
1000
0100
0001
0100
1000
,
0100
0002
0010
2003
3010
0002
0103
0000
,
0110
0000
0001
0010
0100
0010
0001
0010
,
1000
0010
0001
0010
0100
0010
0001
0100
,
0010
1001
0110
0201
,
1300
0100
0001
0100
0010
1000
0100
0010
,
0002
0003
1000
0010
0002
0003
0010
0100
,
0002
0000
0013
1000
0002
0000
0203
1000
,
0320
0001
1000
0031
,
1000
0200
0001
0000
1000
0000
0001
0000
,
2300
0000
0000
0000
3020
0000
0000
0001
0030
0000
0010
0000
0000
0000
0010
0000
,
0100
0000
0000
0000
0100
0000
0000
0001
0000
0000
1000
0000
0000
0000
0001
0000
,
0010
0100
0010
0001
0010
0100
0010
0100
,
1000
0010
0001
0010
1000
0010
0001
0010
,
2000
0000
3001
0020
0000
2030
0000
3001
,
0000
0200
0000
0000
0320
0000
0000
0032
0000
0000
0203
0000
0000
0000
0000
0000
,
1300
0100
0010
0100
1000
0100
0010
0100
,
0010
0001
0010
1000
0010
0001
0020
0000
,
1030
0000
0000
0000
1000
0001
0000
0000
0100
0010
0000
0000
1000
0001
0000
0000
,
1000
0100
0000
0000
0001
0010
0000
0000
1000
0010
0000
0000
0001
0010
0000
0000
,
1000
0100
0010
0001
0010
0100
1000
0100
,
1000
0010
0001
0010
1000
0010
0001
0010
,
1000
0000
0000
0000
0001
1000
0000
0000
0010
0100
0000
0000
0001
1000
0000
0000
,
0001
0010
0000
0000
1000
0100
0000
0000
0001
0100
0000
0000
1000
0100
0000
0000
,
0001
0010
0100
1000
0100
0010
0001
0010
,
0001
0100
1000
0100
0001
0100
1000
0100
,
0001
0000
0000
0000
0020
0000
0000
0100
0000
0000
0230
0000
0000
0000
1300
0000
,
0020
0000
0000
0000
0100
0000
0000
1000
0000
0000
0230
0000
0000
0000
0310
0000
,
1000
0200
0001
0000
1000
0000
0001
0000
,
1300
0020
0001
0000
1000
0000
0002
0000
,
0003
0000
0000
0000
2030
0000
0000
0100
0000
0000
3200
0000
0000
0000
0310
0000
,
0002
0000
0000
0000
0203
0000
0000
2000
0300
0000
0002
0000
3000
0000
0000
0000
,
0013
0100
0002
0000
0023
0000
2030
0000
,
3010
0002
0200
0003
2300
0000
3002
0000
,
0023
2030
0000
0000
,
0002
0000
0000
0000
0000
3000
0000
0020
,
0000
0000
0000
0000
,
0000
0000
0000
0003
,
0130
2000
0000
0000
0000
0000
0000
0000
,
0020
0000
0000
0000
,
0000
0000
0000
0000
,
0000
0000
0000
0000
,
3030
0000
0000
0000
;
