#TITLE:Heaven;
#SUBTITLE:;
#ARTIST:Alison Wonderland & Ninajirachi;
#TITLETRANSLIT:;
#SUBTITLETRANSLIT:;
#ARTISTTRANSLIT:;
#GENRE:;
#CREDIT:RxSteps;
#MUSIC:Heaven.ogg;
#BANNER:Heaven.png;
#BACKGROUND:Heaven-bg.png;
#CDTITLE:cdtitle.png;
#SAMPLESTART:50.478;
#SAMPLELENGTH:26.087;
#SELECTABLE:YES;
#OFFSET:1.696;
#BPMS:0.000=138.000;
#STOPS:;
#BGCHANGES:;
#FGCHANGES:;

//--------------- dance-single - RxSteps ----------------
#NOTES:
     dance-single:
     RxSteps:
     Beginner:
     4:
     0,0,0,0,0:
0000
0000
0000
0000
,
1000
0000
0000
0010
,
0000
0000
0000
0000
,
1000
0000
0000
0001
,
0000
0000
0000
0000
,
0001
0000
0000
0100
,
0000
0000
0000
0000
,
0010
0000
0000
0100
,
0000
0000
0010
0000
,
1000
0000
0000
0010
,
0000
0000
0000
0000
,
0100
0000
0000
0001
,
0000
0000
0000
0000
,
0001
0000
0000
0100
,
0000
0000
0000
0000
,
0010
0000
0000
1000
,
0000
0000
0010
0000
,
0100
0000
0000
0001
,
0000
0000
0000
0000
,
0100
0000
0000
0010
,
0000
0000
0000
0000
,
1000
0000
0100
0000
,
0010
0000
0001
0000
,
1000
0000
0001
0000
,
1000
0000
0010
0000
,
1000
0000
0100
0000
,
0100
0000
0010
0000
,
0020
0000
0030
0000
,
0002
0000
0003
0000
,
2000
0000
0000
0000
,
3000
0000
0000
0000
,
0110
0000
0000
0000
,
0001
0000
0010
0000
,
0100
0000
1000
0000
,
0001
0000
0001
0000
,
0100
0100
0100
0000
,
0010
0000
1000
0000
,
0010
0000
0100
0000
,
0100
0000
0001
0000
,
1000
0000
0100
0000
,
0010
0000
0001
0000
,
1000
0000
0001
0000
,
0100
0000
0100
0000
,
0020
0030
0000
2000
,
0000
0000
3000
0000
,
0001
0000
1000
0000
,
0100
0000
0100
0000
,
1000
0000
0001
0000
,
0010
0000
0001
0000
,
0001
0000
1000
0000
,
0010
0000
0010
0000
,
1000
1000
1000
0000
,
0001
0000
0010
0000
,
0002
0000
0003
0000
,
1000
0000
0000
0000
,
0100
0000
0000
0000
,
0010
0000
0001
0000
,
0010
0000
0000
0100
,
0000
0000
0000
0000
,
1000
0000
0000
0100
,
0000
0000
0000
0000
,
0010
0000
0000
0000
,
0001
0000
0000
1000
,
0000
0000
0000
0010
,
0000
0000
0000
0000
,
0010
0000
0000
1000
,
0000
0000
0000
0000
,
0010
0010
0000
0000
,
2000
0000
3000
0000
,
0002
0000
0003
0000
,
0200
0000
0300
0000
,
0010
0010
0000
0000
,
2000
0000
3000
0000
,
0001
0000
0001
0000
,
1000
0000
1000
0000
,
0010
0000
0010
0000
,
0200
0000
0300
0000
,
0100
0000
0001
0000
,
1000
0000
0010
0000
,
1000
0000
0100
0000
,
0010
0000
0001
0000
,
1000
0000
0100
0000
,
0010
0000
0001
0000
,
2000
0000
3000
0000
,
0001
0000
0000
0000
,
0110
0000
0000
0000
,
1000
0000
0001
0000
,
0010
0010
0000
0000
,
0001
0000
0001
0000
,
1000
0000
0010
0000
,
0100
0000
0001
0000
,
0010
0010
0000
0000
,
0001
0000
1000
0000
,
0100
0000
0010
0000
,
0001
0000
0001
0000
,
1000
0000
0100
0000
,
1000
0000
0001
0000
,
0100
0000
0010
0000
,
1000
0000
1000
0000
,
0020
0030
0000
0200
,
0000
0000
0300
0000
,
0001
0000
0100
0000
,
0010
0000
0010
0000
,
1000
0000
0100
0000
,
0010
0000
0001
0000
,
0001
0000
1000
0000
,
0001
0000
0010
0000
,
0100
0100
0100
0000
,
1000
0000
0001
0000
,
1000
0000
0000
0100
,
0000
0000
0000
0000
,
1000
0000
0000
0001
,
0000
0000
0000
0000
,
0001
0000
0000
0010
,
0000
0000
0000
0000
,
0100
0000
0000
2000
,
0000
0000
0000
0000
,
3000
0000
0000
0000
;

//--------------- dance-single - RxSteps ----------------
#NOTES:
     dance-single:
     RxSteps:
     Easy:
     7:
     0,0,0,0,0:
0000
0000
0000
0000
,
0001
0000
0000
0100
0000
0000
0010
0000
,
0000
0000
0010
1000
,
0001
0000
0000
0010
0000
0000
0200
0000
,
0000
0000
0000
0000
0000
0300
0000
0000
,
1000
0000
0000
0100
0000
0000
0010
0000
,
0001
0000
0000
1000
,
0001
0000
0000
0100
0000
0000
0010
0000
,
1000
0000
0001
0000
0100
0001
0100
0000
,
0001
0000
0000
1000
0000
0000
0100
0000
,
2000
0000
3000
0001
,
0100
0000
0000
0010
0000
0000
2000
0000
,
0000
3000
0010
0010
,
1000
0000
0000
0010
0000
0000
1000
0000
,
0001
0010
0100
1000
,
0100
0000
0000
0010
0000
0000
0001
0000
,
0010
0000
0100
0000
1000
0100
1000
0000
,
0100
0000
0000
0010
0000
0000
0001
0000
,
2000
0000
3000
0010
,
0100
0000
0000
0001
0000
0000
2000
0000
,
0000
0000
3000
0010
,
1000
0010
0100
0001
,
0001
0100
0010
1000
,
0001
0000
0000
0010
0000
0000
0200
0000
,
0000
0000
0300
0000
,
1000
0100
0010
0001
,
0001
0010
0100
1000
,
1000
0000
0000
0010
0000
0000
0100
0000
,
0002
0000
0003
1000
,
0010
0100
0010
0100
,
0001
1000
0000
0000
,
0110
0000
1000
0001
,
0100
0001
0010
0100
,
0100
1000
0100
0010
,
0100
0100
1000
0001
,
1000
1000
0010
0100
,
0010
1000
0001
0100
,
0100
0010
1000
0001
,
0010
0010
0100
1000
,
1000
0100
0010
0001
,
0100
0010
0100
0001
,
1000
0001
0010
0200
,
0300
0100
1000
0001
,
1000
0000
0000
0010
0000
0000
0100
0000
,
0010
1000
0010
1000
,
0001
0100
0010
0100
,
0001
1000
0100
0010
,
0001
1000
0010
0100
,
0010
0000
1000
0000
0010
0100
0010
0100
,
0010
0000
1000
0000
0001
0000
0100
0001
,
0100
0010
1000
0100
,
0010
0010
0001
0010
,
0100
1000
0001
0100
,
0020
0000
0030
1000
,
0002
0000
0003
0100
,
0010
1000
0010
0100
,
0001
1000
1000
0100
,
1000
0100
0010
0001
,
2000
3000
0001
0010
,
0100
0000
0000
1000
0000
0000
0001
0000
,
1000
0000
0100
0000
1000
0100
1000
0000
,
0100
0010
0001
1000
,
0020
0000
0030
0100
,
0001
0010
0001
1000
,
0100
0010
0001
1000
,
0001
0100
0010
1000
,
0002
0000
0003
0001
,
0020
0000
0100
0030
0001
0000
1000
0000
,
0200
0000
0000
0300
,
0100
0010
0002
0003
,
1000
0010
0100
0020
,
1000
0030
0100
0000
0001
0000
1000
0000
,
0010
2000
3000
0001
,
1000
0100
0010
0100
,
1000
0100
0010
0001
,
1000
0010
0100
0001
,
1000
1000
0010
0100
,
0010
1000
0001
0100
,
0010
1000
0001
0010
,
0001
1000
0100
0010
,
0001
1000
0100
0010
,
0001
0000
0000
0010
0000
0000
0100
0000
0000
1000
0000
0000
0001
0000
0000
0100
,
0000
0000
0010
0000
0000
1000
0000
0000
0001
0000
0000
0100
0000
0000
0001
0000
,
0100
0000
0000
0020
0000
0000
2000
0000
,
0000
0000
3030
0000
,
0101
0000
1000
0010
,
0100
0100
0010
1000
,
0010
0100
0010
0000
1000
0000
0001
0000
,
0010
0000
0010
0000
0001
0010
0001
0000
,
1000
0000
0010
0000
0100
0000
0010
1000
,
0010
0000
0100
0000
0001
0100
0001
0000
,
1000
1000
0010
0100
,
0010
0010
1000
0001
,
0001
0100
0010
1000
,
0001
0001
0010
0100
,
1000
1000
0100
0010
,
0100
1000
0001
0100
,
0010
0010
0100
0001
,
1000
1000
0010
0100
,
0010
0000
0000
1000
0000
0000
0002
0000
,
0000
0000
0003
0000
,
1000
0001
0100
0010
,
0100
0001
1000
0100
,
0010
0001
1000
0010
,
0100
0000
0001
0000
0100
0001
0100
0001
,
0100
0010
1000
0001
,
0001
0100
0010
1000
,
0010
0100
0010
0000
1000
0000
0001
0000
,
2000
0000
3000
0000
,
0010
0000
0000
0100
0000
0000
0002
0000
,
0000
0000
0000
0003
0000
0000
0001
0000
,
0010
0000
0000
0001
0000
0000
2000
0000
,
0000
0000
0000
3000
0000
0000
0010
0000
,
1000
0000
0000
0010
0000
0000
0200
0000
,
0000
0300
0000
0000
0001
0000
1000
0000
,
0010
0000
0000
0100
0000
0000
0002
0000
,
0000
0000
0000
0000
,
0003
0000
0000
0000
;

//--------------- dance-single - RxSteps ----------------
#NOTES:
     dance-single:
     RxSteps:
     Medium:
     9:
     0,0,0,0,0:
0000
0000
0000
0000
,
0001
1000
0100
0010
0000
0002
0100
0000
,
0000
0000
0003
0000
0100
0010
1000
0002
,
0010
0003
0020
0100
0030
0100
2000
0000
,
0000
0000
0000
3000
,
0001
0100
0020
1000
0030
1000
0100
0020
,
0001
0000
0000
0000
0030
0000
0001
0100
,
0010
1000
0200
0010
0300
0010
0001
0100
,
0010
2000
0100
3000
0100
0010
0001
0000
,
1000
0010
0100
0001
0000
0010
0100
1000
,
0020
0000
0000
0030
0000
0100
0001
0000
,
0010
0000
0000
0200
0000
0000
1000
0000
,
0000
0000
0000
0300
1000
0100
1000
0001
,
0100
0010
0100
0001
0000
0100
0010
1000
,
0100
1000
0010
0100
0001
0010
0100
2000
,
0100
3000
0200
0010
0300
0010
0001
1000
,
0100
1000
0001
0000
0100
0010
0100
0000
,
0010
1000
0002
0010
0003
0010
0100
1000
,
0002
0000
0000
0003
0000
0100
0010
0000
,
1000
0000
0000
0100
0000
0000
0010
0002
,
0000
0000
0003
0000
0100
0010
0000
0000
,
1000
0000
0000
0000
0010
0000
0000
0000
0100
0000
0000
0010
0000
0000
1000
0000
,
0100
0000
0000
0000
0010
0000
0000
0000
0002
0000
0000
0100
0000
0000
0003
0000
,
0100
0000
0000
0000
0010
0000
0000
0000
1000
0000
0000
0100
0000
0000
0010
0000
,
0001
0000
0000
0000
1000
0000
0000
0000
0020
0000
0000
0100
0000
0000
0030
0000
,
0100
0000
0000
0000
0001
0000
0000
0000
0010
0000
0000
0100
0000
0000
1000
0000
,
0010
0000
0000
0000
0100
0000
0000
0000
0010
0000
0000
1000
0000
0000
0000
0000
,
0001
0000
0000
0100
0000
0000
0010
2000
,
0200
0000
3300
0101
,
1020
0030
0100
0000
0001
0000
1000
0000
0010
0000
0100
0000
0001
0000
0020
0000
,
0100
0030
0100
0010
0001
2000
3010
0000
,
0201
0300
0010
0000
1000
0000
0010
0000
0100
0000
0001
0000
1000
0000
0010
0000
,
0100
0001
0010
0100
1000
0001
0100
0001
,
1000
0010
0100
0001
0010
0100
0010
0002
,
0100
0003
0100
0001
1000
0010
0100
0001
,
0200
0000
0010
0300
0001
0000
1000
0000
0010
0000
0100
0000
0001
0000
0010
0000
,
0200
0000
1000
0300
0020
0000
0001
0030
,
0100
1000
0100
0010
0100
1000
0001
0020
,
0100
0030
0100
1000
0100
0020
0031
0000
,
1200
0300
0010
0000
0001
0000
1000
0000
0010
0000
0100
0000
0001
0000
0100
0000
,
0010
1000
0010
0100
0001
0100
0010
1000
,
0100
0010
0100
1000
0001
1000
0010
0200
,
0310
0000
0000
0010
0100
0000
0001
0000
1000
0000
0100
0000
0010
0000
0001
0000
,
0020
0000
0030
0200
0000
0300
1000
0002
,
0000
0003
1000
0000
0100
0000
0010
0000
,
0001
0100
0020
1000
0030
1000
0200
0010
,
0300
0010
0001
2000
3000
0001
0100
0010
,
1000
0100
0010
0001
0100
0010
1000
0100
,
0010
0100
1000
0010
0100
0001
0100
0001
,
1000
0000
0010
0000
2000
0000
0100
3000
0000
0000
0100
0000
0010
0000
0001
0000
,
0010
0001
0100
0010
2000
3000
0200
0300
,
0020
0000
0001
0030
0100
0000
1000
0000
0100
0000
0010
0000
0001
0000
0010
0000
,
0100
1000
0010
0100
0001
0100
0010
1000
,
0200
0300
0010
0000
0001
0010
0100
1000
,
0001
0000
0100
0000
0010
0000
1000
0001
,
0100
0010
0100
0002
0003
1000
0200
0300
,
0010
0001
2000
0010
3000
0010
0100
0000
,
0001
0010
0100
2000
3000
0010
0100
0001
,
0010
0000
0001
0000
1000
0100
0020
0000
,
0001
0000
0030
0100
0000
0000
1000
0000
,
0100
0000
0000
0000
0020
0000
0000
0000
0001
0030
0100
0000
1000
0000
0001
0000
,
0100
0010
0200
0001
0300
0001
0100
0010
,
1000
0000
0020
0000
0100
0030
0100
0010
,
1000
0001
0010
0200
0300
0010
0001
0100
,
0010
1000
0001
0100
0010
0100
0001
0000
,
0010
0000
0100
0000
0010
0001
1000
0100
,
0010
0000
0001
0000
1000
0100
0010
0001
,
0100
0010
1000
0100
1000
0010
0100
0001
,
1000
0100
1000
0100
1000
0100
1000
0100
,
0010
0100
1000
0010
0100
0010
0100
0001
,
1000
0010
0100
0010
0100
0001
0010
0100
,
1000
0010
0100
0001
0010
0001
0100
0001
,
1000
0100
0010
0100
0010
0001
1000
0100
,
0010
0100
1000
0100
0010
0100
1000
0010
,
0200
0000
0001
0300
0020
0000
1000
0030
0200
0000
0001
0300
0010
0000
1000
0000
,
0001
0100
0010
0100
0001
1000
0010
1000
,
0001
0000
0010
0000
0100
0000
1000
0000
0100
0000
0020
0000
0001
0030
0100
0000
,
1000
0000
0200
0000
0010
0300
1000
0000
,
0001
0000
0100
0000
0020
0000
1000
0030
,
0100
0000
0001
0000
1000
0100
0010
0001
,
1000
0100
0010
0001
0100
0010
1000
0100
,
0010
0000
0000
0001
0000
0000
0100
0000
0000
0010
0000
0000
1000
0000
0000
0100
,
0000
0000
0010
0000
0000
0001
0000
0000
0100
0000
0000
0010
0000
0000
0100
0000
,
0002
0000
0003
2000
0000
3000
0002
0000
,
0010
0010
0010
0013
,
1200
0300
0010
0000
0001
0000
1000
0000
0100
0000
0010
0000
0001
0000
0200
0000
,
0010
0300
0010
1000
0001
1000
0100
0020
,
0001
0030
0100
0000
1000
0000
0010
0000
1000
0000
0100
0000
0010
0000
0002
0000
,
0100
0003
0100
0020
1000
0030
1000
0100
,
0010
0001
0010
0100
1000
0010
0100
0001
,
1000
0100
1000
0001
0100
0020
1000
0030
,
1000
0100
0010
0002
0100
0003
0100
0010
,
1000
0000
0001
0000
0100
0000
0010
0000
1000
0000
0001
0000
0020
0000
0100
0030
,
0001
1000
0100
0010
0100
1000
0001
0020
,
0100
0030
0100
1000
0100
0010
0001
0100
,
0010
1000
0001
0100
0010
1000
0001
0010
,
0100
1000
0001
0010
0100
0010
0001
1000
,
0010
0100
0010
1000
0001
0010
0100
0020
,
0031
0000
0000
0001
0010
0000
0100
0000
1000
0000
0010
0000
0100
0000
0001
0000
,
0020
0000
0000
0000
0030
0000
0200
0000
0000
0300
0000
0000
1000
0000
0000
0000
,
0010
0000
0000
0000
0200
0000
0000
0000
0301
0000
0000
0000
2010
3000
0000
0000
,
0001
0100
0010
0100
0001
1000
0010
0200
,
0001
0300
0001
0100
0010
1000
0100
0010
,
0001
0010
0100
0010
0001
1000
0100
1000
,
0001
1000
0100
0010
0100
1000
0001
1000
,
0001
0100
0010
1000
0001
0100
0010
0100
,
0010
1000
0100
0010
0001
0010
0100
1000
,
0200
0000
0010
0300
1000
0000
0001
0000
0010
0000
0100
0000
1000
0000
0001
0000
,
0200
0300
0010
0000
1000
0000
0010
0000
,
0100
0010
1000
0002
0003
0200
0010
0000
,
0000
0000
0000
0000
0300
0000
0010
1000
,
0100
0010
0002
1000
0003
1000
0020
0000
,
0000
0000
0030
0100
,
0001
0010
0200
1000
0300
1000
0020
0000
,
0000
0000
0030
0000
0100
0010
1000
0001
,
0010
0100
1000
0010
0000
0200
0002
0000
,
0000
0000
0000
0000
,
0303
0000
0000
0000
;

//--------------- dance-single - RxSteps ----------------
#NOTES:
     dance-single:
     RxSteps:
     Hard:
     10:
     0,0,0,0,0:
0000
0000
0000
0000
,
0001
1000
0100
0010
0000
0002
0100
0000
,
0000
0000
0003
0000
0100
0010
1000
0002
,
0010
0003
0020
0100
0030
0100
2000
0000
,
0000
0000
0000
3000
,
0001
0100
0020
1000
0030
1000
0100
0020
,
0001
0000
0000
0000
0030
0000
0001
0100
,
0010
1000
0200
0010
0300
0010
0001
0100
,
0010
2000
0100
3000
0100
0010
0001
0000
,
1000
0010
0100
0001
0000
0010
0100
1000
,
0020
0000
0000
0030
0000
0100
0001
0000
,
0010
0000
0000
0200
0000
0000
1000
0000
,
0000
0000
0000
0300
1000
0100
1000
0001
,
0200
0300
1000
0000
0100
0000
0001
0000
0000
0000
0100
0000
0010
0000
1000
0000
,
0200
0300
0001
0000
0100
0000
1000
0000
0010
0000
0100
0000
0001
0000
0020
0000
,
0100
0030
0200
1000
0300
1000
0001
0100
,
0010
0100
0001
0000
0010
0100
1000
0000
,
0010
0100
0002
0010
0003
0010
0100
1000
,
0002
0000
0000
0003
0000
0100
0010
0000
,
1000
0000
0000
0100
0000
0000
0010
0002
,
0000
0000
0003
0000
0100
0010
0000
0000
,
1000
0000
0000
0000
0010
0000
0000
0000
0100
0000
0000
0010
0000
0000
1000
0000
,
0100
0000
0000
0000
0010
0000
0000
0000
0002
0000
0000
0100
0000
0000
0003
0000
,
0100
0000
0000
0000
0010
0000
0000
0000
1000
0000
0000
0100
0000
0000
0010
0000
,
0001
0000
0000
0000
1000
0000
0000
0000
0020
0000
0000
0100
0000
0000
0030
0000
,
0100
0000
0000
0000
0001
0000
0000
0000
0010
0000
0000
0100
0000
0000
1000
0000
,
0010
0000
0000
0000
0100
0000
0000
0000
0010
0000
0000
1000
0000
0000
0000
0000
,
0001
0000
0000
0100
0000
0000
0010
2000
,
0200
0000
3300
0101
,
1020
0030
0100
0000
0001
0000
1000
0000
0010
0000
0100
0000
0001
0000
0010
0000
,
0200
0000
1000
0300
0010
0000
0001
0000
0100
0000
0020
0000
1030
0000
0000
0000
,
0201
0300
0010
0000
1000
0000
0100
0000
0010
0000
0100
0000
1000
0000
0001
0000
,
0200
0300
1000
0000
0100
0000
0001
0000
0100
0000
0010
0000
1000
0000
0001
0000
,
1000
0100
0010
0001
0010
0100
0010
0001
,
0200
0300
1000
0000
0100
0000
0001
0000
1000
0000
0010
0000
0100
0000
0001
0000
,
0020
0030
1000
0000
0001
0000
0100
0000
1000
0000
0010
0000
0100
0000
0001
0000
,
0100
0010
1000
0010
0100
0001
0010
0100
,
1000
0000
0200
0300
0001
0000
0100
0000
1000
0000
0200
0300
0001
0000
0100
0000
,
1000
0010
0100
0010
1000
0200
0310
0000
,
0021
0030
0100
0000
1000
0000
0001
0000
0010
0000
0100
0000
1000
0000
0010
0000
,
0100
0001
0100
0010
1000
0010
0100
0001
,
0010
0100
0010
0001
1000
0001
0100
0020
,
0130
0000
0000
0100
0010
0000
1000
0000
0001
0000
0010
0000
0100
0000
1000
0000
,
0020
0030
0001
0000
1000
0000
0100
0000
0001
0000
0010
0000
0200
0000
1000
0000
,
0000
0300
1000
0000
0100
0000
0010
0000
,
0001
0100
0020
1000
0030
1000
0200
0010
,
0300
0010
0001
2000
3000
0001
0100
0010
,
1000
0000
0100
0000
0010
0000
0001
0000
0100
0000
0010
0000
1000
0000
0200
0300
,
0001
0000
0100
0000
1000
0000
0100
0000
0010
0000
0001
0000
0200
0300
1000
0000
,
0001
0000
0010
0000
2000
0000
0100
3000
0000
0000
0100
0000
0010
0000
0001
0000
,
0010
0001
0100
0010
2000
3000
0200
0300
,
0020
0000
0001
0030
0100
0000
1000
0000
0100
0000
0010
0000
0001
0000
0010
0000
,
0100
1000
0010
0100
0001
0100
0010
1000
,
0200
0300
0010
0000
0001
0010
0100
1000
,
0001
0000
0100
0000
0010
0000
1000
0001
,
0200
0300
1000
0000
0100
0000
0002
0000
0003
0000
1000
0000
0200
0000
0300
0000
,
0010
0001
2000
0010
3000
0010
0100
0000
,
0001
0010
0100
2000
3000
0010
0100
0001
,
0010
0000
0001
0000
1000
0100
0020
0000
,
0001
0000
0030
0100
0000
0000
1000
0000
,
0100
0000
0000
0000
0010
0000
0000
0000
0001
1000
0010
0000
0100
0000
0010
0000
,
1000
0100
0020
0001
0030
0001
0010
0100
,
1000
0000
0020
0000
0100
0030
0100
0010
,
1000
0001
0010
0200
0300
0010
0001
0100
,
0010
0000
1000
0000
0001
0000
0200
0300
1000
0000
0100
0000
0001
0000
0000
0000
,
0010
0000
0100
0000
0010
0001
1000
0100
,
0010
0000
0001
0000
1000
0010
0100
0001
,
0020
0030
1000
0000
0001
0000
0100
0000
1000
0000
0010
0000
0100
0000
0001
0000
,
1000
0100
1000
0100
1000
0100
1000
0100
,
0010
0000
0100
0000
1000
0000
0010
0000
0200
0000
0001
0300
0010
0000
1000
0000
,
0100
0010
0001
0010
0001
1000
0001
0010
,
0100
0000
1000
0000
0020
0030
0001
0000
1000
0000
0100
0000
0010
0000
1000
0000
,
0001
0000
0100
0000
0010
0000
2000
0000
0001
3000
0010
0000
1000
0000
0200
0300
,
0001
0000
0100
0000
1000
0000
0200
0300
0001
0000
0100
0000
1000
0000
0010
0000
,
0200
0000
0001
0300
0020
0000
1000
0030
0200
0000
0001
0300
0010
0000
1000
0000
,
0001
0000
0200
0300
1000
0000
0100
0000
0001
0000
0200
0300
1000
0000
0100
0000
,
0001
0000
0010
0000
0100
0000
1000
0000
0100
0000
0020
0000
0001
0030
0100
0000
,
1000
0000
0200
0000
0010
0300
1000
0000
,
0001
0000
0100
0000
0020
0000
1000
0030
,
0100
0000
0001
0000
1000
0100
0010
0001
,
1000
0100
0010
0001
0100
0010
1000
0100
,
0010
0000
0000
0001
0000
0000
0100
0000
0000
0010
0000
0000
1000
0000
0000
0100
,
0000
0000
0010
0000
0000
0001
0000
0000
1000
0010
0100
0001
1000
0010
0100
0001
,
2000
0000
3000
0200
0000
0300
0020
0000
,
0001
0001
0001
0031
,
1200
0300
0010
0000
0001
0000
1000
0000
0100
0000
0010
0000
0001
0000
0100
0000
,
0020
0000
1000
0030
0100
0000
0001
0000
0010
0000
0100
0000
1000
0000
0020
0030
,
0001
1000
0100
0010
1000
0100
0010
0001
,
0020
0030
1000
0000
0010
0000
0001
0000
0010
0000
0200
0000
1000
0300
0010
0000
,
0001
1000
0010
0100
0001
0010
0100
1000
,
0200
0300
0001
0000
0100
0000
1000
0000
0100
0000
0020
0000
0001
0000
0030
0000
,
0001
0000
0100
0000
0010
0000
1000
0000
0200
0000
0010
0300
1000
0000
0010
0000
,
0100
0000
0001
0000
1000
0000
0010
0000
1000
0000
0001
0000
0020
0000
0100
0030
,
0001
1000
0100
0010
0100
1000
0001
0010
,
0200
0000
1000
0300
0010
0000
0001
0000
1000
0000
0010
0000
0100
0000
0001
0000
,
1000
0010
0100
0001
0100
0010
1000
0100
,
0010
0001
0010
0100
1000
0100
0010
0001
,
0100
0010
0100
0001
1000
0001
0010
0200
,
1300
0000
0000
1000
0100
0000
0010
0000
0001
0000
0100
0000
0010
0000
1000
0000
,
0200
0300
0001
0000
1000
0000
0010
0000
0001
0000
0100
0000
0020
0000
0030
0000
,
1000
0000
0000
0000
0002
0000
0000
0000
0103
0000
0000
0000
2010
3000
0000
0000
,
0001
0000
0200
0300
1000
0000
0100
0000
0001
0000
0200
0300
1000
0000
0100
0000
,
0001
0010
0100
0010
0001
1000
0100
0010
,
0001
0000
0020
0030
1000
0000
0010
0000
0001
0000
0020
0030
1000
0000
0010
0000
,
0001
1000
0100
0010
0100
1000
0001
1000
,
0001
0100
0010
1000
0001
0100
0010
0100
,
0010
1000
0100
0010
0001
0010
0100
1000
,
0200
0000
0010
0300
1000
0000
0001
0000
0010
0000
0100
0000
1000
0000
0001
0000
,
0200
0300
0010
0000
1000
0000
0010
0000
,
0100
0010
1000
0002
0003
0200
0010
0000
,
0000
0000
0000
0000
0300
0000
0010
1000
,
0100
0010
0002
1000
0003
1000
0020
0000
,
0000
0000
0030
0100
,
0001
0010
0200
1000
0300
1000
0020
0000
,
0000
0000
0030
0000
0100
0010
1000
0001
,
0010
0100
1000
0010
0000
0200
0002
0000
,
0000
0000
0000
0000
,
0303
0000
0000
0000
;
