#TITLE:Happy;
#SUBTITLE:;
#ARTIST:Leah Kate;
#TITLETRANSLIT:;
#SUBTITLETRANSLIT:;
#ARTISTTRANSLIT:;
#GENRE:;
#CREDIT:RxSteps;
#MUSIC:Happy.ogg;
#BANNER:Happy.png;
#BACKGROUND:Happy-bg.png;
#CDTITLE:cdtitle.png;
#SAMPLESTART:39.373;
#SAMPLELENGTH:14.348;
#SELECTABLE:YES;
#OFFSET:0.410;
#BPMS:0.000=92.000;
#STOPS:;
#BGCHANGES:;
#FGCHANGES:;

//--------------- dance-single - RxSteps ----------------
#NOTES:
     dance-single:
     RxSteps:
     Beginner:
     2:
     0,0,0,0,0:
0000
1000
0000
0000
,
0000
0010
0000
0000
,
0000
1000
0000
0000
,
0000
0001
0000
0100
,
0000
0010
0000
0010
,
0000
1000
0000
1000
,
0000
0001
0000
0001
,
0000
0100
0000
0100
,
0000
0010
0000
0010
,
0000
0100
0000
0001
,
0000
1000
0000
1000
,
0000
0010
0000
0010
,
0000
0100
0000
0000
,
0000
0001
0000
0000
,
0000
0001
0000
0000
,
0000
0010
0000
0000
,
0000
1000
0000
0010
,
0000
0100
0000
0100
,
0000
1000
0000
0001
,
0000
0001
0000
0000
,
0000
0100
0000
0100
,
0000
1000
0000
0000
,
0000
0010
0000
0001
,
0000
0100
0000
0001
,
0000
0000
0000
0000
,
0000
0100
0000
1000
,
0000
1000
0000
0001
,
0000
0001
0000
0010
,
0000
0010
0000
0100
,
0000
0001
0000
0100
,
0000
0010
0000
0010
,
0000
1000
0000
1000
,
0000
0001
0000
0100
,
0000
0010
0000
0010
,
0000
1000
0000
1000
,
0000
0001
0000
0001
,
0000
0010
0000
0100
,
0000
1000
0000
1000
,
0000
0010
0000
0100
,
0000
0001
0000
0001
,
0000
1000
0000
1000
,
0000
0100
0000
0010
,
0000
0000
0000
1000
,
0000
0000
0000
0001
,
0000
0000
0000
0010
,
0000
0000
1000
0000
,
0000
0100
0000
0100
,
0000
0100
0000
0000
,
0000
0001
0000
0001
,
0000
0001
0000
0000
,
0000
1000
0000
0010
,
0000
0010
0000
0100
,
0000
0001
0000
1000
,
0000
0010
0000
0010
,
0000
1000
0000
0001
,
0000
0010
0000
0010
,
0000
0100
0000
0100
,
0000
1000
0000
0001
,
0000
0001
0000
1000
,
0000
0001
0000
1000
,
0000
0010
0000
0100
,
0000
0100
0000
0001
;

//--------------- dance-single - RxSteps ----------------
#NOTES:
     dance-single:
     RxSteps:
     Easy:
     4:
     0,0,0,0,0:
0000
1000
0000
0010
,
0000
0100
0000
0001
,
0000
0010
0000
0001
,
0000
0000
1000
0010
1000
0010
2000
0000
,
3000
0000
0001
0000
0100
0000
0010
0100
,
0010
1000
0100
0010
,
0100
0010
0100
0000
1000
0000
0001
0100
,
0001
0010
0010
0001
,
0001
0000
1000
0000
0001
0100
0001
0000
,
0010
0000
0100
0010
0100
0000
1000
0000
,
0010
0000
1000
0001
1000
0000
0010
0000
,
0100
0001
0001
1000
,
1000
0020
0000
2030
,
0000
3002
0000
0003
,
1000
0010
0000
2000
,
0000
0000
3002
0000
0000
0000
0003
1000
,
0001
1000
0001
0000
0100
0000
0010
0000
,
1000
1000
0010
0010
,
1000
0010
1000
0000
0001
0000
0001
0000
,
0100
0001
0200
0000
0320
0000
2030
0000
,
3000
0002
0003
0200
,
0300
0001
0100
0000
0000
0000
0001
1000
,
0001
0100
0100
0010
,
1000
1000
0001
0200
,
0000
0302
0000
0003
,
0000
1000
1000
2000
,
3000
0000
0010
1000
0010
0000
0100
0000
,
0001
0000
0010
0001
0010
0000
0001
0000
,
1000
0000
0100
1000
0100
0000
1000
0000
,
0010
0100
0100
0100
,
0001
2000
3000
0200
,
0300
0020
0030
0001
,
1000
0001
0000
0010
,
0000
0000
0001
0000
0100
0000
0100
0001
,
1000
0001
1000
0000
0010
0000
0100
0000
,
0001
0001
0100
0100
,
0001
0100
0001
0000
1000
0000
1000
0000
,
0010
1000
0020
0000
0230
0000
0302
0000
,
0003
2000
3000
0020
,
0030
1000
0010
0000
0000
0000
1000
0001
,
1000
0010
0010
0100
,
0001
0001
1000
0020
,
0000
2030
3000
0002
,
0003
0200
0300
0200
,
0300
0020
0030
2000
,
3000
0002
0003
0200
,
0300
0200
0300
0020
,
0030
2000
3000
0001
,
0001
0020
0030
0020
,
0030
0000
2000
0000
0000
3000
0000
1000
,
0001
1000
0001
0000
0010
0000
0100
0000
,
1000
1000
0100
0100
,
1000
0100
1000
0000
0001
0000
0001
0000
,
0010
0001
0020
0000
0230
0000
2300
0000
,
3000
0002
0003
0020
,
0030
0001
0010
0000
0000
0000
0001
1000
,
0001
0010
0010
0100
,
1000
1000
0001
0020
,
0000
0031
1000
0100
,
0010
0001
0010
0100
,
1000
0010
0010
0100
,
0100
0001
1000
0010
,
0100
0000
0000
0000
;

//--------------- dance-single - RxSteps ----------------
#NOTES:
     dance-single:
     RxSteps:
     Medium:
     6:
     0,0,0,0,0:
0000
0000
0001
0000
0010
0001
0100
0000
,
0100
0010
1000
0000
0010
0100
0010
0000
,
1000
0100
0010
0000
0010
0100
1000
0000
,
0001
0010
0100
0000
0100
0000
1000
0001
,
1000
0000
0010
1000
0100
0000
1000
0001
,
0010
0000
0001
0100
0010
0000
0010
0100
,
0001
0000
1000
0001
0100
0000
0100
0001
,
1000
0000
0020
0000
0030
0010
0100
0000
,
0100
0000
0001
1000
0010
0000
0100
0010
,
1000
0000
1000
0100
0010
0000
0010
0001
,
0010
0000
0001
0010
0100
0000
0100
1000
,
0100
2000
0010
0001
,
3010
2000
0000
3200
,
0000
0320
0000
0000
,
0001
0230
0300
2000
,
0000
0000
3020
0000
0000
0000
0030
1000
,
0001
1000
0010
0100
0000
0100
0010
0100
,
0000
0000
0001
0000
0100
0000
0000
0010
1000
0000
0000
0000
1000
0000
0000
0000
,
0001
0010
0100
0010
0000
1000
0100
0010
,
0000
0202
0000
0303
,
1000
0220
0330
0002
,
0003
1000
0100
0000
2000
0000
3010
0000
,
0100
0010
1000
0010
0000
0010
0100
0001
,
0000
0001
1000
0010
0000
0000
0100
0000
,
0001
0020
0030
0002
,
0000
0000
1000
0000
0103
0000
1000
0001
,
1000
0001
0100
0010
1000
0000
1000
0100
,
0010
0000
0010
0100
0010
0000
0001
0100
,
0010
0000
0010
1000
0100
0000
1000
0001
,
0200
0010
0320
0100
,
0130
2002
3003
2200
,
3300
0202
0000
0303
,
0001
0000
0000
0000
1000
0000
0000
0010
1000
0000
0000
0010
1000
0000
0000
0001
,
1000
0000
0000
0001
0100
0000
0000
0000
0100
0000
0000
0000
1000
0000
0001
0000
,
0100
0010
1000
0000
0010
0100
0010
1000
,
0000
0022
0033
1010
,
1000
0001
0100
0001
0000
0100
0010
1000
,
0000
0000
1000
0000
0010
0000
0000
1000
0010
0000
0000
0100
0001
0000
0000
0000
,
1000
0020
0230
0301
,
0100
0001
0010
0000
0001
1000
0100
1000
,
0100
1000
0001
0000
0000
1000
0001
0010
,
0000
0010
0001
1000
0000
0000
0020
0000
,
0030
2000
0000
3002
,
0000
0203
0000
0302
,
0000
2003
0000
3200
,
0000
0320
0000
0000
,
0030
0000
0001
0010
0000
0000
0001
0100
,
0000
0000
0001
1000
0000
0000
0010
0000
,
0010
0000
1000
0010
0000
0000
1000
0001
,
0000
0000
1000
0100
0000
0000
0000
0001
,
1000
0001
0100
0010
0000
0010
0100
0010
,
0000
0000
1000
0000
0010
0000
0000
0100
0001
0000
0000
0000
0001
0000
0000
0000
,
1000
0100
0010
0100
0000
0001
0010
0100
,
0000
2020
0000
3030
,
0001
0220
0330
2000
,
3000
0001
0010
0000
0002
0000
0103
0000
,
0001
0100
0010
0100
0000
0100
0010
1000
,
0000
1000
0001
0100
0000
0000
0010
0100
,
0010
0100
0001
0100
0000
0001
0100
0010
,
0000
1000
0100
0010
0000
0010
0100
1000
,
0001
1000
0001
0100
0000
0001
0010
0100
,
0000
0100
0010
0001
0000
1000
0010
0000
,
0100
0000
0000
0000
;

//--------------- dance-single - RxSteps ----------------
#NOTES:
     dance-single:
     RxSteps:
     Hard:
     8:
     0,0,0,0,0:
0000
0000
1000
0000
1010
0001
1000
0000
,
0110
1000
0100
0000
0101
0001
1000
0000
,
1100
0001
0100
0000
0020
1000
0130
0000
,
2000
0000
0000
0001
0000
0000
3100
0000
0000
1000
0000
0001
1000
0000
0000
0000
0000
0001
0100
0000
0000
0000
0000
0010
,
1000
0000
0000
0000
0001
0000
0100
0000
0000
0000
0000
0000
0010
0000
0000
1000
0000
0000
0010
0000
0000
0100
0000
0000
0001
0000
0000
0100
0000
0000
0001
0000
0000
1000
0000
0000
0010
0000
0000
0000
0000
0000
1000
0000
0000
0001
0000
0000
,
0100
0000
0010
0000
1000
0001
1000
0100
1000
0100
1000
0001
0100
0010
0100
0001
,
1000
0000
0001
0000
0010
0001
0010
0001
1000
0001
0010
0001
1000
0100
1000
0010
,
1000
0001
0100
0000
0020
0000
0000
0000
1030
0000
0001
0000
0010
0000
0001
0000
,
1000
0000
0100
0000
0010
0100
0010
0100
1000
0001
1000
0001
0100
0001
0010
0000
,
0001
0000
0100
0000
1000
0001
1000
0010
1000
0001
0100
0001
0100
0000
0001
0000
,
0010
0000
0100
0000
1000
0001
0100
0001
0100
0010
1000
0001
0100
0010
1000
0001
,
0100
0010
2000
0000
0002
0000
0000
3000
0000
0000
0103
0000
0001
0100
0001
0100
,
0010
1000
0010
1000
0002
0000
0003
0010
0002
0000
0003
1000
0200
0300
0000
0100
,
0020
0030
0000
0001
0200
0300
0000
0010
0200
0300
0000
0100
0020
0000
0000
0000
,
2000
0000
3000
0000
0130
0000
0001
2000
3000
0000
1000
0002
0000
0003
0000
0001
,
0200
0000
0300
0001
2000
3000
0000
0100
2000
0000
0000
0000
3001
0000
1000
0000
,
0100
0010
1001
0110
0001
1000
0011
1100
,
0001
0000
0100
0002
0000
0003
1000
0020
0000
0030
0100
0002
0000
0000
0003
0000
,
1100
0001
0110
1100
0001
1010
0011
1000
,
0010
0000
0001
1000
0020
0000
0030
0100
0002
0000
0000
1003
0200
0000
0000
0000
,
0020
0000
0330
0000
1001
0000
0000
0001
1000
0000
0010
0000
0101
0000
0000
1000
,
0001
0000
1100
0000
0101
0000
0000
1000
0010
0100
0000
0000
0010
1000
0010
1000
,
0001
0100
1001
0110
1000
0001
0010
0100
,
0001
0000
1000
0000
0100
0000
0010
0000
1000
0000
0001
0000
1000
0000
0010
1000
,
0000
0001
0100
0000
0002
0000
0003
0000
0010
0000
0001
0000
1000
0000
0000
0000
,
0100
0000
0000
1000
0000
0000
0011
0000
0000
0000
0000
1000
0010
0000
0000
0000
0000
0001
0100
0000
0000
0000
0000
1000
,
0001
0000
0000
0000
0100
0001
0100
0010
1000
0010
1000
0001
0100
0001
1000
0010
,
1000
0000
0100
0000
0001
1000
0001
0010
0001
0010
0001
1000
0010
0100
0010
1000
,
0001
0000
1000
0000
0100
1000
0100
1000
0001
1000
0100
1000
0001
0000
0010
0000
,
0100
0010
0000
0000
0200
2000
0300
3000
0001
0100
0001
1000
0010
0000
1000
0001
,
0100
0001
0000
0000
2000
0000
3000
0100
2000
0000
3000
0001
0020
0030
0000
0010
,
0200
0300
0000
1000
0020
0030
0000
0100
0020
0030
0000
0010
0200
0000
0000
0000
,
0002
0000
0003
0000
0310
0000
1000
0002
0003
0000
0001
2000
0000
3000
0000
1000
,
0020
0000
0030
1000
0002
0003
0000
0010
0002
0000
0000
0000
1003
0000
0001
0000
,
0010
0100
1001
0110
1000
0001
1100
0011
,
1000
0000
0010
2000
0000
3000
0001
0200
0000
0300
0010
2000
0000
0000
3000
0000
,
0011
1000
0110
0011
1000
0101
1100
0001
,
0100
0000
1000
0001
0200
0000
0300
0010
2000
0000
0000
3001
0020
0000
0000
0000
,
0200
0000
0330
0000
1001
0000
0000
1000
0001
0000
0100
0000
1010
0000
0000
0001
,
1000
0000
0011
0000
1010
0000
0000
0001
0100
0010
0000
0000
0100
0001
0100
0001
,
1000
0010
1001
0110
0001
1000
0100
0010
,
1000
0000
0001
0000
0010
0000
0100
0000
0001
0000
1000
0000
0001
0000
0100
0001
,
0000
1000
0010
0000
0100
0000
0001
0000
0010
0000
0100
0000
0010
0000
0100
0000
,
1000
0001
0100
0010
0100
1000
0001
0100
,
0010
1000
0001
0100
0010
1000
0001
0100
,
0010
0000
1000
0000
0100
0000
0010
0000
0001
0000
1000
0000
0010
0100
0010
0100
,
0001
1000
0001
0020
0001
0130
0001
2000
,
0100
0000
3001
0000
0100
0000
0010
0000
0001
0000
0100
0000
0001
1000
0010
1000
,
0010
0100
0002
0100
1003
0010
2000
0001
,
3100
0001
0200
0010
0301
1000
0000
1000
,
0010
0100
1001
0110
0001
1000
0101
1010
,
0001
0000
0010
0002
0000
0003
1000
0200
0000
0300
0010
0002
0000
0000
0003
0000
,
1010
0001
0110
1010
0001
1100
0101
1000
,
0100
0000
0001
1000
0200
0000
0300
0010
0002
0000
0000
1003
0020
0000
0000
0000
,
0200
0000
0330
0000
1001
0000
0000
0001
1000
0100
1000
0000
0011
0000
0000
1000
,
0001
0000
1010
0000
0011
0000
0000
1000
0100
0010
0000
0000
0100
1000
0100
1000
,
0001
0010
1001
0110
1000
0001
0100
0010
,
0001
1000
0010
0100
1000
0001
1000
0010
,
0100
0010
1001
0110
0002
0003
1100
0011
,
2000
3000
0010
1000
0001
0100
0010
1000
,
0001
1000
1100
0102
2000
3003
0011
2100
,
0002
0000
3003
0000
1000
0000
0010
0000
1000
0000
0100
0000
1000
0000
0010
0100
,
0000
0001
0100
0000
0000
0000
0000
0000
0000
0000
0000
0000
0000
0000
0000
0000
;
