#TITLE:Glitter;
#SUBTITLE:;
#ARTIST:Lexycat;
#TITLETRANSLIT:;
#SUBTITLETRANSLIT:;
#ARTISTTRANSLIT:;
#GENRE:;
#CREDIT:;
#MUSIC:glitter.ogg;
#BANNER:Glitter.png;
#BACKGROUND:Glitter-bg.png;
#CDTITLE:cdtitle.png;
#SAMPLESTART:67.875;
#SAMPLELENGTH:30.000;
#SELECTABLE:YES;
#OFFSET:-0.029;
#BPMS:0.000=130.000;
#STOPS:;
#BGCHANGES:;
#FGCHANGES:;

//--------------- dance-single - RxSteps ----------------
#NOTES:
     dance-single:
     RxSteps:
     Beginner:
     4:
     0,0,0,0,0:
0000
0000
0000
0000
,
1000
0010
0100
0001
,
1000
0010
1000
0000
0001
0000
0200
0000
,
0010
0300
0010
0000
1000
0000
0002
0000
,
0010
0003
0010
0000
0001
0000
0000
0000
,
0110
0000
0001
1000
,
0002
0000
0100
0003
0100
0000
0001
0000
,
1000
0100
0010
0100
,
1000
0100
1000
0100
1000
0000
0000
0000
,
0110
0000
0001
0100
,
0020
0000
1000
0030
1000
0000
0001
0000
,
1000
0100
0010
0001
,
0100
0001
0100
0001
0100
0000
0000
0000
,
1010
0000
0001
0100
,
0020
0000
1000
0030
1000
0000
0001
0000
,
0100
0010
1000
0001
,
0100
0000
0001
0000
1000
0000
0010
0100
,
0020
0000
0030
0000
,
1000
0000
0001
0000
,
1000
0010
0100
0001
,
1000
0001
1000
0000
0010
0000
0100
0000
,
0001
0000
1000
0100
1000
0000
0001
0000
,
0010
0001
0010
0000
0100
0000
1000
0000
,
0100
0000
1000
0000
0001
0100
0001
0000
,
1000
0010
1000
0000
0001
0010
0001
0000
,
1000
0000
0101
0000
,
1000
0010
0100
0001
,
1000
0000
0110
0000
,
0001
0010
0100
1000
,
0001
0000
1100
0000
,
0001
0100
0010
0100
,
0001
1000
0010
0100
,
0010
1000
0010
1000
0001
0000
0100
0001
,
0200
0000
0300
0000
,
0020
0000
0030
2000
0000
0000
3000
0000
,
0200
0000
0300
0020
0000
0030
0000
0000
,
0001
0000
0000
0000
1000
0000
0000
0020
0000
0000
0000
0000
0030
0000
0000
0000
,
1000
0100
0010
0001
,
1000
0001
1000
0001
1000
0000
0000
0000
,
0010
1000
0010
0100
,
0001
0010
0001
0010
0001
0000
0000
0000
,
0100
0001
1000
0100
,
1000
0001
1000
0001
1000
0000
0000
0000
,
0010
0100
0001
0010
,
0100
1000
0100
1000
0100
0000
0000
0000
,
1001
0000
1000
0010
,
0100
0010
0100
0010
0100
0000
0000
0000
,
0001
1000
0100
0010
,
0001
0100
0001
0100
0001
0000
0000
0000
,
0011
0000
1000
0001
,
0100
0010
0100
0010
0100
0000
0000
0000
,
0001
1000
0010
0100
,
0001
1000
0001
1000
0001
0000
0000
0000
,
0100
0001
1000
0000
,
0020
0000
0030
0000
,
1000
0100
0010
0001
,
0020
0030
0000
0001
,
1000
0010
0100
0001
,
2000
0000
3000
0000
,
0010
0100
0001
0010
,
0002
0000
0003
0000
,
1000
0001
0100
0010
,
2000
0000
0000
0000
3000
0000
0001
2000
,
3000
0001
1000
0001
0100
0000
0010
0000
,
1000
0000
0001
0000
0200
0000
0010
0300
,
0010
1000
0001
1000
,
0020
0000
0000
0000
0030
0000
1000
0010
,
0000
0100
0001
0100
,
0020
0030
1000
0010
,
0100
0001
1000
0020
,
0030
1000
0010
1000
0010
0000
0100
0000
,
0001
0002
1003
2000
,
3000
0010
1000
0010
1000
0000
0001
0000
,
0100
0200
0310
0020
,
1030
0000
0000
0002
0000
0003
0000
0100
,
0000
0001
0010
0100
,
1000
0000
0000
0000
0001
0000
0000
0100
0000
0000
0000
0000
0000
0000
0000
0000
,
0001
0010
0100
1000
,
0001
1000
0001
1000
0001
0000
0000
0000
,
0100
0001
0100
0010
,
1000
0100
1000
0100
1000
0000
0000
0000
,
0010
1000
0001
0010
,
0001
1000
0001
1000
0001
0000
0000
0000
,
0100
0010
1000
0100
,
0010
0001
0010
0001
0010
0000
0000
0000
,
1001
0000
0001
0100
,
0010
0100
0010
0100
0010
0000
0000
0000
,
1000
0001
0010
0100
,
1000
0010
1000
0010
1000
0000
0000
0000
,
1100
0000
0001
1000
,
0010
0100
0010
0100
0010
0000
0000
0000
,
1000
0001
0100
0010
,
1000
0001
1000
0001
1000
0000
0000
0000
,
0110
0000
1001
0000
,
0001
0100
0010
0100
,
0001
1000
0100
0000
,
0101
0000
1100
0000
,
0001
1000
0010
0000
,
1001
0000
0110
0000
,
1000
0001
0010
0000
,
0001
0010
0100
2000
,
3100
0200
0310
0020
,
0031
1000
0010
0100
,
0001
0002
0013
0020
,
0130
1000
0001
0100
,
0010
0020
1030
2000
,
3002
0000
0000
0200
0003
0300
0000
0001
,
0000
1000
0010
0100
,
0001
1000
0001
1000
0001
0000
0000
0000
,
0200
0000
0300
0000
,
0010
0000
0000
2000
0000
0000
3000
0000
,
0002
0000
0003
0000
,
1000
0000
0000
0100
0000
0000
1000
0000
,
0002
0000
0003
0000
,
0010
0000
0000
0100
0000
0000
0000
0000
,
0020
0000
0030
0000
,
0001
0000
2000
0020
,
3030
0000
0000
0000
;

//--------------- dance-single - RxSteps ----------------
#NOTES:
     dance-single:
     RxSteps:
     Easy:
     7:
     0,0,0,0,0:
0000
0000
0000
0000
0000
0001
1000
0100
,
1000
0010
0100
0010
0100
0001
0010
0100
,
0010
0001
1000
0010
1000
0001
0100
0020
,
1000
0230
0001
0310
,
1000
0000
0011
0000
1000
0001
0010
0100
,
2000
0000
0010
3000
0010
0000
0100
0001
,
1000
0010
0100
0000
0001
0000
1000
0200
,
0010
1300
0010
0100
,
0001
0010
0001
1000
0100
0000
0010
0000
,
1001
0000
0110
0000
0001
0000
0010
0100
,
1000
0000
0001
0000
1000
0010
0100
0002
,
0010
2003
3100
0010
,
0001
0020
0100
0000
0130
0000
0010
0001
,
1000
0001
0100
0000
0010
0000
1000
0001
,
0100
0010
1000
0000
0001
0100
0010
0200
,
0001
0310
1000
0001
,
0010
0100
1000
0001
1000
0100
0010
0001
,
1000
0020
0000
0030
,
1000
0100
0010
0001
,
1100
0000
0101
0000
1000
0001
1000
0010
,
1000
0010
0100
0001
0100
0001
0020
0000
,
0100
0000
0031
0000
1000
0010
1000
0001
,
0100
0001
1000
0010
0100
0010
1000
0000
,
0001
0000
0010
0100
1000
0100
0010
0001
,
0100
0010
0100
0002
2000
0000
3003
0000
,
0110
0000
1001
0000
0001
0100
0001
0100
,
0010
0100
0001
1000
0001
0100
0010
0100
,
0001
0000
1100
0000
1000
0001
0100
0001
,
1000
0010
1000
0001
0100
0001
1000
0001
,
0200
0000
0300
0010
0100
0010
1000
0001
,
1000
0010
1000
0001
0010
0001
1000
0001
,
0020
0030
0100
1000
0100
0010
0001
0010
,
0100
1000
0001
2000
0010
3000
0010
1000
,
0001
0000
0100
0002
0000
0000
0003
0000
,
1000
0000
0001
1000
0100
0000
0100
1000
,
0100
0000
0010
0002
0000
0000
0003
0000
,
1000
0000
0000
0000
0110
0000
0000
2002
0000
0000
0000
0000
3003
0000
0000
0000
,
1000
0100
1000
0001
0100
0001
1000
0001
,
1000
0100
0010
0001
0020
0030
0100
1000
,
0100
0010
0001
1000
0001
0100
0001
1000
,
0010
0100
0010
1000
0002
0003
0200
0300
,
0010
1000
0010
1000
0001
0100
0001
1000
,
0001
0100
0010
1000
0200
0300
0010
0001
,
0010
0100
1000
0100
0010
0100
1000
0001
,
1000
0010
0100
0001
0020
0000
0030
0000
,
1010
0000
0011
0000
1000
0010
1000
0001
,
1000
0010
0100
0001
2000
3000
0010
0100
,
0001
0100
0010
1000
0010
1000
0001
0100
,
0010
1000
0010
0100
0002
0003
0020
0030
,
0100
1000
0001
1000
0010
0100
0001
1000
,
0010
1000
0010
0100
0020
0030
1000
0001
,
0100
0001
0010
0001
0010
0001
1000
0100
,
1000
0100
0010
0001
2000
0000
3000
0000
,
0001
0010
0001
1000
,
0100
1000
0100
1000
0100
0000
0010
0000
,
0001
1000
0010
0100
,
0001
1000
0001
1000
0010
0000
0100
0000
,
0001
0010
0100
1000
,
0001
1000
0001
1000
0020
0000
0030
0000
,
0100
0001
1000
0010
,
0100
0001
1000
0010
0100
0000
0001
0000
,
0010
0001
0010
0000
0002
0000
0003
0000
,
1000
0100
1000
0100
1000
0000
0010
0000
,
0000
1000
0001
1000
0010
0000
0100
0000
,
0001
0010
0100
1000
0000
0000
0001
0000
,
0100
0000
0010
0000
1000
0001
1000
0000
,
0010
0100
0001
1000
0000
0000
0020
0030
,
0000
0100
0001
0100
0001
0000
1000
0000
,
0001
0010
0100
1000
0100
0000
0010
0000
,
0001
1000
0010
0100
,
0010
1000
0001
0010
,
0100
0010
0100
1000
,
0001
1000
0010
0100
,
0010
0100
0001
1000
,
0100
1000
0100
0010
0000
0000
0001
2000
,
3000
0001
1000
0010
1000
0001
0100
0001
,
1000
0000
0000
0000
0110
0000
0000
2002
0000
0000
0000
0000
3003
0000
0000
0000
,
1000
0010
1000
0001
0010
0001
1000
0001
,
1000
0010
0100
0001
0200
0300
0010
1000
,
0010
0100
0001
1000
0001
0010
0001
1000
,
0100
0010
0100
1000
0002
0003
0020
0030
,
0100
1000
0100
1000
0001
0010
0001
1000
,
0001
0010
0100
1000
0020
0030
0100
0001
,
0100
0010
1000
0010
0100
0010
1000
0001
,
1000
0100
0010
0001
0200
0000
0300
0000
,
1100
0000
0101
0000
1000
0100
1000
0001
,
1000
0100
0010
0001
2000
3000
0100
0010
,
0001
0010
0100
1000
0100
1000
0001
0010
,
0100
1000
0100
0010
0002
0003
0200
0300
,
0010
1000
0001
1000
0100
0010
0001
1000
,
0100
1000
0100
0010
0200
0300
1000
0001
,
0010
0001
0100
0001
0100
0001
1000
0010
,
1000
0010
0100
0001
2000
0000
3000
0000
,
0001
0000
0100
0000
0010
0000
1000
0001
,
0100
0000
0010
0000
1000
0001
1000
0100
,
1000
0000
0100
0000
0010
0000
0001
0010
,
0100
0000
0010
0000
0100
1000
0001
1000
,
0010
0000
0100
0000
0001
0000
1000
0010
,
0100
0000
0010
0000
1000
0001
1000
0001
,
1000
0000
0010
0000
0100
0000
0001
0100
,
0010
0000
1000
0000
0001
0100
0010
0100
,
0001
1000
0010
1000
0100
1000
0001
1000
,
0020
0030
0100
0000
0001
0000
0010
0000
,
0001
0010
0001
1000
0001
0100
0001
0010
,
0002
0003
1000
0000
0010
0000
0100
0000
,
0010
1000
0001
0100
0010
1000
0001
0100
,
0020
0030
0100
0002
0003
0000
1000
0010
,
0100
0010
1000
0001
0100
0001
1000
0010
,
0100
0001
0010
0100
2000
0000
0000
0000
,
3002
0000
0000
0003
,
0200
0000
0000
0020
0300
0000
0000
0000
,
2000
0030
0000
3000
,
0002
0000
0000
0023
0000
0000
0032
0000
,
2000
0000
0003
0000
,
3200
0000
0000
0020
0300
0000
0000
0000
,
0200
0030
0000
0000
,
2300
3000
0002
0200
,
0303
0000
0000
0000
;

//--------------- dance-single - RxSteps ----------------
#NOTES:
     dance-single:
     RxSteps:
     Medium:
     9:
     0,0,0,0,0:
0000
0000
0000
0000
0000
0001
1000
0100
,
0010
0000
0100
0000
1000
0000
0010
0000
0100
0000
0001
0000
1000
0000
0100
0010
,
0100
1000
0001
0010
0001
1000
0100
1000
,
0001
0100
0000
0000
0010
1000
0000
0000
1000
0010
0000
0000
0100
0001
0000
0000
,
1000
0100
0000
0000
0021
0000
0000
0000
0130
0000
1000
0000
0010
0000
0100
0000
,
0001
0110
1100
0101
,
1000
0010
0100
0001
0010
0001
1000
0010
,
0100
0000
1001
0000
0110
0000
1200
0300
,
0010
0001
0100
0020
1000
0000
0130
0000
,
0011
0000
0000
0000
0110
0000
0000
0000
2001
3000
0100
0000
0010
0000
0001
0010
,
0100
1000
0001
0100
0001
0010
0100
0010
,
0001
1010
0011
0110
,
1002
0003
0010
0000
0100
0000
1000
0000
0001
0000
0010
0000
0001
0000
0100
0000
,
0010
0000
0000
0000
1001
0000
0000
0000
0110
0000
0001
0000
0010
0000
0100
0010
,
0001
1000
0010
0100
0001
1000
0100
0010
,
0100
1000
0000
0000
0001
0010
0000
0000
0010
0100
0000
0000
0001
1000
0000
0000
,
0010
0100
0001
0100
0010
1000
0010
0100
,
0001
0000
0000
0000
1000
0100
1000
0100
0000
0000
0010
0000
0001
0000
1000
0000
,
0010
0100
0010
1000
0100
0010
0001
0100
,
0001
0000
0000
0000
1020
0030
0100
0000
0001
0000
1000
0000
0001
0000
0010
0000
,
0100
0010
0001
0100
0010
1000
0001
0100
,
0010
0000
0000
0000
0021
0030
0100
0000
1000
0000
0010
0000
0100
0000
0010
0000
,
1000
0000
0000
0000
0011
0000
0000
0000
1020
0030
0100
0000
0001
0000
0010
0000
,
0100
0000
0000
0000
2010
3000
0100
0000
0010
0000
0100
0000
1000
0000
0010
0000
,
0100
0000
0001
0000
0010
0000
0100
1000
0100
0000
0010
0000
0001
0000
0100
0000
,
0010
0000
1000
0000
0001
0000
1000
0100
0010
0000
0001
0000
1000
0000
0010
0000
,
0100
0001
0010
0100
1000
0001
0100
0001
,
1000
0000
0100
0000
0010
0000
0001
0100
0010
0000
1000
0000
0100
0000
1000
0000
,
0001
0100
0010
0100
0001
0010
0100
0010
,
0001
0000
0100
0000
0010
0000
1000
0001
0100
0000
0010
0000
1000
0000
0001
0000
,
0010
0001
1000
0010
0100
0001
0100
0010
,
1000
0000
0000
0000
0201
0300
0010
0000
1000
0000
0001
0000
0100
0000
0010
0000
,
1000
0100
0010
0200
1000
0000
0310
0002
,
0010
0000
0003
0000
1000
0000
0100
0000
0010
0000
0100
1000
0010
0000
0100
0000
,
0001
0010
0100
1000
0010
0100
0001
0010
,
0100
0010
0100
1000
0001
0100
0010
1000
,
0001
0000
0000
0000
0110
0000
0000
1002
0003
0000
0100
0000
0010
0000
1000
0000
,
0100
0000
1000
0000
0001
0000
0010
0100
0010
0000
0001
0000
0100
0000
0010
1000
,
0010
0100
0010
1000
0100
0010
0100
1000
,
0001
0000
0100
0000
0010
0000
1000
0001
1000
0000
0010
0000
0100
0000
0010
0000
,
1000
0001
0010
0001
0010
0100
1000
0100
,
0010
0000
0100
0000
1000
0000
0010
0100
0010
0000
1000
0000
0001
0000
0100
0001
,
0100
0010
1000
0010
1000
0100
0010
0001
,
0010
0000
0100
0000
0010
0000
0001
0100
0010
0000
1000
0000
0001
0000
0010
0000
,
0001
0010
0100
1000
0001
0010
0100
0000
,
0101
0000
0000
0000
1200
0300
0010
0000
0001
0000
0100
0000
0010
0000
0100
0000
,
0001
1000
0100
1000
0010
0100
0010
1000
,
0001
0000
0100
0000
0010
0000
1000
0001
1000
0000
0100
0000
1000
0000
0001
0100
,
0001
0010
0100
0010
0001
1000
0100
0010
,
0001
0000
0100
0000
0001
0000
0010
0100
1000
0000
0100
0000
0010
0000
0100
1000
,
0001
0100
0010
1000
0001
0010
0100
1000
,
0001
0000
0100
0000
0010
0000
1000
0100
0010
0000
0100
0000
1000
0000
0001
0010
,
0100
1000
0100
0010
0001
1000
0010
0100
,
0001
0000
1100
0000
0001
0010
0100
1000
,
0001
0100
0010
0100
0001
0000
0010
0000
,
1100
0000
0201
0300
0010
1000
0001
0010
,
0100
1000
0001
0100
0010
1000
0100
1000
,
0001
0100
0010
1000
0001
0100
0010
1000
,
0001
1000
0200
0020
0330
0000
1100
0000
,
0011
0000
0110
0000
1002
0003
0100
0010
,
1000
0100
0010
0100
1000
0010
0100
0010
,
1000
0000
0101
0000
1000
0010
0100
0010
,
1000
0001
0100
0010
1000
0000
0001
0100
,
0010
1000
0100
0010
0100
0010
0001
0100
,
0010
0000
1000
0000
0001
0000
0010
0000
0100
0000
0010
0000
0001
0100
0010
0000
,
1000
0001
0100
0010
0100
0001
1000
0100
,
0010
0001
0020
0200
0330
0000
0101
0000
,
1000
0010
0100
0010
1000
0100
0010
0100
,
1000
0000
0001
0000
0100
0000
0010
0000
1000
0010
0000
0000
0001
0010
0000
0000
,
1000
0010
0000
0000
0001
0100
0000
0100
0001
0000
0000
0000
1100
0000
0000
0000
,
0201
0300
0010
0000
1000
0000
0100
0000
0010
0000
0001
0000
0100
0000
0010
0000
,
1000
0100
0000
0000
0001
0100
0000
0000
1000
0100
0000
0000
0001
1000
0000
0000
,
0001
0010
0001
0100
0010
0100
0001
1000
,
0010
0100
0001
0010
0001
1000
0010
0100
,
0001
1000
0100
0020
0000
0130
1000
0010
,
0100
0001
0100
0010
0100
0001
1000
0100
,
0010
0000
0100
0000
1000
0000
0000
0201
0300
0000
0010
0000
1000
0000
0001
0000
,
0010
0000
0001
0000
1000
0000
0100
0010
0100
0000
1000
0000
0010
0000
0100
0001
,
0100
0010
0100
0001
0010
0100
0010
0001
,
1000
0000
0010
0000
0100
0000
0001
1000
0001
0000
0100
0000
0010
0000
0100
0000
,
0001
1000
0100
1000
0100
0010
0001
0010
,
0100
0000
0010
0000
0001
0000
0100
0010
0100
0000
0001
0000
1000
0000
0010
1000
,
0010
0100
0001
0100
0001
0010
0100
1000
,
0100
0000
0010
0000
0100
0000
1000
0010
0100
0000
0001
0000
1000
0000
0100
0000
,
1000
0100
0010
0001
1000
0100
0010
0000
,
1010
0000
0000
0000
0021
0030
0100
0000
1000
0000
0010
0000
0100
0000
0010
0000
,
1000
0001
0010
0001
0100
0010
0100
0001
,
1000
0000
0010
0000
0100
0000
0001
1000
0001
0000
0010
0000
0001
0000
1000
0010
,
1000
0100
0010
0100
1000
0001
0010
0100
,
1000
0000
0010
0000
1000
0000
0100
0010
0001
0000
0010
0000
0100
0000
0010
0001
,
1000
0010
0100
0001
1000
0100
0010
0001
,
1000
0000
0010
0000
0100
0000
0001
0010
0100
0000
0010
0000
0001
0000
1000
0100
,
0010
0001
0010
0200
1000
0000
0310
0000
,
0201
0300
0010
0000
1000
0000
0010
0100
0010
0000
1000
0000
0100
0000
0010
0001
,
0010
0100
1000
0010
0100
0001
0100
0010
,
1000
0000
0010
0000
0100
0000
0001
0010
0100
0000
1000
0000
0001
0000
0100
0010
,
0100
0001
0100
0010
1000
0100
0010
0000
,
0101
0000
0000
0000
0110
0000
0000
0000
1200
0300
0010
0000
0100
0000
1000
0001
,
1000
0010
0100
0001
0100
0010
1000
0100
,
1000
0000
0010
0000
0100
0000
0001
1000
0001
0000
0100
0000
0010
0000
1000
0100
,
0010
0001
0100
0001
0010
0100
0010
0100
,
1000
0101
1100
0110
,
1020
0030
0100
0000
0001
0000
0010
0000
0100
0000
1000
0000
0010
0000
0100
0000
,
0001
0010
0000
0000
1000
0010
0000
0000
0001
0010
0000
0000
1000
0001
0000
0000
,
1000
0100
1000
0001
0100
0010
0100
0001
,
1000
0100
0000
0000
0001
0100
0000
0000
1000
0100
0000
0000
0001
0100
0000
0000
,
0010
0100
0001
0020
0000
0000
0130
1000
,
0010
0100
0010
1000
0001
0010
0001
0100
,
0010
0000
1000
0000
0001
0000
0010
0200
2000
0000
0000
0000
0300
0000
0000
0000
,
0020
0000
3000
0000
,
0200
0030
0000
0002
0000
0300
0000
0000
,
0020
0000
0003
0000
,
0100
0000
0000
0002
0030
0000
0203
0000
,
0020
0000
0000
0000
0000
0300
0000
0000
,
1000
0000
0000
0100
0000
0000
0000
0000
,
2000
0000
0030
0000
,
0200
3000
0320
0002
,
0033
0000
0000
0000
;

//--------------- dance-single - RxSteps ----------------
#NOTES:
     dance-single:
     RxSteps:
     Hard:
     10:
     0,0,0,0,0:
0000
0000
0000
0000
0000
0000
0000
0000
0000
0000
0001
0000
0100
0010
0100
0001
,
0010
0000
0100
0000
1000
0001
0000
0001
1000
0010
0100
0000
0001
0000
0010
0100
,
1000
0000
0001
0000
0100
0010
0000
0010
0100
0001
1000
0000
0100
0000
1000
0010
,
0100
0001
0010
0100
1000
0001
0010
0100
1000
0100
0010
0001
0100
0010
0100
0001
,
1000
0100
0010
0001
0100
0000
0000
0000
1100
0000
0001
0100
0010
1000
0001
0100
,
0010
1001
1100
0101
,
1000
0010
0100
0001
0020
1030
0010
0001
,
0100
0001
1000
0010
1000
0100
0010
0001
0010
0100
1000
0100
0010
0100
1000
0001
,
0010
0001
0200
1300
0002
0000
0013
0000
,
1200
0300
0010
0000
0001
0010
0000
0010
0001
1000
0100
0000
0010
0000
0100
1000
,
0001
0000
0100
0000
0010
0100
0000
0001
1000
0010
0100
0000
0001
0000
0010
0001
,
1000
0010
0100
0001
1000
0010
0100
0001
0010
0000
0100
0000
0010
0001
0010
0100
,
1000
0000
0001
0000
0200
0300
1000
0000
0100
0000
0001
0000
0010
0000
0001
0000
,
0100
0000
0010
0000
1000
0100
0000
0100
1000
0001
0100
0000
0001
0000
0010
0100
,
1000
0000
0001
0000
0100
0010
0000
0010
0100
0001
1000
0000
0100
0010
0100
0010
,
0001
1000
0010
0100
0001
1000
0010
0100
0001
0000
0010
0000
0001
0010
0100
1000
,
0001
0000
0100
0000
0010
0000
1000
0000
0001
0000
0200
0300
1000
0000
0100
0000
,
0001
0000
0000
0000
1000
0100
1000
0100
0000
0000
0010
0000
0001
0000
1000
0000
,
0010
0100
0010
1000
0100
0010
0001
0100
,
0001
0000
1000
0000
0001
0100
0001
0100
0010
0000
1000
0000
0001
0000
0020
0030
,
1000
0000
0010
0000
0001
0000
0200
0300
1000
0000
0001
0000
0010
0000
1000
0000
,
0100
0000
0000
0000
0021
0030
0100
0000
1000
0000
0020
0030
0001
0000
1000
0000
,
0100
0000
0000
0000
0011
0000
0000
0000
1020
0030
0100
0000
0001
0000
0010
0000
,
0100
0000
0000
0000
2010
3000
0100
0000
0010
0000
0100
0000
1000
0000
0010
0000
,
0100
0000
0001
0000
0010
0000
0100
1000
0100
0000
0010
0000
0001
0000
0100
0000
,
0010
0000
1000
0000
0001
0000
1000
0100
0010
0000
0001
0000
1000
0000
0010
0000
,
0100
0000
0001
0000
0010
0000
0100
0000
1000
0000
0200
0300
0001
0000
0100
0000
,
1000
0000
0100
0000
0010
0000
0001
0100
0010
0000
1000
0000
0100
0000
1000
0000
,
0001
0100
0010
0100
0001
0010
0100
0010
,
0001
0000
0100
0000
0010
0000
1000
0001
0100
0000
0010
0000
1000
0000
0200
0300
,
0001
1000
0010
0001
0100
0010
0100
0001
,
0010
0000
0000
0000
0201
0300
0010
0000
1000
0000
0001
0000
0100
0000
0010
0000
,
1000
0000
0100
0000
0020
0030
1000
0000
0002
0000
0003
0000
0100
0000
1000
0000
,
0010
0000
0000
0000
0100
0000
0001
0000
0000
0000
1000
0100
0010
0100
1000
0001
,
0100
0010
0100
0001
0010
0001
1000
0010
,
0100
0001
0100
0010
1000
0100
0010
0001
,
1000
0000
0000
0000
0110
0000
0000
1002
0003
0000
0100
0000
0010
0000
1000
0000
,
0100
0000
1000
0000
0001
0000
0010
0100
1000
0000
0010
0000
0100
0000
0010
1000
,
0001
0000
0100
0000
0010
0000
1000
0000
0100
0010
0000
0010
0100
0000
1000
0000
,
0001
0000
0100
0000
0010
0000
0100
0001
0010
0000
0100
0000
1000
0000
0010
0000
,
0100
0000
0001
0000
0010
0000
0001
0000
1000
0010
0000
0010
1000
0000
0100
0000
,
0010
0000
0100
0000
1000
0000
0010
0100
0001
0000
0100
0000
0010
0000
1000
0001
,
0100
0000
0010
0000
1000
0000
0010
0000
0100
0001
0000
0001
0100
0000
0010
0000
,
1000
0000
0100
0000
1000
0000
0001
0100
0010
0000
1000
0000
0001
0000
0010
0000
,
0001
0000
1000
0000
0010
0000
0100
0010
1000
0000
0100
0000
0010
0000
0000
0000
,
0101
0000
0000
0000
1200
0300
0010
0001
0100
0000
0010
0000
1000
0000
0100
1000
,
0010
0000
0100
0000
0001
0000
1000
0000
0010
0100
0000
0100
0010
0000
1000
0000
,
0001
0000
0100
0000
0010
0000
1000
0001
0010
0000
0100
0000
1000
0000
0010
0100
,
0001
0000
0010
0000
0100
0000
0010
0000
0001
1000
0000
1000
0001
0000
0100
0000
,
0010
0000
0100
0000
0001
0000
0010
0100
1000
0000
0100
0000
0010
0000
0100
1000
,
0001
0000
0100
0000
0010
0000
1000
0000
0100
0010
0000
0010
0100
0000
1000
0000
,
0001
0000
0100
0000
0010
0000
1000
0100
0010
0000
0100
0000
1000
0000
0001
0010
,
0100
0000
1000
0000
0200
0300
0001
0000
1000
0000
0010
0000
0001
0000
0100
0000
,
0010
0100
0010
0000
1000
0001
1000
0000
0100
0000
0010
0000
0100
0000
1000
0000
,
0001
0000
0020
0030
1000
0000
0010
0000
0001
0000
0000
0000
0110
0000
0000
0000
,
1000
0100
0010
0000
0001
0010
0100
0000
0010
0000
0001
0000
0100
0000
0010
0000
,
1000
0000
0200
0300
0001
0000
0100
0000
1000
0000
0010
0000
0100
0000
0010
0000
,
1000
0000
0200
0300
0001
0000
1000
0000
0010
0000
0001
0000
0100
0000
0010
0000
,
1000
0001
0200
0020
0330
0000
1100
0000
,
0011
0000
0110
0000
1002
0003
0100
0010
,
1000
0000
0200
0300
0001
0000
0100
0000
1000
0000
0020
0030
0001
0000
0010
0000
,
1000
0000
0100
0010
0001
0000
1000
0000
0001
0000
0100
0000
0010
0000
0100
0000
,
0001
1000
0100
0020
0001
0030
0001
0100
,
0010
0000
1000
0000
0200
0300
0001
0000
1000
0000
0010
0000
0001
0000
0100
0000
,
0010
0000
1000
0000
0001
0000
0010
0000
0100
0000
0010
0000
0001
0100
0010
0000
,
1000
0000
0001
0000
0100
0000
0010
0000
0100
0000
0001
0000
1000
0000
0200
0300
,
0001
1000
0020
0200
0330
0000
0101
0000
,
1000
0010
0100
0010
1000
0100
0010
0100
,
1000
0000
0001
0000
0010
0000
0100
0000
1000
0010
0000
0000
0001
0010
0000
0000
,
1000
0010
0000
0000
0001
0100
0000
0100
0001
0000
0000
0000
1100
0000
0000
0000
,
0201
0300
0010
0000
1000
0000
0100
0000
0010
0000
0001
0000
0100
0000
0010
0000
,
1000
0100
0000
0000
0001
0100
0000
0000
1000
0100
0000
0000
0001
1000
0000
0000
,
0001
0010
0001
0100
0010
0100
0001
1000
,
0010
0100
0001
0010
0001
1000
0010
0100
,
0001
0000
0020
0030
1000
0000
0002
0000
0003
0000
0100
0000
1000
0000
0010
0000
,
0100
0000
0001
0000
0100
0000
0010
0000
0100
0000
0001
0000
1000
0000
0200
0300
,
0001
0000
0100
0000
1000
0000
0000
0201
0300
0000
0010
0000
1000
0000
0001
0000
,
0010
0000
0001
0000
1000
0000
0100
0010
0001
0000
0100
0000
0010
0000
0100
0001
,
1000
0000
0010
0000
0100
0000
0001
0000
0010
0100
0000
0100
0010
0000
0001
0000
,
1000
0000
0010
0000
0100
0000
0010
1000
0100
0000
0010
0000
0001
0000
0100
0000
,
0010
0000
1000
0000
0100
0000
1000
0000
0001
0100
0000
0100
0001
0000
0010
0000
,
0100
0000
0010
0000
0001
0000
0100
0010
1000
0000
0010
0000
0100
0000
0001
1000
,
0010
0000
0100
0000
0001
0000
0100
0000
0010
1000
0000
1000
0010
0000
0100
0000
,
0001
0000
0010
0000
0001
0000
1000
0010
0100
0000
0001
0000
1000
0000
0100
0000
,
1000
0000
0001
0000
0100
0000
0010
0100
0001
0000
0010
0000
0100
0000
0000
0000
,
1010
0000
0000
0000
0021
0030
0100
1000
0010
0000
0100
0000
0001
0000
0010
0001
,
0100
0000
0010
0000
1000
0000
0001
0000
0100
0010
0000
0010
0100
0000
0001
0000
,
1000
0000
0010
0000
0100
0000
0001
1000
0100
0000
0010
0000
0001
0000
0100
0010
,
1000
0000
0100
0000
0010
0000
0100
0000
1000
0001
0000
0001
1000
0000
0010
0000
,
0100
0000
0010
0000
1000
0000
0100
0010
0001
0000
0010
0000
0100
0000
0010
0001
,
1000
0000
0010
0000
0100
0000
0001
0000
0010
0100
0000
0100
0010
0000
0001
0000
,
1000
0000
0010
0000
0100
0000
0001
0010
0100
0000
0010
0000
0001
0000
1000
0100
,
0010
0000
0001
0000
0020
0030
1000
0000
0001
0000
0100
0000
1000
0000
0010
0000
,
0100
0000
0010
0000
1000
0000
0010
0100
0001
0000
0010
0000
0100
0000
0010
0001
,
1000
0000
0010
0000
0100
0000
0010
0000
1000
0100
0000
0100
1000
0000
0100
1000
,
0001
0100
0010
1000
0001
0100
0010
1000
0100
0000
0010
0000
0100
0000
1000
0100
,
0010
0000
0001
0000
1000
0000
0001
0000
0010
0100
0000
0100
0010
0000
0001
0000
,
0010
0000
0100
0000
1000
0000
0001
0100
0010
0000
1000
0000
0010
0000
0100
0010
,
1000
0000
0100
0000
0010
0000
0100
0000
1000
0001
0000
0001
1000
0000
0100
0010
,
0001
1000
0010
0100
0001
1000
0010
0100
0001
0000
0100
0000
0010
0000
1000
0001
,
0100
0000
0010
0000
0100
0000
0001
0000
0020
0030
1000
0000
0001
0000
0100
0000
,
1000
0101
1100
0110
,
1020
0030
0100
0000
0001
0000
0010
0000
0100
0000
1000
0000
0010
0000
0100
0000
,
0001
0010
0000
0000
1000
0010
0000
0000
0001
0010
0000
0000
1000
0001
0000
0000
,
1000
0100
1000
0001
0100
0010
0100
0001
,
1000
0100
0000
0000
0001
0100
0000
0000
1000
0100
0000
0000
0001
0100
0000
0000
,
0010
0000
1000
0000
0200
0300
0001
0000
1000
0000
0000
0000
0101
0000
1000
0000
,
0010
0000
0100
0000
0010
0000
1000
0000
0010
0000
0100
0000
0001
0000
0020
0030
,
1000
0000
0010
0000
0001
0000
0010
0200
2000
0000
0000
0000
0300
0000
0000
0000
,
0020
0000
3000
0000
,
0200
0030
0000
0002
0000
0300
0000
0000
,
0020
0000
0003
0000
,
1000
0000
0000
0002
0030
0000
0203
0000
,
0020
0000
0000
0000
0000
0300
0000
0000
,
1000
0000
0000
0001
0000
0000
0000
0000
,
2000
0000
0030
0000
,
0200
3000
0320
0002
,
0033
0000
0000
0000
;
