#TITLE:Galvanize (Edit);
#SUBTITLE:;
#ARTIST:The Chemical Brothers;
#TITLETRANSLIT:;
#SUBTITLETRANSLIT:;
#ARTISTTRANSLIT:;
#GENRE:;
#CREDIT:RxSteps;
#MUSIC:Galvanize (Edit).ogg;
#BANNER:Galvanize (Edit).png;
#BACKGROUND:Galvanize (Edit)-bg.png;
#CDTITLE:cdtitle.png;
#SAMPLESTART:24.127;
#SAMPLELENGTH:27.695;
#SELECTABLE:YES;
#OFFSET:-1.048;
#BPMS:0.000=103.989;
#STOPS:;
#BGCHANGES:;
#FGCHANGES:;

//--------------- dance-single - RxSteps ----------------
#NOTES:
     dance-single:
     RxSteps:
     Beginner:
     4:
     0,0,0,0,0:
0000
0000
0000
0000
,
0001
0000
0000
0001
0000
0000
0100
0000
0000
0000
0001
0000
0010
0000
0001
0000
,
0000
1000
0000
0001
0000
1000
0000
0000
0001
0000
0000
0001
0000
0000
1000
0000
,
0000
0000
0001
0000
0010
0000
0001
0000
0000
1000
0000
0010
0000
0100
0000
0000
,
0010
0000
0000
0010
0000
0000
0100
0000
0000
0000
0001
0000
1000
0000
0001
0000
,
0000
0100
0000
0001
0000
0100
0000
0000
0100
0000
0000
0100
0000
0000
0001
0000
,
0000
0000
0100
0000
0001
0000
0100
0000
0000
0010
0000
1000
0000
0001
0000
0000
,
1000
0000
0000
1000
0000
0000
0001
0000
0000
0000
1000
0000
0100
0000
1000
0000
,
0000
0001
0000
1000
0000
0001
0000
0000
0100
0000
0000
0100
0000
0000
0010
0000
,
0000
0000
0100
0000
0001
0000
0100
0000
0000
0001
0000
0010
0000
0100
0000
0000
,
1000
0000
0000
1000
0000
0000
0001
0000
0000
0000
0100
0000
0001
0000
0100
0000
,
0000
0010
0000
1000
0000
0001
0000
0000
0001
0000
0000
0001
0000
0000
0100
0000
,
0000
0000
0010
0000
1000
0000
0010
0000
0000
1000
0000
0001
0000
0000
0100
0000
,
0010
0000
0000
0010
0000
0000
1000
0000
0000
0000
0000
0000
0010
0000
0000
0000
,
0100
0000
0001
0000
0100
0001
1000
0000
,
0010
0000
0000
0010
0000
0000
1000
0000
0000
0000
0000
0000
0001
0000
0000
0000
,
0100
0000
0010
0100
0010
0000
1000
0000
,
0001
0000
0000
0100
0000
0000
0001
0000
0000
0000
0010
0000
0001
0000
0010
0000
,
0001
0000
1000
0001
1000
0000
0010
0000
,
0010
0000
0000
1000
0000
0000
0100
0000
0000
0000
0000
0000
1000
0000
0000
0000
,
0001
0000
0010
0001
0010
0000
0100
0000
,
1000
0000
0000
0100
0000
0000
0010
0000
0000
0000
0000
0000
0002
0000
0000
0000
,
0003
0000
0001
0100
0020
0000
0030
0000
,
0010
0000
0000
0100
0000
0000
0001
0000
0000
0000
0000
0000
0020
0000
0000
0000
,
0030
0000
0001
1000
0002
0000
0003
0000
,
1000
0000
0000
0010
0000
0000
0100
0000
0000
0000
0000
0000
0200
0000
0000
0000
,
0300
0000
0010
0100
0020
0000
0030
0000
,
1000
0000
0000
0001
0000
0000
0100
0000
0000
0000
0000
0000
2002
0000
0000
0000
,
0000
0000
3003
0000
0001
1000
0001
0100
,
0010
0000
0000
0010
0000
0000
1000
0000
0000
0000
0010
0000
1000
0000
0010
0000
,
0000
0100
0000
0001
0000
0010
0000
0000
0001
0000
0000
0100
0000
0000
0010
0000
,
0000
0000
1000
0000
0010
0000
1000
0000
0000
0010
0000
0100
0000
0001
0000
0000
,
2000
3020
0230
0302
,
2003
3002
0203
0320
,
2030
0000
3001
0000
1000
0100
0010
0001
,
0010
0000
0000
0010
0000
0000
0001
0000
0000
0000
0000
0000
0100
0000
0000
0000
,
0100
0000
0010
0100
0010
0000
1000
0001
,
0010
0000
0000
0010
0000
0000
0100
0000
0000
0000
0000
0000
1000
0000
0000
0000
,
0100
0000
0010
0100
0010
0000
0001
0000
,
1000
0000
0000
1000
0000
0000
0010
0000
0000
0000
0000
0000
1000
0000
0010
0000
,
2000
3000
0001
0100
0002
0003
1000
0001
,
1000
0000
0000
1000
0000
0000
0010
0000
0000
0000
0000
0000
0100
0000
0000
0000
,
0010
0100
0010
0000
1000
0001
1000
0000
,
0010
0000
0000
0010
0000
0000
0010
0000
0000
0000
0000
0000
0200
0000
0000
0000
,
0300
0000
0001
0010
0002
0000
0003
0000
,
1000
0000
0000
1000
0000
0000
0010
0000
0000
0000
0000
0000
0200
0000
0000
0000
,
0300
0000
0001
0100
0001
0000
1000
0000
,
0001
0000
0000
0010
0000
0000
0100
0000
0000
0000
0000
0000
2000
0000
0000
0000
,
3000
0000
0001
0010
0002
0000
0003
0000
,
0100
0000
0000
0100
0000
0000
0010
0000
0000
0000
0000
0000
1002
0000
0000
0000
,
0000
0003
0000
0001
1000
0100
1000
0000
,
0001
0000
0000
0001
0000
0000
0100
0000
0000
0000
0010
0000
0100
0000
0010
0000
,
0000
1000
0000
0001
0000
1000
0000
0000
1000
0000
0000
1000
0000
0000
0010
0000
,
0000
0000
0100
0000
0001
0000
0100
0000
0000
0010
0000
1000
0000
0100
0000
0000
,
1000
0000
0000
1000
0000
0000
0001
0000
0000
0000
0100
0000
0010
0000
0100
0000
,
0000
0001
0000
1000
0000
0010
0000
0000
0100
0000
0000
0100
0000
0000
0010
0000
,
0000
0000
1000
0000
0001
0000
1000
0000
0000
0001
0000
0010
0000
0100
0000
0000
,
1000
0000
0000
0200
0000
0000
0020
0000
0000
0000
0000
0000
0000
0000
0000
0000
,
0000
0000
0000
0330
0000
0000
0000
0000
,
0001
0000
0000
1000
0000
0000
0020
0000
0000
0000
0000
0000
0000
0000
0000
0000
,
0000
0000
0000
0030
,
1000
0000
0000
0100
0000
0000
0010
0000
0002
0000
0000
0000
0203
0000
0000
0000
,
0302
0023
0230
1300
,
0010
0000
0000
0100
0000
0000
0001
0000
0200
0000
0000
0000
0302
0000
0000
0000
,
2003
3020
2030
3200
,
1300
0000
0000
0001
0000
0000
0200
0000
0000
0000
0000
0000
0310
0000
0000
0000
,
0000
0000
0000
0000
0001
0000
0000
2000
0000
0000
0000
0000
3000
0000
0000
0000
,
0020
0000
0030
0100
,
0000
0001
2000
3000
,
0020
0000
0030
1000
,
0000
1000
0002
0003
,
0020
0000
0030
0001
,
0000
0000
0000
0001
0100
0001
0000
1000
,
0001
0001
1000
0001
0020
0000
0000
0000
,
0030
0000
0000
1000
0001
1000
0000
0100
,
1000
1000
0100
0010
0020
0000
0000
0000
,
0030
0000
0000
0001
1000
0100
0000
1000
,
0001
1000
0001
0100
0020
0000
0000
0000
,
0000
0000
0030
0010
0010
1000
0010
0100
,
0010
1000
0010
0100
0001
1000
0001
1000
,
0001
1000
0010
1000
0001
1000
0010
1000
,
0100
0010
0001
1000
0001
0010
0100
1000
,
0100
0010
0001
0010
0200
0000
1300
0100
,
0020
0000
0031
0100
0020
0000
1030
0001
,
0200
0000
0301
0010
0100
0000
0200
0000
,
2300
3002
0203
0302
,
2003
3020
0130
1001
,
0001
0000
0000
1000
0000
0000
0010
0000
0000
0000
1000
0000
0010
0000
1000
0000
,
0000
0001
0000
1000
0000
0001
0000
0000
1000
0000
0000
1000
0000
0000
0001
0000
,
0000
0000
1000
0000
0010
0000
1000
0000
0000
0001
0000
0010
0000
0100
0000
0000
,
0010
0000
0000
0010
0000
0000
0100
0000
0000
0000
1000
0000
0001
0000
1000
0000
,
0000
0100
0000
1000
0000
0100
0000
0000
0100
0000
0000
0100
0000
0000
1000
0000
,
0000
0000
0100
0000
1000
0000
0100
0000
0000
0010
0000
0001
0000
1000
0000
0000
,
0001
0000
0000
0001
0000
0000
1000
0000
0000
0000
0001
0000
0100
0000
0001
0000
,
0000
1000
0000
0001
0000
1000
0000
0000
0100
0000
0000
0100
0000
0000
0010
0000
,
0000
0000
0100
0000
1000
0000
0100
0000
0000
1000
0000
0010
0000
0100
0000
0000
,
0001
0000
0000
0001
0000
0000
1000
0000
0000
0000
0100
0000
1000
0000
0100
0000
,
0000
0010
0000
0001
0000
1000
0000
0000
1000
0000
0000
1000
0000
0000
0100
0000
,
0000
0000
0010
0000
0001
0000
0010
0000
0000
0001
0000
1000
0000
0100
0000
0000
,
1000
0000
0000
1000
0000
0000
0001
0000
0000
0000
0000
0000
0100
0000
0000
0000
,
0001
0000
0010
0001
0010
0000
0001
0000
,
1000
0000
0000
1000
0000
0000
0010
0000
0000
0000
0000
0000
0100
0000
0000
0000
,
0001
0000
1000
0010
1000
0000
0001
0000
,
0010
0000
0000
0010
0000
0000
0001
0000
0000
0000
0000
0000
1000
0000
0000
0000
,
0100
0000
0010
0100
0010
0000
0001
0000
,
0001
0000
0000
0001
0000
0000
1000
0000
0000
0000
0000
0000
0010
0000
0000
0000
,
0100
0000
0001
0100
0001
0000
1000
0000
,
0010
0000
0000
0010
0000
0000
1000
0000
0000
0000
0000
0000
0001
0000
0000
0000
,
0010
0100
1000
0100
,
0020
0000
0130
1000
,
0001
0100
0010
1000
,
0200
0000
1300
0001
,
0100
0100
0001
1000
,
0002
0100
0103
0001
,
1000
0000
0000
0000
0000
0000
0000
0000
0000
0000
0000
0000
0000
0020
0000
0000
,
0000
0000
0000
0000
0000
0030
0000
0000
0000
0000
0000
0000
0000
0000
0000
0000
;

//--------------- dance-single - RxSteps ----------------
#NOTES:
     dance-single:
     RxSteps:
     Easy:
     6:
     0,0,0,0,0:
0000
0000
0000
0000
,
0001
0000
0000
1100
0000
0000
0110
0000
0000
0000
0001
0000
0010
0000
0100
0000
,
0000
1000
0000
0100
0000
0010
0000
0000
0001
0000
0000
0110
0000
0000
1001
0000
,
0000
0000
0001
0000
0010
0000
0001
0000
0000
0100
0000
0010
0000
0100
0000
0000
,
0001
0000
0000
1010
0000
0000
1100
0000
0000
0000
0001
0000
1000
0000
0100
0000
,
0000
0010
0000
0100
0000
0010
0000
0000
0001
0000
0000
0110
0000
0000
0101
0000
,
0000
0000
1000
0000
0010
0000
0100
0000
0000
0001
0000
1000
0000
0100
0000
0000
,
1000
0000
0000
1000
0010
0000
1010
0000
0000
0000
0001
0000
0100
0000
0010
0000
,
0000
0010
0000
1000
0000
0001
0000
0000
1000
0000
0000
0001
0010
0000
0011
0000
,
0000
0000
0001
0000
0010
0000
0100
0000
0000
1000
0000
0010
0000
0100
0000
0000
,
0001
0000
0000
0001
0100
0000
0101
0000
0000
0000
1000
0000
0010
0000
1000
0000
,
0000
0001
0000
0100
0000
0001
0000
0000
0010
0000
0000
1000
0010
0000
1010
0000
,
0000
0000
0001
0000
1000
0000
0001
0000
0000
1000
0000
0100
0000
0000
0020
0000
,
0001
0000
0000
0100
0000
0000
0032
0000
0000
0003
0100
0000
0010
0000
0100
0000
,
0001
0001
1000
0010
0100
0001
0010
0100
,
0010
0000
0000
1001
0000
0000
1200
0000
0000
0000
1300
0000
0100
0000
0010
0000
,
0100
1000
0010
0100
0010
1000
0001
0100
,
0001
0000
0000
0110
0000
0000
0021
0000
0000
0000
0130
0000
1000
0000
1000
0000
,
0001
0010
0100
0100
1000
0001
1000
0000
,
0010
0000
0000
1001
0000
0000
0110
0000
0000
0000
1000
0000
0001
0000
0001
0000
,
0100
0010
0010
0100
0001
1000
0001
1000
,
0010
0000
0000
0110
0000
0000
0021
0000
0000
0000
0000
0000
0001
0000
0000
0000
,
0031
0000
1000
0000
0000
0000
0010
0000
0100
0000
0000
0001
0000
0000
0100
0000
,
0001
0000
0000
0110
0000
0000
1200
0000
0000
0000
0000
0000
0010
0000
0000
0000
,
1300
0000
0002
0000
0000
0003
1000
0000
0010
0000
0000
0010
0000
0000
0100
0000
,
0001
0000
0000
0110
0000
0000
0021
0000
0000
0000
0000
0000
0100
0000
0000
0000
,
0031
0000
2000
0000
0000
3000
0001
0000
1000
0000
0000
0010
0000
0000
0100
0000
,
0001
0000
0000
0110
0000
0000
1010
0000
0000
0000
0000
0000
2001
0000
0000
0000
,
0020
3030
0000
1000
0001
1000
0010
0100
,
0010
0000
0000
1001
0000
0000
1100
0000
0000
0000
1000
0000
0100
0000
0010
0000
,
0000
0001
0000
0100
0000
0010
0000
0000
1000
0000
0000
0110
0000
0000
1001
0000
,
0000
0000
1000
0000
0100
0000
1000
0000
0000
0010
0000
0100
0000
0010
0000
0000
,
1000
0100
0010
0001
0010
0100
1000
0100
,
1000
0100
0010
0100
1000
0001
0100
0010
,
1000
0100
0010
0001
1000
0010
0100
0001
,
0020
0000
0000
0100
0000
0000
0031
0000
0000
0000
1000
0000
0100
0000
0010
0000
,
0100
1000
0010
0100
0010
1000
0001
0010
,
0001
0000
0000
0110
0000
0000
0102
0000
0000
0003
1000
0000
0010
0000
0100
0000
,
0001
0010
0100
0010
0001
1000
0010
0100
,
0001
0000
0000
0110
0000
0000
1001
0000
0000
0000
0001
0000
0100
0000
0010
0000
,
1000
1000
0001
0100
0010
0010
1000
0001
,
0100
0000
0000
1001
0000
0000
1020
0000
0000
0000
0130
0000
0001
0000
1000
0000
,
0010
0100
0010
0100
0001
0001
1000
0010
,
0010
0000
0000
1000
0000
0000
1200
0000
0000
0000
0000
0000
0010
0000
0000
0000
,
1300
0000
0002
0000
0003
0000
0100
0000
0001
0000
0000
1000
0000
0000
0100
0000
,
1000
0000
0000
0101
0000
0000
0021
0000
0000
0000
0000
0000
0100
0000
0000
0000
,
0031
0000
2000
0000
3000
0000
0001
0000
1000
0000
0000
0100
0000
0000
0010
0000
,
0001
0000
0000
0110
0000
0000
1200
0000
0000
0000
0000
0000
0010
0000
0000
0000
,
1300
0000
0002
0000
0003
0000
0100
0000
0010
0000
0000
0100
0000
0000
0001
0000
,
0100
0000
0000
1001
0000
0000
0110
0000
0000
0000
0000
0000
1002
0000
0000
0000
,
0020
0033
0000
0001
1000
0100
1000
0001
,
0010
0000
0000
1001
0000
0000
1100
0000
0000
0000
0001
0000
0100
0000
0010
0000
,
0000
1000
0000
0001
0000
1000
0000
0000
0010
0000
0000
0001
0100
0000
0110
0000
,
0000
0000
0001
0000
0100
0000
0010
0000
0000
0100
0000
0010
0000
0100
0000
0000
,
0001
0000
0000
1000
0010
0000
0011
0000
0000
0000
1000
0000
0100
0000
0010
0000
,
0000
0010
0000
0100
0000
1000
0000
0000
0100
0000
0000
1000
0010
0000
0101
0000
,
0000
0000
0100
0000
0001
0000
0100
0000
0000
0001
0000
0010
0000
0001
0000
0000
,
1000
0000
0000
0200
0000
0000
0020
0000
0000
0000
0000
0000
0000
0000
0000
0000
,
0000
0000
0000
0300
,
0130
0000
0000
0001
0000
0000
0020
0000
0000
0000
0000
0000
0100
0000
0000
0000
,
0001
0001
0100
0230
,
1300
0000
0000
0100
0000
0000
0010
0000
0001
0000
0010
0000
0100
0000
1000
0000
,
0100
0010
0001
0100
0010
1000
0001
0200
,
0010
0000
0000
0001
0000
0000
0310
0000
0100
0000
0010
0000
1000
0000
0001
0000
,
0100
0010
0100
0001
1000
0100
0010
0100
,
1000
0000
0000
0001
0000
0000
0200
0000
0000
0000
0000
0000
0010
0000
0000
0000
,
0000
0000
0000
0000
0310
0000
0000
1000
0000
0000
1000
0000
0000
0000
0001
0000
,
0020
0000
0030
0001
,
0000
0000
0000
0000
1000
0000
0000
0001
0000
0000
0001
0000
0000
0000
0100
0000
,
0020
0000
0030
1000
,
0000
0000
0000
0000
1000
0000
0001
0000
0000
0000
0000
1000
0000
0000
0100
0000
,
0020
0000
0030
0100
,
0000
0000
0100
1000
0001
0100
0000
0001
,
0100
0001
1000
0100
0020
0000
0000
0000
,
0030
0000
0001
1000
0001
0200
0000
0301
,
1000
0100
1000
0010
0020
0000
0000
0000
,
0030
0000
1000
0001
0100
0001
0000
1000
,
0100
1000
0100
1000
0020
0000
0000
0000
,
0000
0000
0030
0010
0010
1000
0010
0100
,
0010
1000
0010
0100
0001
0010
0100
1000
,
0010
1000
0100
0010
0001
0010
0100
1000
,
0001
0100
0010
1000
0001
0100
0010
1000
,
0100
1000
0010
0100
0001
1000
0100
2000
,
3200
0010
1300
0001
0010
0100
0010
0002
,
0023
0100
0031
1000
0100
0010
0001
1000
,
0100
0010
0001
1000
0010
0100
0001
1000
,
0020
0100
1000
0130
0002
0000
0013
0000
,
0001
0000
0000
0011
0000
0000
0110
0000
0000
0000
1000
0000
0100
0000
0010
0000
,
0000
0001
0000
0010
0000
0100
0000
0000
1000
0000
0000
0110
0000
0000
1001
0000
,
0000
0000
1000
0000
0100
0000
1000
0000
0000
0010
0000
0100
0000
0010
0000
0000
,
1000
0000
0000
0101
0000
0000
0011
0000
0000
0000
1000
0000
0001
0000
0010
0000
,
0000
0100
0000
0010
0000
0100
0000
0000
1000
0000
0000
0110
0000
0000
1010
0000
,
0000
0000
0001
0000
0100
0000
0010
0000
0000
1000
0000
0001
0000
0010
0000
0000
,
0001
0000
0000
0001
0100
0000
0101
0000
0000
0000
1000
0000
0010
0000
0100
0000
,
0000
0100
0000
0001
0000
1000
0000
0000
0001
0000
0000
1000
0100
0000
1100
0000
,
0000
0000
1000
0000
0100
0000
0010
0000
0000
0001
0000
0100
0000
0010
0000
0000
,
1000
0000
0000
1000
0010
0000
1010
0000
0000
0000
0001
0000
0100
0000
0001
0000
,
0000
1000
0000
0010
0000
1000
0000
0000
0100
0000
0000
0001
0100
0000
0101
0000
,
0000
0000
1000
0000
0001
0000
1000
0000
0000
0001
0000
0010
0000
0000
0000
0000
,
0001
0000
0000
0110
0000
0000
0102
0000
0003
0000
0100
0000
0010
0000
0100
0000
,
0001
0010
0001
0010
0001
1000
0100
1000
,
0001
0000
0000
1100
0000
0000
0110
0000
0000
0000
0001
0000
0010
0000
0100
0000
,
0010
0001
1000
0100
0010
0001
1000
0100
,
0010
0000
0000
1100
0000
0000
0012
0000
0000
0000
0013
0000
0100
0000
1000
0000
,
0001
0100
0010
0100
0001
1000
0100
1000
,
0010
0000
0000
0011
0000
0000
2010
0000
0000
0000
3020
0000
0130
0000
0001
0000
,
1000
0100
0010
0100
1000
0001
0010
0001
,
1000
0000
0000
0101
0000
0000
2100
0000
0000
0000
0000
0000
0001
0000
0000
0000
,
0100
0001
0010
3001
,
0200
0000
0302
0100
,
1000
0100
1000
0013
,
2000
0000
0000
0000
3001
1000
0001
0010
,
0001
0100
0010
1000
0100
1000
0001
0010
,
0200
0000
1300
0100
0010
0001
1000
0010
,
0100
0000
0000
0001
0000
0000
1000
0000
0000
0001
0000
0000
0000
0200
0000
0000
,
0000
0000
0000
0000
0000
0300
0000
0000
0000
0000
0000
0000
0000
0000
0000
0000
;

//--------------- dance-single - RxSteps ----------------
#NOTES:
     dance-single:
     RxSteps:
     Medium:
     8:
     0,0,0,0,0:
0000
0000
0000
0000
,
0011
0000
0000
1100
0000
0000
0110
0000
0000
0000
0001
0000
0010
0000
0100
1000
,
0000
0001
1000
0001
1000
0001
1000
0000
1010
0000
0000
0110
0000
0000
1001
0000
,
0000
0000
0001
0000
0010
0000
0001
0010
0000
0001
0010
0100
1000
0100
1000
0000
,
0101
0000
0000
1010
0000
0000
1100
0000
0000
0000
0001
0000
1000
0000
0010
1000
,
0000
0001
0100
0001
0100
0001
1000
0000
1001
0000
0000
0110
0000
0000
0101
0000
,
0000
0000
1000
0000
0010
0000
0100
0001
0000
1000
0010
1000
0010
0100
0001
0000
,
1100
0000
0000
0010
0100
0000
1001
0000
0000
0000
0001
0000
0100
0000
0010
1000
,
0000
0010
0100
0010
0100
0001
0100
0000
1001
0000
0000
0001
0010
0000
1100
0000
,
0000
0000
0001
0000
0010
0000
0100
0010
0000
0100
1000
0100
1000
0001
0100
0000
,
1010
0000
0000
0001
0100
0000
0110
0000
0000
0000
1000
0000
0010
0000
1000
0100
,
0000
1000
0001
0100
0001
1000
0010
0000
0011
0000
0000
1000
0100
0000
0101
0000
,
0000
0000
0001
0000
1000
0000
0001
1000
0000
0100
1000
0100
1000
0100
0020
0000
,
0001
0000
0000
0100
0000
0000
0032
0000
0000
0003
0100
0000
0010
0000
0100
0000
,
0001
0001
1000
0010
0100
0001
0010
0100
,
0011
0000
0000
0110
0000
0000
1200
0000
0000
0000
1300
0000
0100
0000
0010
0000
,
0100
1000
0010
0100
0010
1000
0001
0010
,
1100
0000
0000
0110
0000
0000
0021
0000
0000
0000
0130
0000
1000
0000
1000
0000
,
0001
0010
0100
0100
1000
0001
1000
0010
,
0110
0000
0000
1001
0000
0000
0110
0000
0000
0000
1000
0000
0001
0000
0001
0000
,
0100
0010
0010
0100
0001
1000
0001
0100
,
1100
0000
0000
0110
0000
0000
0021
0000
0000
0000
0000
0000
0100
0000
0000
0000
,
0031
0000
1000
0100
0000
1000
0010
0000
0100
0000
0001
0010
0000
0000
0001
0000
,
1001
0000
0000
0110
0000
0000
1200
0000
0000
0000
0000
0000
0010
0000
0000
0000
,
1300
0000
0001
0100
0000
0001
1000
0000
0010
0000
0100
0010
0000
0000
1000
0000
,
0011
0000
0000
0110
0000
0000
0021
0000
0000
0000
0000
0000
0100
0000
0000
0000
,
0031
0000
1000
0001
0000
0001
1000
0000
0010
0000
0100
0001
0000
0000
0100
0000
,
1010
0000
0000
0110
0000
0000
1010
0000
0000
0000
0000
0000
2001
0000
0000
0000
,
3200
0000
0300
0010
0001
0000
0010
0000
0100
0000
0010
0000
0001
0000
0010
0000
,
0110
0000
0000
1001
0000
0000
1100
0000
0000
0000
1000
0000
0100
0000
0010
0001
,
0000
1000
0001
1000
0001
1000
0001
0000
0101
0000
0000
0110
0000
0000
1001
0000
,
0000
0000
1000
0000
0100
0000
1000
0100
0000
1000
0100
0010
0001
0010
0001
0000
,
0010
0000
0100
0000
1000
0000
0001
0000
0200
0300
0010
0000
0001
0000
1000
0000
,
0010
0100
1000
0001
0100
0010
0001
1000
,
0010
0100
1000
0002
1003
0100
0010
0001
,
0020
0000
0000
0100
0000
0000
0031
0000
0000
0000
1000
0000
0100
0000
0010
0000
,
0100
1000
0010
0100
0010
1000
0001
1000
,
0101
0000
0000
0110
0000
0000
0102
0000
0000
0003
0100
0000
0010
0000
0100
0000
,
0001
0010
0100
0010
0001
1000
0010
0100
,
1001
0000
0000
0110
0000
0000
1001
0000
0000
0000
0001
0000
0100
0000
0010
0000
,
1100
0101
1000
0100
0110
1100
0001
0100
,
0110
0000
0000
1001
0000
0000
1020
0000
0000
0000
0130
0000
0001
0000
1000
0100
,
1000
0000
0001
0000
0010
0001
0010
0000
0001
0000
1010
0000
0001
0000
1000
0000
,
0110
0000
0000
0101
0000
0000
1200
0000
0000
0000
0000
0000
0010
0000
0000
0000
,
1300
0000
0001
0100
0000
0100
0001
0000
1000
0000
0010
1000
0000
0000
0001
0000
,
0011
0000
0000
0101
0000
0000
0021
0000
0000
0000
0000
0000
0100
0000
0000
0000
,
0031
0000
1000
0001
0000
0010
0001
0000
1000
0000
0010
1000
0000
0000
0100
0000
,
1100
0000
0000
0110
0000
0000
1200
0000
0000
0000
0000
0000
0010
0000
0000
0000
,
1300
0000
0001
0010
0000
0001
0100
0000
0010
0000
1000
0100
0000
0000
1000
0000
,
0110
0000
0000
1001
0000
0000
0110
0000
0000
0000
0000
0000
1002
0000
0000
0000
,
0023
0000
0030
0100
1000
0000
0001
0000
1000
0000
0100
0000
1000
0000
0010
0000
,
0110
0000
0000
1001
0000
0000
1100
0000
0000
0000
0001
0000
0100
0000
0010
1000
,
0000
0001
1000
0001
1000
0001
1000
0000
1100
0000
0000
0001
0100
0000
0110
0000
,
0000
0000
0001
0000
0100
0000
0010
1000
0000
0010
0100
0010
0100
0010
0100
0000
,
0101
0000
0000
0010
0100
0000
0011
0000
0000
0000
1000
0000
0100
0000
0010
0001
,
0000
0010
0001
0010
0001
1000
0001
0000
1100
0000
0000
1000
0010
0000
0102
0000
,
0013
0000
0100
0000
1000
0000
0100
1000
0000
0100
1000
0100
1000
0100
0010
0000
,
0002
0000
0003
0200
0000
0000
0020
0000
0000
0000
0000
0000
0000
0000
0000
0000
,
0000
0000
0000
0300
,
0130
0000
0000
0001
0000
0000
0020
0000
0000
0000
0000
0000
0100
0000
0000
0000
,
0001
0001
0100
0230
,
1300
0000
0000
0100
0000
0000
0010
0000
0001
0000
0010
0000
0100
0000
1000
0000
,
0100
0010
0001
0100
0010
1000
0001
0200
,
0010
0000
0000
0001
0000
0000
0310
0000
1000
0000
0100
0000
0010
0000
0001
0000
,
0010
0100
0010
0001
1000
0100
0010
0100
,
1000
0000
0000
0001
0000
0000
0200
0000
0000
0000
0000
0000
0010
0000
0000
0000
,
0000
0000
0000
0000
0310
0000
0000
1000
0001
0000
1000
0100
0000
0000
0100
0000
,
0020
0000
0030
0001
,
0000
0000
0000
0000
1000
0000
0000
0001
1000
0000
0001
0100
0000
0000
0100
0000
,
0020
0000
0030
1000
,
0000
0000
0000
0000
1000
0000
0001
0100
0000
0000
0100
0001
0000
0000
1000
0000
,
0020
0000
0030
0100
,
0000
0000
0100
0001
1000
0001
0000
1000
,
0100
1000
0001
0100
0020
0000
0000
0000
,
0030
0000
0100
0001
1000
0200
0000
1300
,
0001
1000
0100
0010
0020
0000
0000
0000
,
0030
0000
0001
0100
0001
1000
0000
1000
,
0001
0100
0100
0001
0020
0000
0000
0000
,
0000
0000
0030
0010
0010
0001
0010
0100
,
0010
0001
0010
0100
1000
0010
0100
0001
,
0010
0001
0100
0010
1000
0010
0100
0001
,
0010
0100
1000
0001
1000
0010
0100
0001
,
0010
0001
0100
0010
2000
0001
3010
0002
,
0023
0100
0031
1000
0100
0010
0100
2000
,
3200
0010
1300
0001
0010
0100
1000
0001
,
0010
0100
1000
0001
0100
0010
1000
0001
,
0200
0010
0001
0310
2000
0000
3100
0000
,
0011
0000
0000
0110
0000
0000
1001
0000
0000
0000
1000
0000
0010
0000
0100
0001
,
0000
1000
0001
1000
0001
1000
0001
0000
1100
0000
0000
0110
0000
0000
1001
0000
,
0000
0000
0001
0000
0100
0000
0001
0100
0000
0001
0100
0010
1000
0010
1000
0000
,
0011
0000
0000
1100
0000
0000
1010
0000
0000
0000
0001
0000
1000
0000
0100
1000
,
0000
0001
0100
0001
0100
0001
1000
0000
1001
0000
0000
0110
0000
0000
0011
0000
,
0000
0000
1000
0000
0100
0000
0010
0001
0000
1000
0100
1000
0100
0010
0001
0000
,
1100
0000
0000
0201
0000
0000
0010
0000
0300
0000
0001
0000
0010
0000
0100
1000
,
0000
0010
0100
0010
0100
0001
0100
0000
1010
0000
0000
1200
0000
0000
0010
0000
,
0300
0000
1000
0000
0100
0000
0010
0001
0000
0010
0001
0010
0001
1000
0010
0000
,
1100
0000
0000
0201
0000
0000
0010
0000
0300
0000
0001
0000
0100
0000
0010
1000
,
0000
0001
1000
0001
1000
0010
1000
0000
0101
0000
0000
1200
0000
0000
0310
0000
,
0100
0000
1000
0000
0010
0000
1000
0010
0000
0100
0010
0100
0010
0100
0001
0000
,
1100
0000
0000
0110
0000
0000
0102
0000
0003
0000
0100
0000
0010
0000
0100
0000
,
0001
0010
0001
0010
0001
1000
0100
1000
,
0011
0000
0000
1100
0000
0000
0110
0000
0000
0000
0001
0000
0010
0000
0100
0000
,
0010
0001
1000
0100
0010
0001
1000
0100
,
0011
0000
0000
1100
0000
0000
0012
0000
0000
0000
0013
0000
0100
0000
1000
0000
,
0001
0100
0010
0100
0001
1000
0100
1000
,
0110
0000
0000
0011
0000
0000
2010
0000
0000
0000
3020
0000
0130
0000
0001
0000
,
1000
0100
0010
0100
1000
0001
0010
0001
,
1100
0000
0000
0101
0000
0000
2100
0000
0000
0000
0000
0000
0001
0000
0000
0000
,
0100
0001
0010
3001
,
0001
0100
0001
0100
0001
0100
0001
0100
0002
0000
0000
0000
0100
0000
0000
0000
,
1000
0100
1000
0013
,
0001
1000
0001
1000
0001
1000
0001
1000
0001
0000
0100
0000
0001
0000
0010
0000
,
0001
0100
0010
1000
0100
1000
0001
0020
,
0100
0031
0010
0100
0010
0001
0100
0010
,
0100
0000
0000
0001
0000
0000
1000
0000
0000
0001
0000
0000
0000
0200
0000
0000
,
0000
0000
0000
0000
0000
0300
0000
0000
0000
0000
0000
0000
0000
0000
0000
0000
;

//--------------- dance-single - RxSteps ----------------
#NOTES:
     dance-single:
     RxSteps:
     Hard:
     9:
     0,0,0,0,0:
0000
0000
0000
0000
,
0011
0000
0000
1100
0000
0000
0110
0000
0000
0000
0001
0000
0010
0000
0100
0010
,
0000
0100
0010
0100
1000
0001
0100
0000
1010
0000
0000
0110
0000
0000
1001
0000
,
0000
0000
0001
0000
0010
0000
0001
0010
0000
0001
0010
0100
1000
0100
1000
0000
,
0101
0000
0000
1010
0000
0000
1100
0000
0000
0000
0001
0000
1000
0000
0010
1000
,
0000
0001
1000
0001
0100
0010
0100
0000
1001
0000
0000
0110
0000
0000
0101
0000
,
0000
0000
1000
0000
0010
0000
0100
0001
0000
1000
0010
1000
0010
0100
0001
0000
,
1100
0000
0000
0010
0100
0000
1001
0000
0000
0000
0001
0000
0100
0000
0010
1000
,
0000
0001
1000
0001
0100
0010
0100
0000
1001
0000
0000
0001
0010
0000
1100
0000
,
0000
0000
0001
0000
0010
0000
0100
0010
0000
0100
1000
0100
1000
0001
0100
0000
,
1010
0000
0000
0001
0100
0000
0110
0000
0000
0000
1000
0000
0010
0000
1000
0100
,
0000
1000
0001
0100
0001
1000
0010
0000
0011
0000
0000
1000
0100
0000
0101
0000
,
0000
0000
0001
0000
0010
0000
0001
0100
0010
0000
1000
0100
1000
0100
0020
0000
,
0001
0000
0000
0100
0000
0000
0032
0000
0000
0003
0100
0000
1000
0000
0100
0000
,
0001
0010
1000
0010
0001
1000
0010
0100
,
0011
0000
0000
0110
0000
0000
1200
0000
0000
0000
1300
0000
0100
0000
0001
0000
,
0100
1000
0010
0001
0010
1000
0001
0010
,
1100
0000
0000
0110
0000
0000
0021
0000
0000
0000
0130
0000
1000
0000
0020
0000
,
0031
1000
0001
0010
0100
0001
1000
0100
,
0110
0000
0000
1001
0000
0000
0110
0000
0000
0000
1000
0000
0200
0000
0301
0000
,
1000
0010
0001
0200
1300
0100
0001
0010
,
1100
0000
0000
0110
0000
0000
0021
0000
0000
0000
0000
0000
0100
0000
0000
0000
,
0031
0000
1000
0100
0000
1000
0010
0000
0100
0000
0001
0010
0000
0000
0001
0000
,
1001
0000
0000
0110
0000
0000
1200
0000
0000
0000
0000
0000
0010
0000
0000
0000
,
1300
0000
0001
0100
0000
0001
1000
0000
0010
0000
0100
0010
0000
0000
1000
0000
,
0011
0000
0000
0110
0000
0000
0021
0000
0000
0000
0000
0000
0100
0000
0000
0000
,
0031
0000
1000
0001
0000
0001
1000
0000
0010
0000
0100
0001
0000
0000
0100
0000
,
1010
0000
0000
0110
0000
0000
1010
0000
0000
0000
0000
0000
2001
0000
0000
0000
,
3200
0000
0300
0010
0001
0000
0010
0000
1000
0000
0010
0000
0001
0000
0010
0000
,
0110
0000
0000
1001
0000
0000
1100
0000
0000
0000
1000
0000
0100
0000
0010
0100
,
0000
0010
0100
0010
0001
1000
0010
0000
0101
0000
0000
0110
0000
0000
1001
0000
,
0000
0000
1000
0000
0100
0000
1000
0100
0000
1000
0100
0010
0001
0010
0001
0000
,
0010
0000
0100
0000
1000
0000
0001
0000
0200
0300
0010
0000
0001
0000
1000
0000
,
0010
0100
1000
0001
0100
0010
0001
1000
,
0010
0100
1000
0002
1003
0100
0010
0001
,
0020
0000
0000
0100
0000
0000
0031
0000
0000
0000
1000
0000
0100
0000
0001
0000
,
0100
1000
0010
0001
0010
1000
0010
0100
,
0101
0000
0000
0110
0000
0000
0102
0000
0000
0003
0100
0000
1000
0000
0100
0000
,
0001
0010
1000
0010
0001
1000
0010
0100
,
1001
0000
0000
0110
0000
0000
1001
0000
0000
0000
0001
0000
0100
0000
0010
0000
,
1100
0101
1000
0100
0110
1100
0001
0100
,
0110
0000
0000
1001
0000
0000
1020
0000
0000
0000
0130
0000
0001
0000
1000
0100
,
1000
0000
0001
0000
0010
0001
0010
0000
1010
0000
0021
0000
0130
0000
1000
0000
,
0110
0000
0000
0101
0000
0000
1200
0000
0000
0000
0000
0000
0010
0000
0000
0000
,
1300
0000
0001
0100
0000
0100
0001
0000
1000
0000
0010
1000
0000
0000
0001
0000
,
0011
0000
0000
0101
0000
0000
0021
0000
0000
0000
0000
0000
0100
0000
0000
0000
,
0031
0000
1000
0001
0000
0010
0001
0000
1000
0000
0010
1000
0000
0000
0100
0000
,
1100
0000
0000
0110
0000
0000
1200
0000
0000
0000
0000
0000
0010
0000
0000
0000
,
1300
0000
0001
0010
0000
0001
0100
0000
0010
0000
1000
0100
0000
0000
1000
0000
,
0110
0000
0000
1001
0000
0000
0110
0000
0000
0000
0000
0000
1002
0000
0000
0000
,
0023
0000
0030
0100
1000
0000
0100
0000
0001
0000
0100
0000
1000
0000
0010
0000
,
0110
0000
0000
1001
0000
0000
1100
0000
0000
0000
1000
0000
0001
0000
0100
0010
,
0000
1000
0010
0100
0001
0100
0010
0000
1100
0000
0000
0001
0100
0000
0110
0000
,
0000
0000
0001
0000
0100
0000
0010
1000
0000
0001
1000
0001
0100
0010
1000
0000
,
0101
0000
0000
0010
0100
0000
0011
0000
0000
0000
1000
0000
0100
0000
0010
0001
,
0000
0010
0001
0010
0001
1000
0001
0000
1100
0000
0000
1000
0010
0000
0102
0000
,
0013
0000
0100
0000
1000
0000
0100
1000
0000
0100
1000
0100
0010
0001
0010
0000
,
0002
0000
0003
0200
0000
0000
2000
0000
0000
0000
0000
0000
0000
0000
0000
0000
,
0000
0000
0000
0300
,
3100
0000
0000
0001
0000
0000
0020
0000
0000
0000
0000
0000
0100
0000
0000
0000
,
0001
0001
0100
0230
,
1300
0000
0000
0100
0000
0000
0010
0000
0001
0000
0010
0000
0100
0000
1000
0000
,
0100
0010
0001
0010
1000
0010
0001
0200
,
0010
0000
0000
0001
0000
0000
0310
0000
1000
0000
0100
0000
0010
0000
0001
0000
,
0010
0100
0010
0001
1000
0100
0010
0100
,
1000
0000
0000
0001
0000
0000
0200
0000
0000
0000
0000
0000
0010
0000
0000
0000
,
0000
0000
0000
0000
0310
0000
0000
1000
0001
0000
1000
0100
0000
0000
0100
0000
,
0020
0000
0030
0001
,
0000
0000
0000
0000
1000
0000
0000
0001
1000
0000
0001
0100
0000
0000
0100
0000
,
0020
0000
0030
1000
,
0000
0000
0000
0000
1000
0000
0001
0100
0000
0000
0100
0001
0000
0000
1000
0000
,
0020
0000
0030
0100
,
0000
0000
0100
0001
1000
0001
0000
1000
,
0100
0001
0100
1000
0020
0000
0000
0000
,
0030
0000
1000
0100
0001
0200
0000
1300
,
0001
1000
0100
0010
0020
0000
0000
0000
,
0030
0000
0001
0100
0001
1000
0000
0001
,
0100
1000
0100
0001
0020
0000
0000
0000
,
0000
0000
0030
0010
0010
0001
0010
0100
,
0010
0001
0010
1000
0010
0001
0010
0100
,
0010
0001
0100
0010
0100
0001
0010
0100
,
1000
0010
0100
0001
1000
0010
0100
0001
,
0010
0001
0100
0010
1000
0200
0301
1000
,
0010
0001
0100
1000
0001
0010
1000
0100
,
0001
1000
0010
0001
0010
0100
1000
0100
,
0010
0000
0001
0000
0100
0000
0010
0000
2000
3000
0100
0000
0010
0000
1000
0000
,
0001
0010
0100
0001
2000
0000
3100
0000
,
0011
0000
0000
0110
0000
0000
1001
0000
0000
0000
0001
0000
0100
0000
0010
0100
,
0000
0010
0100
0010
1000
0001
0010
0000
1100
0000
0000
0110
0000
0000
1001
0000
,
0000
0000
0001
0000
0100
0000
0001
0100
0000
0001
0100
0010
1000
0010
1000
0000
,
0011
0000
0000
1100
0000
0000
1010
0000
0000
0000
0001
0000
1000
0000
0100
1000
,
0000
0001
1000
0001
0010
0100
0010
0000
1001
0000
0000
0110
0000
0000
0011
0000
,
0000
0000
1000
0000
0100
0000
0010
0001
0000
1000
0100
1000
0100
0010
0001
0000
,
1100
0000
0000
0201
0000
0000
1000
0000
0300
0000
0001
0000
0010
0000
0100
1000
,
0000
0010
0100
0010
0100
0001
0100
0000
1010
0000
0000
1200
0000
0000
0001
0000
,
0300
0000
1000
0000
0100
0000
0010
0001
0000
0010
0001
0010
0001
1000
0010
0000
,
1100
0000
0000
0201
0000
0000
1000
0000
0300
0000
0001
0000
0100
0000
0010
1000
,
0000
0001
1000
0001
1000
0010
1000
0000
0101
0000
0000
1200
0000
0000
0301
0000
,
0100
0000
1000
0000
0010
0000
1000
0010
0000
0100
0010
0100
0010
0100
0001
0000
,
1100
0000
0000
0110
0000
0000
0102
0000
0003
0000
0100
0000
1000
0000
0100
0000
,
0001
0010
1000
0010
0001
1000
0100
1000
,
0011
0000
0000
1100
0000
0000
0110
0000
0000
0000
0001
0000
0010
0000
0100
0000
,
0010
0001
1000
0100
0010
0001
1000
0100
,
0011
0000
0000
1100
0000
0000
0012
0000
0000
0000
0013
0000
0100
0000
1000
0000
,
0001
0200
1300
0001
0010
0100
0001
1000
,
0110
0000
0000
0011
0000
0000
2010
0000
0000
0000
3020
0000
0031
0000
0010
0000
,
1000
0100
0001
0100
1000
0010
0100
0001
,
1100
0000
0000
0101
0000
0000
2100
0000
0000
0000
0000
0000
0001
0000
0000
0000
,
0100
0001
0010
3001
,
0001
0010
0100
1000
0001
0010
0100
1000
0002
0000
0000
0000
0100
0000
0000
0000
,
1000
0100
1000
0013
,
0001
0100
0010
1000
0001
0100
0010
1000
0001
0000
0100
0000
0001
0000
0010
0000
,
0001
0100
0010
1000
0100
1000
0001
0020
,
1030
0001
0100
1000
0010
0100
0001
1000
,
0100
0000
0000
0010
0000
0000
0001
0000
0000
0001
0000
0000
0000
0200
0000
0000
,
0000
0000
0000
0000
0000
0300
0000
0000
0000
0000
0000
0000
0000
0000
0000
0000
;
