#TITLE:Frozen;
#SUBTITLE:(Celldweller vs. Blue Stahli);
#ARTIST:Celldweller and Blue Stahli;
#TITLETRANSLIT:;
#SUBTITLETRANSLIT:;
#ARTISTTRANSLIT:;
#GENRE:;
#CREDIT:RxSteps;
#MUSIC:Frozen (Celldweller vs Blue Stahli).ogg;
#BANNER:Frozen (Celldweller vs Blue Stahli).png;
#BACKGROUND:Frozen (Celldweller vs Blue Stahli)-bg.png;
#CDTITLE:cdtitle.png;
#SAMPLESTART:146.249;
#SAMPLELENGTH:24.000;
#SELECTABLE:YES;
#OFFSET:1.443;
#BPMS:0.000=130.000;
#STOPS:;
#BGCHANGES:;
#FGCHANGES:;

//--------------- dance-single - RxSteps ----------------
#NOTES:
     dance-single:
     RxSteps:
     Beginner:
     4:
     0,0,0,0,0:
0000
0000
0000
0000
,
0001
1000
0000
0010
,
0100
0001
0000
0100
,
0001
1000
0000
0010
,
1000
0010
0000
1000
,
0001
0100
0000
0100
,
0010
0100
0000
0001
,
1000
0001
0000
0100
,
0010
1000
0000
0001
,
1000
0001
0100
0100
,
0001
0100
0010
0010
,
1000
0001
0100
0100
,
0001
0010
0100
1000
,
1000
0001
0100
0100
,
0001
1000
0010
0010
,
0100
0001
0010
0010
,
0001
1000
1000
0010
,
0200
0000
0300
0000
,
0002
0000
0003
0000
,
2000
0000
3000
0000
,
0020
0000
0030
0000
,
1000
0010
0000
0100
,
0000
0000
0001
0000
0100
0001
0100
0000
,
0001
0000
1000
0000
,
0010
0000
0000
0000
0010
1000
0010
0000
,
1000
0000
0001
0000
,
0100
0000
0000
0000
0001
0100
0001
0000
,
1000
0000
0010
1000
,
1000
0000
0001
0000
,
0100
0000
0010
0000
,
1000
0010
0100
0100
,
0001
0000
1000
1000
,
0010
0000
0100
0000
,
0001
1000
0010
0010
,
0100
0001
1000
0001
,
0100
0000
0010
0010
,
1000
0000
0001
0000
,
0100
0000
0001
0000
,
1000
0100
0010
0002
,
0000
0000
0000
0000
,
0003
0000
0000
0000
,
1001
0000
0000
1000
,
0010
1000
0010
0000
0000
0000
1000
0000
,
0001
0100
0001
0100
0000
0000
0001
0000
,
1000
0001
1000
0001
0000
0000
0100
0000
,
0001
1000
0001
1000
0000
0000
0010
0000
,
0010
1000
0010
1000
0000
0000
0001
0000
,
0100
0001
0100
0001
0000
0000
1000
0000
,
0001
0100
0010
1000
,
0001
0001
0100
0100
,
0010
0010
1000
1000
,
0001
0001
1000
1000
,
0010
0010
0100
0100
,
0001
0100
0001
0100
,
0001
1000
0001
1000
,
0010
1000
0010
1000
,
0001
0100
0010
1000
,
0002
0003
0000
0100
,
0002
0003
1000
0001
,
2000
3000
0010
1000
,
0010
0000
0100
0100
,
0100
0000
0001
1000
,
0002
0003
0100
0100
,
0001
0000
1000
0100
,
1000
0000
0001
0100
,
0001
0010
0100
1000
,
0000
1000
0100
1000
,
0001
0000
0100
0100
,
0010
0000
1000
0000
,
0001
0001
0100
0100
,
0020
0030
1000
0001
,
1000
0000
0010
0010
,
1000
0000
0001
0000
,
1000
0010
1000
0010
,
0000
1000
0001
0000
,
0100
0000
0010
0010
,
1000
0000
0001
0000
,
1000
0001
0100
0010
,
1000
0001
0001
0000
,
1000
0000
0010
0000
,
2000
0000
3000
0000
,
0101
0000
1000
0000
,
0010
1000
0010
1000
,
0001
0100
0010
1000
,
0010
0100
0001
1000
,
0100
1000
0100
0100
,
1000
0001
0100
0001
,
1000
0100
0010
0001
,
0100
0010
1000
0001
,
1000
1000
0010
0100
,
0000
0001
0001
0100
,
0010
1000
0001
0100
,
0010
1000
0001
0100
,
0010
1000
1000
0000
,
0001
0010
0001
0002
,
0000
0000
0003
0000
,
1000
0001
0100
0010
,
1000
0001
0100
0100
,
0000
0001
1000
0010
,
0010
0000
0100
0100
,
0001
0000
0010
0000
,
0001
0010
0100
0100
,
1000
0100
0010
0000
,
0001
0000
0100
0100
,
0010
0000
1000
0000
,
0002
0000
0003
0000
,
0200
0000
0300
0000
,
0001
0000
1000
0000
,
0010
0000
1000
0000
,
0001
1000
0001
0001
,
0100
0010
0010
0000
,
1000
0100
0010
0001
,
0020
0000
0030
0000
,
1001
0000
0001
0100
,
0010
0100
0100
0001
,
1000
0100
0010
0001
,
0010
0100
1000
0100
,
0010
0010
0001
0001
,
1000
0001
1000
1000
,
0010
0010
0100
0100
,
0001
0010
0100
1000
,
0001
1000
0010
0010
,
0000
1000
0001
0100
,
0001
1000
0001
1000
,
0010
0100
0010
0100
,
0001
0100
0010
0100
,
0001
0001
1000
2000
,
0000
0000
3000
0000
,
0001
0010
0100
1000
,
0001
0000
0000
0100
0000
0001
0000
0000
,
1000
0000
0000
0010
0000
1000
0000
0000
,
0010
0000
0000
0100
0000
0001
0000
0000
,
1000
0000
0000
0001
0000
1000
0000
0000
,
0010
1000
0001
0100
,
0010
1000
1000
0000
,
0001
1000
0001
0100
,
0020
0000
0030
0000
,
1001
0000
1000
0001
,
0100
0010
0100
0001
,
1000
1000
0001
0001
,
1000
0010
0100
0001
,
1000
1000
0010
0010
,
0100
0001
1000
0010
,
1000
0001
0100
0001
,
1000
0100
0010
0001
,
0200
0000
0300
0000
,
0020
0000
0030
0000
,
2000
0000
3000
0000
,
0002
0000
0003
0000
,
0020
0000
0030
0000
,
0002
0000
0003
0000
,
2000
0000
3000
0000
,
0020
0000
0030
0000
,
1000
0010
1000
0010
,
0100
0001
0100
0001
,
1000
0001
1000
0001
,
0100
0001
0100
0001
,
2000
3000
0200
0300
,
0020
0030
0002
0003
,
2000
0000
0020
0000
,
0000
0000
0000
0000
,
3030
0000
0000
0000
;

//--------------- dance-single - RxSteps ----------------
#NOTES:
     dance-single:
     RxSteps:
     Easy:
     6:
     0,0,0,0,0:
0000
0000
0000
0000
,
0001
0000
0010
0000
0001
0000
0000
1000
0000
0000
0000
0000
0010
0000
0000
0000
,
0100
0000
0010
0000
0100
0000
0000
0001
0000
0000
0000
0000
0001
0000
0000
0000
,
1000
0000
0001
0000
1000
0000
0000
0010
0000
0000
0000
0000
0010
0000
0000
0000
,
0100
0000
0001
0000
0100
0000
0000
0010
0000
0000
0000
0000
1000
0000
0000
0000
,
0001
0000
1000
0000
0001
0000
0000
0010
0000
0000
0000
0000
0001
0000
0000
0000
,
1000
0000
0100
0000
1000
0000
0000
0001
0000
0000
0000
0000
0100
0000
0000
0000
,
0100
0000
0010
0000
0100
0000
0000
0001
0000
0000
0000
0000
1000
0000
0000
0000
,
0010
0000
1000
0000
0010
0000
0000
0100
0000
0000
0000
0000
0001
0000
0000
0000
,
1000
0000
0100
0000
0010
0000
0000
0001
0000
0000
0000
0000
0100
0000
0000
0000
,
0001
0000
0010
0000
0100
0000
0000
1000
0000
0000
0000
0000
0100
0000
0000
0000
,
1000
0000
0001
0000
0100
0000
0000
0001
0000
0000
0000
0000
0010
0000
0000
0000
,
0010
0000
0001
0000
1000
0000
0000
0010
0000
0000
0000
0000
1000
0000
0000
0000
,
0001
0000
0100
0000
0010
0000
0000
0010
0000
0000
0000
0000
1000
0000
0000
0000
,
0001
0000
1000
0000
0100
0000
0000
0100
0000
0000
0000
0000
1000
0000
0000
0000
,
0001
0000
0100
0000
0010
0000
0000
1000
0000
0000
0000
0000
0100
0000
0000
0000
,
1000
0000
0100
0000
0010
0000
0000
0001
0000
0000
0000
0000
0100
0000
0000
0000
,
0100
0001
1000
0010
,
0100
0001
0010
0100
,
0010
0100
1000
0100
,
1000
0010
0100
0001
,
0200
0000
0010
0000
,
0001
0000
0300
0000
0100
0001
0100
0000
,
0020
0000
1000
0000
,
0100
0000
0030
0000
0010
1000
0010
0000
,
1000
0001
0100
0001
0100
0010
1000
0000
,
0000
1000
0001
1000
0010
0100
0010
0000
,
2000
0000
0000
0000
3000
0000
0000
0010
0000
0000
0100
0000
0010
0000
0100
0000
,
0002
0000
0000
0000
0003
0000
0000
0200
0000
0000
0000
0000
0300
0000
0000
0000
,
0001
1000
0100
1000
0100
0010
0001
0000
,
0001
1000
0001
1000
0010
0000
0010
0000
,
0200
0000
0000
0000
0300
0000
0000
0001
0000
0000
1000
0000
0010
0000
1000
0000
,
0002
0000
0000
0000
0003
0000
0000
0200
0000
0000
0000
0000
0300
0000
0000
0000
,
0100
0010
0100
0010
0100
0010
0100
0000
,
0000
0001
1000
0001
1000
0010
0100
0000
,
0020
0000
0000
0000
0030
0000
0000
0100
0000
0000
0001
0000
1000
0000
0001
0000
,
0200
0000
0000
0000
0300
0000
0000
0020
0000
0000
0000
0000
0030
0000
0000
0000
,
1000
0001
1000
0001
1000
0010
1000
0000
,
0001
0100
0001
1000
0002
0000
0200
0000
,
0000
0000
0000
0000
,
0000
0000
0303
0000
0000
0000
0001
1000
,
0010
0100
0010
0200
0000
0000
0301
0000
,
1000
0001
1000
0200
0000
0000
1300
0000
,
1000
0010
0100
0002
0000
0000
1003
0000
,
0001
0100
0001
2000
0000
0000
3010
0000
,
0001
0100
0010
2000
0000
0000
3001
0000
,
1000
0010
0100
0020
0000
0000
0130
0000
,
0001
1000
0001
2000
0000
0000
3100
0000
,
1000
0100
0010
0001
0010
0100
1000
0000
,
0110
1001
0110
1001
,
1000
0020
0100
1030
,
0110
1001
0110
1001
,
0001
0200
0010
0301
,
0002
0010
0100
1003
,
2000
0010
0100
3010
,
0002
1000
0100
1003
,
0001
0100
0010
1000
0010
0100
0001
0000
,
0010
0000
0100
0000
1000
0100
1000
0000
,
1000
0000
0010
0000
0100
0010
0100
0000
,
0100
0000
0001
0000
0010
0001
0010
0000
,
0001
0000
1000
0010
1000
0010
0100
0010
,
1000
0000
0010
0000
0100
0010
0100
0000
,
0001
0000
1000
0000
0010
0100
0010
0000
,
0010
0000
1000
0000
0100
1000
0100
0000
,
1000
0000
0001
0100
0010
1000
0001
0100
,
0010
0000
0010
0000
1000
0010
0100
0000
,
0000
0001
1000
0001
0100
0000
0010
0000
,
2000
0000
0000
0000
3000
0000
0000
0001
0000
0000
1000
0000
0010
0000
1000
0000
,
0002
0000
0000
0000
0003
0000
0000
0020
0000
0000
0000
0000
0030
0000
0000
0000
,
0002
0000
0000
0003
1000
0001
1000
0000
,
0020
0100
1030
0001
,
0200
0000
0000
0000
0300
0000
0000
0001
0000
0000
1000
0000
0001
0000
1000
0000
,
0020
0000
0000
0000
0030
0000
0000
0200
0000
0000
0000
0000
0300
0000
0000
0000
,
0001
0100
0001
0200
0001
0000
0302
0000
,
0003
1000
0010
1000
0020
0000
0030
0000
,
2000
0000
0000
0000
3000
0000
0000
0100
0000
0000
1000
0000
0100
0000
1000
0000
,
0002
0000
0000
0000
0003
0000
0000
0020
0000
0000
0000
0000
0030
0000
0000
0000
,
0001
0010
0001
0010
0002
0000
1003
0000
,
0001
1000
0010
0100
0010
0000
1000
0000
,
0002
0000
0000
0000
0003
0000
0000
0100
0000
0000
0010
0000
0100
0000
0001
0000
,
1000
0010
0100
0001
0100
0010
1000
0001
,
1000
0100
1000
0100
1000
0100
2000
3000
,
0000
0001
0010
0100
1000
0100
0010
0000
,
0002
0100
1000
0010
,
0203
0010
0001
0310
,
0001
0100
0001
0100
0001
0100
0002
0003
,
1000
0010
1000
0010
0100
0000
0100
0000
,
0110
1001
0110
1001
,
0001
1000
0010
1000
0100
1000
0001
0000
,
1000
0010
0100
0010
1000
0001
1000
0000
,
0000
1000
0100
0010
0001
0010
0001
0000
,
0110
1001
0110
1001
,
2000
0001
0010
3100
,
1000
0100
1000
0100
1000
0100
1000
0000
,
0001
0100
0010
0100
0010
0000
0020
0000
,
0000
0000
2030
3000
,
0001
1000
0001
2000
0100
0000
3100
0000
,
1000
0001
1000
0000
0010
0000
0010
0000
,
0000
1000
0010
0100
0010
0000
1000
0000
,
0002
0000
0000
0000
0003
0000
0000
1000
0000
0000
0001
0000
0100
0000
0001
0000
,
2000
0000
0000
0000
3000
0000
0000
0200
0000
0000
0000
0000
0000
0000
0000
0000
,
0300
0010
0001
0010
0001
0000
2000
3000
,
0100
0010
0100
1000
0002
0000
0003
0000
,
2000
0000
0000
0000
3000
0000
0000
0001
0000
0000
1000
0000
0010
0000
1000
0000
,
0002
0000
0000
0000
0003
0000
0000
0020
0000
0000
0000
0000
0030
0000
0000
0000
,
0001
1000
0001
0100
0010
1000
0010
0000
,
0000
0010
0100
0010
2000
0000
0000
0000
,
0010
0000
3002
0000
,
0100
0000
0010
0003
,
0001
1000
0010
1000
0001
0000
0001
0000
,
0100
0001
1000
0010
2000
0000
0000
0000
,
3001
0000
0100
0010
0100
0010
0100
0000
,
0001
0000
1000
0100
1000
0000
1000
0001
,
1000
0001
0100
0010
0100
0020
0000
0000
,
0030
1000
0001
1000
0001
0010
0001
0000
,
0110
1100
0101
1001
,
1000
0001
1000
0010
0100
0010
0100
0001
,
0100
0000
0001
0000
1000
0000
0010
0000
0100
0000
0002
0000
0000
0003
0000
0000
,
1000
0001
1000
0100
1000
0000
2000
3000
,
0010
1000
0010
1000
0001
0100
0001
0100
,
0001
0100
0010
1000
0010
0100
0001
0000
,
1000
0001
0010
0100
0010
0200
0000
0000
,
0300
1000
0001
1000
0001
0100
0001
0000
,
0110
1010
0011
1001
,
1000
0001
1000
0100
0010
0100
0010
0001
,
0010
0000
0001
0000
1000
0000
0100
0000
0010
0000
0002
0000
0000
0003
0000
0000
,
1000
0001
0100
0010
1000
0000
2000
0000
,
0000
0000
0002
3003
,
1000
0010
0100
0001
0100
0020
1000
0030
,
1000
0010
0100
0010
0000
0100
0000
0010
,
1000
0010
0100
0010
0000
1000
0000
0000
,
0001
0100
0001
0010
0000
0001
0000
0000
,
1000
0100
1000
0001
0000
0100
0000
0000
,
0100
0001
1000
0010
0100
0001
1000
0010
,
0100
0001
1000
0010
0100
0000
0100
0000
,
0001
0100
0010
0100
0000
0010
0000
1000
,
0100
0010
0001
0010
0100
1000
0100
0000
,
0110
1001
0110
1001
,
1000
0200
0010
1300
,
0110
1001
0110
1001
,
0001
0020
0100
0031
,
0002
0100
0010
1003
,
2000
0100
0010
3100
,
0002
1000
0010
1003
,
0001
0010
0100
1000
0100
0010
0001
0000
,
2000
0001
0010
3002
,
1000
0010
2003
0001
,
0100
3002
1000
0010
,
0203
0010
0001
0320
,
1000
0000
0130
0000
0001
0100
0001
0000
,
1000
0100
1000
0000
0001
1000
0001
0000
,
0100
0001
0100
0000
0010
1000
0010
0000
,
0010
0100
0010
0000
1000
0100
1000
0000
,
0010
1000
0010
0000
1000
0001
1000
0000
,
0001
0010
0001
0000
0100
0001
0100
0000
,
0001
1000
0001
0000
2000
0000
0010
0000
,
0001
3020
0100
1000
,
0230
0001
0010
0302
,
1000
0010
1003
0001
,
2000
3020
0230
0002
,
0000
0000
0000
0000
,
0303
0000
0000
0000
;

//--------------- dance-single - RxSteps ----------------
#NOTES:
     dance-single:
     RxSteps:
     Medium:
     8:
     0,0,0,0,0:
0000
0000
0000
0000
,
0001
0000
0010
0000
0100
0000
0000
0010
0000
0000
0010
0000
0001
0000
0000
0000
,
1000
0000
0100
0000
0010
0000
0000
0100
0000
0000
0100
0000
1000
0000
0000
0000
,
0001
0000
1000
0000
0100
0000
0000
0010
0000
0000
0100
0000
1000
0000
0000
0000
,
0001
0000
0100
0000
0010
0000
0000
1000
0000
0000
0001
0000
0100
0000
0000
0000
,
0010
0000
0010
0000
1000
0000
0000
0100
0000
0000
0010
0000
0100
0000
0000
0000
,
1000
0000
1000
0000
0010
0000
0000
0100
0000
0000
0001
0000
0010
0000
0000
0000
,
0001
0000
0100
0000
0001
0000
0000
1000
0000
0000
0100
0000
0010
0000
0000
0000
,
0001
0000
0010
0000
0100
0000
0000
0100
0000
0000
0010
0000
0001
0000
0000
0000
,
1000
0000
0010
0000
0100
0000
0010
1000
0000
0000
1000
0000
0001
0000
0000
0000
,
0001
0000
0100
0000
0010
0000
1000
0010
0000
0000
0010
0000
0100
0000
0000
0000
,
0100
0000
0010
0000
1000
0000
0001
0100
0000
0000
0100
0000
0010
0000
0000
0000
,
1000
0000
0100
0000
0010
0000
0001
0010
0000
0000
0010
0000
0100
0000
0000
0000
,
1000
0000
0001
0000
1000
0000
0010
0100
0000
0000
0100
0000
0001
0000
0000
0000
,
0010
0000
0001
0000
0100
0000
0010
1000
0000
0000
1000
0000
0100
0000
0000
0000
,
0100
0000
1000
0000
0010
0000
0100
0001
0000
0000
0001
0000
0010
0000
0000
0000
,
0010
0000
0001
0000
1000
0000
0001
0010
0000
0000
0010
0000
0001
0000
0000
0000
,
1000
0010
1000
0010
0100
0001
0100
0001
,
1000
0100
1000
0100
0010
0001
0010
0001
,
0100
0010
0100
0010
1000
0001
1000
0001
,
0100
0010
0100
0001
1000
0010
0100
0001
,
1000
0010
0100
0010
1000
0010
0100
0001
,
0010
0000
0100
0000
0010
0000
0000
0001
0100
0000
0001
0000
0100
0000
0000
0000
,
0010
1000
0100
0010
0100
1000
0001
1000
,
0100
0000
1000
0000
0001
0000
0000
0100
0001
0000
0100
0000
0001
0000
0000
0000
,
0010
0001
1000
0010
0100
0001
0010
0000
,
0010
0001
1000
0100
1000
0010
0100
0000
,
0001
0000
0010
0000
0010
0000
0001
1000
0000
0000
1000
0000
0100
0010
0100
0000
,
1000
0000
1000
0000
0001
0010
0000
0010
0001
0000
1000
0000
0100
0000
0010
0000
,
0100
0010
0010
0001
0100
0001
0010
0000
,
0010
0100
1000
0100
0010
0100
1000
0000
,
0001
0000
0100
0000
0100
0000
0001
0010
0000
0000
0001
0000
1000
0010
1000
0000
,
0100
0000
0100
0000
1000
0010
0000
0010
0100
0000
0001
0000
0100
0000
0010
0000
,
0100
0001
0010
0100
1000
0001
0010
0000
,
0010
0001
1000
0001
0100
0010
1000
0000
,
0100
0000
0010
0000
0010
0000
0100
1000
0000
0000
1000
0000
0100
0010
0100
0000
,
1000
0000
1000
0000
0010
0100
0000
0100
0001
0000
0100
0000
0001
0000
0010
0000
,
0100
0010
0001
0001
0100
0010
1000
0001
,
0100
0010
1000
0100
0020
0000
0002
0000
,
0000
0000
0000
0000
,
0000
0000
0030
0000
0003
0000
1000
0001
,
0010
0100
0010
0002
0003
1000
0010
0100
,
0001
0010
0001
0020
0030
0001
0010
0100
,
0010
0001
0100
0020
0030
1000
0001
0100
,
0001
0010
0100
2000
3000
0010
0100
0001
,
1000
0010
0100
0001
1000
0100
0010
0100
,
1000
0001
0100
0001
1000
0010
0100
0010
,
1000
0000
0001
0000
0100
0000
0010
0000
0100
0000
0001
0000
2000
3000
0100
0000
,
0010
1000
0001
0010
0100
0001
1000
0000
,
0110
1001
0110
1001
,
0001
0100
0001
0100
0010
1000
0100
0010
,
0100
1000
0010
0100
0001
0010
0001
0100
,
0010
1000
0100
0010
0001
0100
0010
0100
,
0001
1000
0001
0100
0001
0010
0001
0100
,
0001
0010
0100
0010
0001
1000
0010
0100
,
0010
1000
0100
0010
0001
0010
0100
1000
,
0010
1000
0100
0010
0100
1000
0001
0100
,
0020
0000
0000
0000
0000
0000
0000
0000
0030
0000
1000
0010
1000
0000
0010
0000
,
0200
0000
0000
0000
0001
0000
0000
0000
0310
0000
0100
0010
0100
0000
0010
0000
,
2000
0000
0000
0000
0100
0000
0000
0000
3100
0000
1000
0100
1000
0000
0100
0000
,
1000
0010
0200
0001
0320
1000
0230
0010
,
0301
0000
1000
0000
0001
0000
0010
0000
0100
0000
1000
0100
1000
0000
0100
0000
,
1000
0000
0010
0000
0100
0000
0001
0000
1000
0000
0001
1000
0001
0000
1000
0000
,
0010
0100
0001
0100
0010
1000
0100
0100
,
1000
0010
0100
0001
1000
0001
0100
0010
,
1000
0010
0100
0010
1000
0100
0010
0000
,
0001
0010
0001
1000
0100
0010
0100
1000
,
0100
0000
1000
0000
1000
0000
0001
0100
0000
0000
0001
0000
0100
0010
0100
0000
,
0001
0000
0001
0000
0100
0010
0000
0010
0100
0000
0001
0000
0010
0000
0001
0000
,
1000
0001
0100
0100
0001
1000
0001
1000
,
0010
0010
0100
0001
0010
0000
0001
0000
,
0001
0000
0100
0000
0100
0000
0010
1000
0000
0000
0001
0000
0100
0001
0100
0000
,
0010
0000
1000
0000
0001
0010
0000
0010
0001
0000
1000
0000
0100
0000
0010
0000
,
0001
0100
0010
0010
0100
0010
2000
3000
,
0001
0010
0010
0001
2000
0000
0010
3000
,
1000
0000
0100
0000
0100
0000
1000
0100
0000
0000
0010
0000
0001
0010
0001
0000
,
1000
0000
1000
0000
0001
1000
0000
1000
0001
0000
1000
0000
0010
0000
0100
0000
,
0001
1000
0100
1000
0010
0100
0001
1000
,
0100
1000
0001
1000
0010
0100
0010
1000
,
0010
0000
1000
0000
1000
0000
0001
0100
0000
0000
0010
0000
1000
0010
1000
0000
,
0010
0100
0001
0100
0010
0000
1100
0000
,
0021
0130
1000
0100
0010
0100
2000
3000
,
0001
0100
0010
0100
0001
0100
0010
0000
,
1100
0000
0101
0000
0110
0000
1002
0013
,
0100
0010
0001
0010
0100
1000
0001
1000
,
0001
1000
0100
0010
0100
1000
0002
0003
,
0100
0010
0100
0001
0100
0010
0100
0001
,
0100
0010
0100
0010
1000
0100
0010
0100
,
2000
3000
0010
0000
0100
0000
1000
0000
0001
0000
0100
0000
0010
0000
0001
0000
,
1000
0001
1000
0001
1000
0100
0020
0030
,
0100
1000
0010
0100
0001
0010
0001
0000
,
0110
1001
0110
1001
,
1000
0001
1000
0001
0100
0010
1000
0100
,
0010
0100
1000
0001
0010
0001
1000
0000
,
0010
0100
0001
1000
0200
0000
0020
0000
,
0000
0030
0000
2000
0000
3000
0000
0310
,
0001
1000
0010
0100
0001
0010
0001
1000
,
0010
0100
0010
1000
0001
0010
0100
0000
,
0100
1000
0001
1000
0100
0000
1000
0000
,
0001
0000
1000
0000
1000
0000
0001
0010
0000
0000
0001
0000
0010
0100
0010
0000
,
0001
0000
0001
0000
0010
0100
0000
0100
0010
0000
0001
0000
0100
0000
0001
0000
,
1000
0010
0100
0001
1000
0001
1000
0000
,
0001
0001
0100
0100
0020
0000
1030
0000
,
0001
0000
1000
0000
1000
0000
0001
0010
0000
0000
0001
0000
1000
0010
1000
0000
,
0001
0000
0001
0000
1000
0010
0000
0010
1000
0000
0100
0000
0010
0000
0001
0000
,
0100
0010
1000
0001
0100
0010
1000
0000
,
0000
1000
0100
0010
0200
0000
1000
0000
,
0310
0001
0010
0000
0001
0010
0100
0000
,
1000
0010
0100
0000
0010
0100
0001
0000
,
1000
0001
0100
0001
1000
0010
1000
0010
,
0100
0001
0100
0010
0100
0001
0010
0100
,
0010
0001
1000
0001
0001
1000
1000
0010
,
0100
0010
1000
0001
0100
0000
0011
0000
,
1200
0310
0001
0010
0100
0010
0001
1000
,
0010
0100
0010
1000
0001
0100
0010
0000
,
0101
0000
1100
0000
0011
0000
1020
0130
,
0001
0010
0100
0010
0001
0100
0010
1000
,
0001
0100
0010
0100
0010
0100
0001
0000
,
1000
0100
0010
0001
1000
0100
1000
0010
,
1000
0100
0010
0100
1000
0010
0100
0010
,
2000
3000
0100
0000
0010
0000
1000
0000
0001
0000
0010
0000
0100
0000
0001
0000
,
1000
0001
1000
0001
0100
0010
1000
0000
,
1000
0001
0100
0010
0100
0001
1000
0000
,
0110
1001
0110
1001
,
0001
1000
0001
1000
0010
1000
0100
1000
,
0100
0010
0001
1000
0100
1000
0001
0000
,
0100
0010
1000
0100
0020
0000
0002
0000
,
0000
0003
0000
0200
0000
0300
0000
0130
,
1000
0001
0100
0010
1000
0100
1000
0001
,
0010
0100
0100
2000
0000
3010
0100
0001
,
0100
0010
0100
0002
0003
1000
0100
0010
,
0100
1000
0010
0200
0000
0310
1000
0010
,
1000
0100
0010
0002
0003
0010
0001
0010
,
0001
0010
0100
1000
0010
0100
0010
1000
,
0001
1000
0010
1000
0010
0000
0010
0100
,
0001
0000
1000
0000
0010
0000
0100
0000
0010
0000
1000
0000
0002
0003
0010
0000
,
0100
0001
1000
0100
0010
1000
0001
0000
,
0110
1001
0110
1001
,
1000
0001
1000
0001
0010
0001
0100
0010
,
1000
0001
0100
0010
1000
0100
1000
0010
,
0100
0001
0010
0100
1000
0010
0100
0010
,
1000
0100
0010
0001
1000
0010
0100
0010
,
1000
0100
0010
0100
1000
0001
0100
0010
,
0100
0001
0010
0100
1000
0010
0100
0001
,
2000
3000
0010
0000
0100
0000
1000
0000
0001
0000
0100
0000
0010
0000
0001
0000
,
2000
0001
0010
3200
,
0010
1000
0320
0001
,
0100
0032
1000
0010
,
0203
0010
0001
0320
,
1000
0000
0130
0000
0001
0010
0100
0000
,
1000
0100
0010
0000
0010
0001
0100
0000
,
0010
1000
0100
0000
0100
1000
0001
0000
,
0010
0100
0010
0000
0001
1000
0100
0000
,
0100
1000
0010
0000
0100
0010
1000
0000
,
0001
0010
0100
0000
0100
0010
0001
0000
,
1000
0001
0100
0000
0100
0001
0010
0000
,
0100
0010
0001
0000
0001
0010
0100
0010
,
0001
0100
0010
0100
0001
1000
0100
0010
,
0100
1000
0010
0100
0010
1000
0001
0010
,
0002
0203
0320
2000
,
0000
0000
0000
0000
,
3030
0000
0000
0000
;

//--------------- dance-single - RxSteps ----------------
#NOTES:
     dance-single:
     RxSteps:
     Hard:
     9:
     0,0,0,0,0:
0000
0000
0000
0000
,
0001
0000
0010
0000
0100
0000
0000
0010
0000
0000
0010
0000
0001
0000
0000
0000
,
1000
0000
0100
0000
0010
0000
0000
0100
0000
0000
0100
0000
1000
0000
0000
0000
,
0001
0000
1000
0000
0100
0000
0000
0010
0000
0000
0100
0000
1000
0000
0000
0000
,
0001
0000
0100
0000
0010
0000
0000
1000
0000
0000
0001
0000
0100
0000
0000
0000
,
0010
0000
0010
0000
1000
0000
0000
0200
0000
0300
0001
0000
0100
0000
0000
0000
,
1000
0000
1000
0000
0010
0000
0000
0200
0000
0000
1300
0000
0001
0000
0000
0000
,
0010
0000
0100
0000
0001
0000
0000
1000
0000
0000
0100
0000
0010
0000
0000
0000
,
0001
0000
0010
0000
0100
0000
0000
0100
0000
0000
0010
0000
0001
0000
0000
0000
,
1000
0000
0010
0000
0100
0000
0010
1000
0000
0000
1000
0000
0001
0000
0000
0000
,
0001
0000
0100
0000
0010
0000
1000
0010
0000
0000
0010
0000
0100
0000
0000
0000
,
0100
0000
0010
0000
1000
0000
0001
0100
0000
0000
0100
0000
0010
0000
0000
0000
,
1000
0000
0100
0000
0010
0000
0001
0010
0000
0000
0010
0000
0100
0000
0000
0000
,
1000
0000
0001
0000
1000
0000
0010
0100
0000
0000
0100
0000
0001
0000
0000
0000
,
0010
0000
0001
0000
0100
0000
0010
1000
0000
0000
1000
0000
0100
0000
0000
0000
,
0100
0000
1000
0000
0010
0000
0100
0001
0000
0000
0001
0000
0010
0000
0000
0000
,
0010
0000
0001
0000
1000
0000
0001
0010
0000
0000
0010
0000
0001
0000
0000
0000
,
1000
0010
1000
0010
0100
0001
0100
0001
,
1000
0100
1000
0100
0010
0001
0010
0001
,
0100
0010
0100
0010
1000
0001
1000
0001
,
0200
1300
0100
0001
0200
1300
0100
0001
,
1000
0010
0100
0010
1000
0010
0100
0001
,
0010
0000
0100
0000
0010
0000
0000
0001
0100
0000
0001
0000
0100
0000
0000
0000
,
0010
1000
0100
0010
0100
1000
0001
1000
,
0100
0000
1000
0000
0001
0000
0000
0200
1300
0000
0100
0000
0001
0000
0000
0000
,
0010
0001
1000
0010
0100
0001
0010
0000
,
0010
0001
1000
0100
1000
0010
0100
0000
,
0001
0000
0010
0000
0010
0000
0001
1000
0000
0000
1000
0000
0100
0010
0100
0000
,
1000
0000
1000
0000
0001
0010
0000
0010
0001
0000
1000
0000
0100
0000
0010
0000
,
0100
0010
0010
0001
0100
0001
0010
0000
,
0010
0100
1000
0200
0301
0100
1000
0000
,
0001
0000
0100
0000
0100
0000
0001
0010
0000
0000
0001
0000
1000
0010
1000
0000
,
0100
0000
0100
0000
1000
0010
0000
0010
0100
0000
0001
0000
0100
0000
0010
0000
,
0100
0001
0200
1300
0100
0001
0010
0000
,
0010
0001
1000
0001
0100
0010
1000
0000
,
0100
0000
0010
0000
0010
0000
0100
1000
0000
0000
1000
0000
0100
0010
0100
0000
,
1000
0000
1000
0000
0010
0100
0000
0100
0001
0000
0100
0000
0001
0000
0010
0000
,
0100
0010
0001
0001
0100
0010
1000
0001
,
0100
0010
1000
0100
0020
0000
0002
0000
,
0000
0000
0000
0000
,
0000
0000
0030
0000
0003
0000
1000
0001
,
0020
1030
0010
0002
0000
0203
1300
0001
,
0010
0100
0010
2000
3000
0001
0010
0100
,
0010
0001
0100
0020
0000
0031
1000
0100
,
0001
0010
0100
1000
0000
0200
0301
0100
,
1000
0010
0100
0001
0200
1300
0100
0001
,
1000
0100
0010
0100
1000
0020
0031
0010
,
1000
0000
0001
0000
0100
0000
0010
0000
0100
0000
0001
0000
2000
3000
0100
0000
,
0010
1000
0001
0010
0100
0001
1000
0000
,
0110
1001
0110
1001
,
0001
0100
0001
0100
0010
1000
0200
0301
,
0100
1000
0010
0100
0001
0010
0001
0100
,
0010
1000
0100
0010
0001
0100
0010
0100
,
0001
0200
1300
0100
0001
0200
1300
0100
,
0001
0010
0100
0010
0001
1000
0010
0100
,
0010
1000
0100
0010
0001
0200
1300
0001
,
0010
1000
0100
0010
0100
1000
0001
0100
,
0020
0000
0000
0000
0000
0000
0000
0000
0030
0000
1000
0001
1000
0000
0010
0000
,
0200
0000
0000
0000
0001
0000
0000
0000
0310
0000
0100
0001
1000
0000
0010
0000
,
2000
0000
0000
0000
0100
0000
0000
0000
3100
0000
0010
0001
0010
0000
0100
0000
,
1000
0010
0200
0001
0320
1000
0230
0010
,
0301
0000
1000
0000
0001
0000
0010
0000
0100
0000
1000
0100
1000
0000
0100
0000
,
1000
0000
0010
0000
0100
0000
0001
0000
1000
0000
0001
1000
0001
0000
1000
0000
,
0010
0100
0001
0100
0010
1000
0200
0301
,
1000
0010
0001
0200
1300
0001
0010
1000
,
0001
0010
0100
0010
0001
1000
0100
0000
,
0100
0010
0001
1000
0100
0010
0001
0010
,
0100
0000
1000
0000
1000
0000
0001
0100
0000
0000
0001
0000
0100
0010
0100
0000
,
0001
0000
0001
0000
0100
0010
0000
0010
0100
0000
0001
0000
0010
0000
0001
0000
,
1000
0001
0100
0100
0001
1000
0001
1000
,
0010
0010
0100
0001
0010
0000
0001
0000
,
0001
0000
0100
0000
0100
0000
0010
1000
0000
0000
0001
0000
0100
0001
0100
0000
,
0010
0000
1000
0000
0001
0010
0000
0010
0001
0000
1000
0000
0100
0000
0010
0000
,
0001
0100
0010
0010
0100
0010
2000
3000
,
0001
0010
0010
0001
2000
0000
0010
3000
,
1000
0000
0100
0000
0100
0000
1000
0100
0000
0000
0010
0000
0001
0010
0001
0000
,
1000
0000
1000
0000
0001
1000
0000
1000
0001
0000
1000
0000
0010
0000
0100
0000
,
0001
1000
0100
1000
0010
0100
0001
0020
,
1030
0001
0100
1000
0020
0031
0010
1000
,
0010
0000
1000
0000
1000
0000
0001
0100
0000
0000
0010
0000
1000
0010
1000
0000
,
0010
0100
0001
0100
0010
0000
1100
0000
,
0021
0130
1000
0100
0010
0100
2000
3000
,
0001
0100
0010
0100
0001
0100
0010
0000
,
1100
0000
0101
0000
0110
0000
1002
0023
,
1030
0010
0001
0200
1300
0100
0001
0010
,
0100
1000
0100
0010
0100
1000
0200
0000
,
0301
1000
0010
0001
0200
1300
0200
0301
,
0200
1300
0100
0010
1000
0200
0301
0100
,
2000
3000
0010
0000
0100
0000
1000
0000
0001
0000
0100
0000
0010
0000
0001
0000
,
1000
0001
1000
0001
1000
0100
0020
0030
,
0100
1000
0010
0100
0001
0010
0001
0000
,
0110
1001
0110
1001
,
1000
0001
1000
0001
0100
0010
1000
0100
,
0010
0100
1000
0001
0010
0001
1000
0000
,
0010
0100
0001
0020
2030
0000
0002
0000
,
3000
0000
0000
0200
0003
0000
0000
0310
,
0001
1000
0010
0100
0001
0010
0001
1000
,
0010
0100
0010
1000
0001
0010
0100
0000
,
0100
1000
0020
0031
1000
0000
0100
0000
,
0001
0000
1000
0000
1000
0000
0001
0010
0000
0000
0001
0000
0010
0100
0010
0000
,
0001
0000
0001
0000
0010
0100
0000
0100
0010
0000
0001
0000
0100
0000
0001
0000
,
1000
0010
0100
0001
0020
1030
0020
0000
,
0031
0001
0100
0100
0020
0000
1030
0000
,
0001
0000
1000
0000
1000
0000
0001
0010
0000
0000
0001
0000
1000
0010
1000
0000
,
0001
0000
0001
0000
1000
0010
0000
0010
1000
0000
0100
0000
0010
0000
0001
0000
,
0100
0010
1000
0001
0100
0010
1000
0000
,
0000
1000
0100
0010
0200
0000
1000
0000
,
0310
0001
0010
0000
0001
0010
0100
0000
,
1000
0010
0100
0000
0010
0100
0001
0000
,
1000
0001
0100
0001
1000
0010
1000
0010
,
0100
0001
0020
1030
0010
0001
0010
0100
,
0010
0001
1000
0001
0001
1000
1000
0010
,
0100
0020
0031
1000
0100
0000
0011
0000
,
1200
0310
0001
0020
1030
0010
0001
1000
,
0010
0100
0010
1000
0001
0100
0010
0000
,
0101
0000
1100
0000
0011
0000
1020
0130
,
0001
0010
0100
0010
0001
0100
0010
1000
,
0001
0100
0010
0100
0010
0100
0001
0000
,
1000
0020
0031
1000
0200
0000
0310
0000
,
1000
0100
0010
0100
1000
0010
0100
0010
,
2000
3000
0100
0000
0010
0000
1000
0000
0001
0000
0010
0000
0100
0000
0001
0000
,
1000
0001
1000
0001
0100
0010
1000
0000
,
1000
0001
0100
0010
0100
0001
1000
0000
,
0110
1001
0110
1001
,
0001
1000
0001
1000
0010
1000
0100
1000
,
0100
0010
0001
1000
0100
1000
0001
0000
,
0100
0010
1000
0200
0302
0000
2000
0000
,
0003
0000
0000
0020
3000
0000
0000
0130
,
1000
0001
0100
0010
1000
0100
1000
0001
,
0010
0100
0100
2000
0000
3020
0031
1000
,
0100
0010
0100
0002
0003
1000
0100
0010
,
0100
1000
0010
0200
0000
1300
0001
0010
,
1000
0100
0010
0001
0000
0020
1030
0010
,
0001
0010
0100
1000
0020
0031
0010
1000
,
0200
0301
0100
1000
0010
0000
0010
0100
,
0001
0000
1000
0000
0010
0000
0100
0000
0010
0000
1000
0000
0002
0003
0010
0000
,
0100
0001
1000
0100
0010
1000
0001
0000
,
0110
1001
0110
1001
,
1000
0001
1000
0001
0010
0001
0100
0010
,
1000
0001
0100
0010
1000
0100
1000
0010
,
0100
0001
0010
0100
1000
0010
0100
0010
,
1000
0020
0031
0010
1000
0020
0031
0010
,
1000
0100
0010
0100
1000
0001
0100
0010
,
0100
0001
0010
0100
1000
0010
0100
0001
,
2000
3000
0010
0000
0100
0000
1000
0000
0001
0000
0100
0000
0010
0000
0001
0000
,
2000
0001
0010
3200
,
0010
1000
0320
0001
,
0100
0032
1000
0010
,
0203
0010
0001
0320
,
1000
0000
0130
0000
0001
0010
0100
0000
,
1000
0100
0010
0000
0010
0001
0100
0000
,
0010
1000
0100
0000
0100
1000
0001
0000
,
0010
0100
0010
0000
0001
1000
0100
0000
,
0100
1000
0010
0000
0100
0010
1000
0000
,
0001
0200
1300
0000
0100
0010
2000
0000
,
3200
0301
0100
0000
1000
0010
0100
0000
,
0100
0010
1000
0000
0001
0010
0100
0010
,
0001
0100
0010
0100
0001
1000
0100
0010
,
0100
1000
0010
0100
0010
1000
0001
0010
,
0002
0203
0320
0002
,
0000
0000
0000
0000
,
0033
0000
0000
0000
;
