#TITLE:FRENCH DREAM;
#SUBTITLE:;
#ARTIST:LSZEE (CloZee and LSDREAM);
#TITLETRANSLIT:;
#SUBTITLETRANSLIT:;
#ARTISTTRANSLIT:;
#GENRE:;
#CREDIT:RxSteps;
#MUSIC:FRENCH DREAM.ogg;
#BANNER:FRENCH DREAM.png;
#BACKGROUND:FRENCH DREAM-bg.png;
#CDTITLE:cdtitle.png;
#SAMPLESTART:114.695;
#SAMPLELENGTH:26.667;
#SELECTABLE:YES;
#OFFSET:2.638;
#BPMS:0.000=90.000;
#STOPS:;
#BGCHANGES:;
#FGCHANGES:;

//--------------- dance-single - RxSteps ----------------
#NOTES:
     dance-single:
     RxSteps:
     Beginner:
     3:
     0,0,0,0,0:
0000
0000
0000
0000
,
1000
0000
0100
0000
,
0010
0000
0100
0000
,
1000
0010
1000
0010
,
0010
1000
0010
1000
,
0200
0000
0300
0000
,
2000
3000
0001
0010
,
0001
0000
0001
0000
0000
0100
0000
0000
,
0010
0000
0100
0000
,
0010
0000
1000
0000
0001
0000
0000
0100
,
0000
0000
0010
1000
,
0001
0000
0100
0000
0000
0001
0000
0000
,
1000
0010
0000
0000
,
1001
0000
1000
0010
,
0100
0100
0001
0001
,
1000
1000
0001
0000
,
0100
0001
0100
0001
,
2000
0000
3000
0000
,
0010
1000
0001
0001
,
1000
0100
1000
0000
,
0001
0001
0100
0100
,
0001
0010
0100
1000
,
0100
0010
0001
0100
,
0020
0000
0000
0030
,
1000
0001
1000
0020
,
0000
0030
0000
0000
,
0100
0001
0001
0010
,
0010
0001
1000
0000
,
0010
0010
0100
0100
,
0001
0000
1000
0000
,
0010
0010
0100
0001
,
1000
1000
0010
0000
,
1000
0001
0001
0000
,
0100
0100
0100
0000
,
1001
0000
0001
0100
,
0010
0010
1000
0010
,
0100
0100
0001
0100
,
0010
0000
0000
1000
0000
0000
0001
0000
,
0100
0100
0001
0010
,
0010
0000
1000
1000
,
0001
1000
0000
0010
,
0020
0000
0030
0000
,
1000
0001
1000
0001
,
2000
0000
3000
0000
,
0110
0000
1000
0001
,
0010
0010
0001
0100
,
0100
0001
1000
0100
,
1000
0000
0000
0001
0000
0000
0100
0000
,
0100
0010
1000
0000
,
0010
0010
1000
0001
,
1000
0000
0000
0010
0000
0000
0010
0000
,
0100
0000
0000
0001
0000
0000
0000
0000
,
1000
0100
0010
0001
,
1000
1000
0001
0001
,
0100
0000
0010
0000
,
0010
0010
0010
1000
,
0001
0010
0100
1000
,
0100
1000
0010
0100
,
0001
0100
0100
0001
,
1000
0000
0000
0100
0000
0000
0010
0000
,
0002
0000
0003
0000
,
2000
0000
3000
0000
,
0020
0000
0000
0000
,
0000
0000
0030
0000
,
2000
3000
0000
0001
,
0200
0000
0000
0300
0000
0000
0002
0000
,
0000
0003
0000
0000
0000
1000
0000
0000
,
0100
0000
1000
0000
,
1001
0000
0001
0000
,
0100
0100
0010
1000
,
0001
0001
0001
0000
,
0100
0100
0100
0001
,
1000
0100
0010
0001
,
0010
0100
1000
1000
,
0001
0000
0100
0000
,
0010
1000
0001
0000
,
1010
0000
1000
0010
,
0010
1000
0001
0000
,
0100
0001
0010
0010
,
0001
1000
0100
0100
,
1000
0010
0100
0100
,
0001
1000
0010
0000
,
1000
0002
0000
0003
,
1000
1000
1000
0010
,
1000
0001
0100
0010
,
0010
1000
0100
1000
,
1000
0001
0100
0100
,
0010
1000
0001
0100
,
0100
0010
1000
0001
,
0001
0100
0100
0010
,
0200
0000
0300
0000
,
0001
1000
0010
0100
,
0001
0001
1000
0020
,
0030
0000
0000
0000
;

//--------------- dance-single - RxSteps ----------------
#NOTES:
     dance-single:
     RxSteps:
     Easy:
     6:
     0,0,0,0,0:
0000
0000
0000
0000
,
2000
0000
3200
0000
,
0320
0000
0230
0000
,
1300
0100
0010
0001
1000
0100
0010
0001
,
0010
0100
1000
0001
0010
0100
1000
0001
,
0200
0000
0010
0000
0001
0000
0310
0100
,
0001
0100
0010
1000
0100
0010
0100
0010
,
0001
0100
0001
0100
0010
1000
0100
0010
,
0010
0100
1000
0001
0200
0000
0320
0000
,
1030
0010
1000
0010
0100
0001
0100
0010
,
0010
0100
0001
1000
0020
0000
0230
0000
,
0301
0010
0100
1000
0001
1000
0010
1000
,
0001
0020
0002
0000
0000
0000
0033
0000
,
1001
0000
1000
0010
1000
0100
0010
0100
,
0010
0100
1000
0010
0100
0001
0200
0000
,
0310
0010
1000
1000
0001
0001
0100
0010
,
1000
0100
1000
0100
1000
0001
0010
0001
,
2000
0000
0010
0000
3100
0000
0001
1000
,
0001
0100
0010
1000
0100
1000
0002
0000
,
1003
1000
0010
0010
0100
0100
0010
1000
,
0010
0100
0010
0010
1000
1000
0001
0000
,
0002
2003
3020
0230
,
0302
0023
0230
2300
,
0002
0000
0000
3003
,
1000
0001
1000
0001
0100
0020
2000
0000
,
0000
0000
3030
0110
,
0001
0000
0000
0000
0000
0000
0100
0000
0000
0000
0000
0001
1000
0000
0000
0000
0000
0000
0001
0000
0000
0000
0000
0000
,
1000
0000
0000
1000
0000
0000
0010
0000
0000
0000
0000
1000
0001
0000
0000
0100
0000
0000
0010
0000
0000
0100
0000
0000
,
0001
0000
0000
0000
0000
0000
0010
0000
0000
0000
0000
0001
1000
0000
0000
0000
0000
0000
0010
0000
0000
0000
0000
0000
,
0100
0000
0000
0010
0000
0000
0100
0000
0000
0001
0000
0100
0000
0000
0000
0000
0000
0000
0100
0000
0000
0001
0000
0000
,
0100
0000
0000
0000
0000
0000
0010
0000
0000
0000
0000
1000
0010
0000
0000
0000
0000
0000
0100
0000
0000
0000
0000
0000
,
0001
0000
0000
1000
0000
0000
0100
0000
0000
0000
0000
1000
0010
0000
0000
1000
0000
0000
0001
0000
0000
0100
0000
0000
,
0020
0000
1030
0010
0100
0000
0100
0010
,
2000
0020
0000
0000
0000
0000
0000
0000
0000
0000
0000
0000
3030
0000
0000
0000
0000
0000
0001
0000
0000
0000
0000
0000
,
1100
0002
0100
0010
,
1003
0001
2000
0000
0010
0000
0001
0000
,
3100
1000
0200
0000
0010
0000
1000
0000
,
1300
0200
0000
0310
0002
0003
0100
0010
,
0200
0001
0010
0301
,
0001
0100
0002
0000
1000
0000
0010
0000
,
0203
0000
0301
0100
0010
0000
0010
1000
,
0020
2000
0000
0000
0000
0000
0000
0000
0000
0000
0000
0000
0000
0000
0000
0000
0000
0000
3030
0000
0000
0000
0000
0000
,
0001
0100
0001
0001
1000
0010
1000
1000
,
0001
0200
0000
0300
0001
0100
0001
0100
,
0002
0000
0000
0000
0000
0000
1003
0000
0000
0000
0000
0010
1000
0000
0000
0010
0000
0000
1000
0000
0000
0000
0000
0000
,
0101
0000
0001
0100
0010
0100
0020
0000
,
1030
0000
0000
0000
0000
0000
0001
0000
0000
1000
0000
0001
1000
0000
0000
0010
0000
0000
0100
0000
0000
0000
0000
0000
,
0001
1000
0000
0100
0010
0000
0001
0100
,
0020
0000
1030
0010
1000
0001
0100
0100
,
0001
0010
0100
0010
0100
1000
0002
0000
,
0200
0303
0000
1100
0000
0001
1000
0010
,
0100
0001
0000
0010
0100
2000
0000
0000
,
3002
0000
1003
0001
0100
0100
0010
0000
,
0011
0000
0001
1000
0100
0100
2000
0000
,
3020
0000
0230
0300
,
1001
0000
0110
0000
0021
0030
0100
1000
,
0200
0000
1300
0100
0010
0100
0010
0000
,
1001
0000
0001
0100
0010
0010
1000
0000
,
0001
1000
0010
1000
0010
0100
0100
0000
,
0001
1000
0000
0010
0100
0000
0000
0000
,
0001
0000
0000
0010
0000
0000
0100
0000
0000
1000
0000
0000
0010
0000
0000
0100
,
0000
0000
0010
0000
0000
1000
0000
0000
0001
0000
0000
0100
0000
0000
0010
0000
,
2000
0000
3002
0000
,
0203
0000
0000
0000
0320
0000
0000
2030
,
0000
0000
0000
0000
3000
0000
0001
1000
,
0002
0000
0000
0000
0000
0003
0100
0020
,
0000
0000
0000
0000
0030
0010
0100
0001
,
2000
0000
0000
3000
0001
0100
0010
1000
,
0100
1000
0100
1000
0001
0100
0001
0100
,
0020
2030
3002
0203
,
0310
0100
0010
0100
0001
1000
0001
1000
,
0020
2030
3200
0320
,
0031
0010
0001
0100
0010
1000
0100
1000
,
0002
0203
0302
0023
,
0031
0010
0100
1000
0100
0010
0001
1000
,
0001
0100
0010
1001
,
0110
0000
0000
0000
0000
0000
0001
0000
0000
0000
0000
1000
0100
0000
0000
1000
0000
0000
0100
0000
0000
0000
0000
0000
,
0010
0000
0000
0001
0000
0000
0010
0000
0000
0000
0000
0001
0010
0000
0000
0001
0000
0000
0100
0000
0000
0010
0000
0000
,
0200
0000
0000
0000
0000
0000
0301
0000
0000
0000
0000
1000
0001
0000
0000
1000
0000
0000
0010
0000
0000
0000
0000
0000
,
0100
0000
0000
0010
0000
0000
0100
0000
0000
0000
0000
0001
0100
0000
0000
0010
0000
0000
1000
0000
0000
0000
0000
0000
,
0011
0000
0000
0000
0000
0000
0001
0000
0000
0000
0000
1000
0010
0000
0000
1000
0000
0000
0100
0000
0000
0000
0000
0000
,
1000
0000
0000
0010
0000
0000
0100
0000
0000
0000
0000
0001
0100
0000
0000
0001
0000
0000
1000
0000
0000
0100
0000
0000
,
0100
0000
1001
0000
0000
0001
1000
0000
,
0110
1100
0011
1000
,
0001
0001
0100
0100
0010
0010
2000
0000
,
3001
1000
0001
0001
0010
0010
0100
1000
,
0100
0000
0000
0000
0000
0000
1000
0000
0000
0000
0000
0100
1000
0000
0000
0100
0000
0000
0010
0000
0000
0000
0000
0000
,
0010
0001
0010
0000
0100
0000
1000
0010
,
0200
0000
0000
0000
0000
0000
0301
0000
0000
0000
0000
0010
0001
0000
0000
0010
0000
0000
0001
0000
0000
0000
0000
0000
,
1000
0000
0000
0010
0000
0000
0100
0000
0000
0000
0000
0010
1000
0000
0000
0010
0000
0000
1000
0000
0000
1000
0000
0000
,
0020
0000
0000
0030
,
0100
0001
0010
0100
1000
0010
0100
0001
,
1000
0000
0010
0000
1000
0000
0100
0000
1000
0000
0000
0000
0001
0000
0000
0100
;

//--------------- dance-single - RxSteps ----------------
#NOTES:
     dance-single:
     RxSteps:
     Medium:
     8:
     0,0,0,0,0:
0000
0000
0000
0000
,
2000
0000
0200
3000
,
0020
0300
0200
0030
,
0310
0001
0020
0100
0031
0010
0100
1000
,
0200
0010
1300
0100
0010
0001
0100
0020
,
1000
1000
1000
2030
0100
0100
3100
1000
,
0001
0000
0200
0000
0010
0000
0310
0000
1000
0010
1000
0000
0010
0100
0020
0000
,
0100
0000
0100
0000
0100
0000
0130
0000
0001
0000
1000
0001
1000
0000
0010
0000
,
0100
0001
0200
0000
0010
0000
0310
0000
1000
0000
0100
0000
0010
0000
0001
0000
,
0002
0000
0010
0000
0010
0000
0010
0000
0013
0000
0001
0000
0100
0000
0010
1000
,
0010
0000
0200
0000
0010
0000
0310
0000
1000
0010
1000
0000
0010
0100
0010
0000
,
0100
0000
0001
0000
0010
0000
0001
0000
0100
0000
0010
0100
0010
0000
1000
0000
,
0001
0010
0002
0000
0000
0000
0000
0000
0003
0000
0000
1000
0100
0000
0010
0000
,
0001
0000
0100
0000
0010
0000
0100
0000
0001
0000
1000
0000
0100
1000
0100
0000
,
1000
0000
0000
0001
0000
0000
1000
0000
0000
0000
0000
0000
0010
0000
0000
0000
0000
0000
0100
0000
0000
0000
0010
0000
1000
0000
0000
0000
0000
0000
0100
0000
0000
0000
0000
0000
2200
0000
0000
3300
0000
0000
0000
0000
0000
0000
0002
0000
,
0103
0000
0000
0100
0000
0000
0001
0000
0000
0010
0000
0001
0010
0000
0000
0100
0000
0000
1000
0000
0000
0001
0000
0000
,
0100
0000
0000
0001
0000
0000
0100
0000
0000
0000
0000
0000
0010
0000
0000
0000
0000
0000
0100
0000
0000
0000
0010
0000
1000
0000
0000
0000
0000
0000
1000
0000
0000
0000
0000
0000
0001
0000
0000
0000
0000
0000
0100
0000
0000
0010
0000
0000
,
0200
0000
0000
0000
0000
0000
0010
0000
0000
0000
0000
0000
0310
0000
0000
0000
0000
0000
0100
0000
0000
0000
0001
0000
1000
0000
0000
0000
0000
0000
0010
0000
0000
0000
0000
0000
0100
0000
0000
0000
0000
0000
0001
0000
0000
1000
0000
0000
,
0001
0000
0000
0100
0000
0000
0010
0000
0000
1000
0000
0010
1000
0000
0000
0010
0000
0000
0200
0000
0000
0300
0000
0000
,
0011
0000
0000
1010
0000
0000
0021
0000
0000
0030
0000
0001
0010
0000
0000
0001
0000
0000
0010
0000
0000
0100
0000
0000
,
1000
0000
0000
0010
0000
0000
1000
0000
0000
0000
0000
0000
0010
0000
0000
0000
0000
0000
0100
0000
0000
0000
0001
0000
0100
0000
0000
0000
0000
0000
0010
0000
0000
0000
0100
0000
0010
0000
0000
0000
0000
0000
1000
0000
0000
0000
0000
0000
,
2200
3300
0022
0033
2002
3003
2020
3030
,
0202
0303
2020
3030
1000
0001
0010
0100
,
1000
0001
0100
0010
0100
0001
1000
0100
,
2000
3000
0010
0000
0100
0000
1000
0000
0001
0000
0100
0000
0010
0000
0001
0000
,
2000
0000
0000
0000
0000
0000
0000
0000
3000
0000
0000
0000
1000
0010
0000
0000
,
1000
0000
0000
0100
0000
0000
0010
0000
0000
0100
0000
1000
0100
0000
0000
0010
0000
0000
0100
0000
0000
1000
0000
0000
,
0100
0000
0000
0010
0000
0000
0001
0000
0000
0010
0000
0001
0020
0000
0000
0100
0000
0000
0001
0000
0000
0130
0000
0000
,
0001
0000
0000
1000
0000
0000
0001
0000
0000
0100
0000
0001
0100
0000
0000
0010
0000
0000
1000
0000
0000
1000
0000
0000
,
0011
0000
0000
0001
0000
0000
0100
0000
0000
0010
0000
2000
0000
0000
0000
0000
0000
3000
0001
0000
1000
0001
0000
1000
,
0001
0000
0000
0000
0000
0000
1000
0000
0000
0000
0000
0000
0010
0000
0000
0000
0000
0000
0100
0000
0000
0000
0010
0000
1000
0000
0000
0000
0000
0000
0100
0000
0000
1000
0000
0000
0100
0000
0000
0000
0000
0000
0010
0000
0000
0000
0000
0000
,
0001
0000
0000
0000
0000
0000
1000
0000
0000
0000
0000
0000
0001
0000
0000
0000
0000
0000
0100
0000
0000
0000
0001
0000
0100
0000
0000
0000
0000
0000
0010
0000
0000
1000
0000
0000
0010
0000
0000
1000
0000
0000
0010
0000
0000
1000
0000
0000
,
0002
0003
0110
1000
0020
0000
0130
1001
,
1000
0020
0000
0000
0100
0000
0000
0000
1030
0000
0000
0000
0110
0000
0000
0000
,
1001
0000
0000
0000
0000
0000
0001
0000
0000
0000
1000
0000
0001
0000
0000
0000
0000
0000
1000
0000
0000
0000
0010
0000
1000
0000
0000
0000
0000
0000
0001
0000
0000
0100
0000
0000
0001
0000
0000
0000
0000
0000
1000
0000
0000
0000
0000
0000
,
0200
0000
0000
0010
0000
0000
1300
0000
0000
0000
0000
1000
0010
0000
0000
0000
0000
0010
1000
0000
0000
0100
0000
0000
,
0010
0000
0001
0010
0000
0000
0001
0000
0000
0100
0000
0010
1000
0000
0000
0100
0000
0000
1000
0000
0000
0200
0000
0000
,
0010
0000
0000
0000
0000
0000
1300
0000
0000
0000
0000
0000
0000
0000
0000
0000
0001
0000
0100
0000
0000
0000
0000
0000
0010
0000
0000
0000
0000
0000
1000
0000
0000
0000
0000
0000
0001
0000
0000
1000
0000
0000
0001
0000
0000
0000
0000
0000
,
1000
0200
0010
1000
0010
1300
0001
0010
,
0100
0000
0000
1000
0000
0000
0100
0000
0000
1000
0000
0000
0100
0000
0000
0000
0000
0000
0000
0000
0000
0000
1000
0000
0001
0000
0000
0000
0000
0000
0100
0000
0000
0000
0000
0000
0100
0000
0000
0000
0000
0000
0010
0000
0000
0000
0000
0000
,
2000
0000
0000
3000
0000
0000
0101
0000
0000
0110
0000
0000
1200
0000
0000
0000
0000
0310
0000
0000
0000
0001
0000
0000
,
0200
0020
0000
0000
0000
0000
0000
0000
0000
0330
0000
0000
,
0021
0000
0000
0130
0000
0000
1000
0000
0000
0010
0000
0100
0010
0000
0000
1000
0000
0000
0001
0000
0000
0100
0000
0010
,
0100
0000
0001
0000
0000
0000
0000
0000
0100
0001
0100
0001
0100
0001
0100
0001
,
1000
0000
0000
0200
0000
0000
0010
0000
0000
1300
0000
0000
0001
0000
0000
0100
0000
0000
0010
0000
0000
0100
0000
0010
,
1000
0000
0010
0000
0000
0010
1000
0000
0000
0001
0000
1000
0001
0000
0000
0100
0000
0010
0100
0000
0000
0010
0000
1000
,
0010
0000
0000
0000
0000
0000
0011
0000
0000
0001
0000
0010
0001
0000
0000
0100
0000
0000
0001
0000
0000
2000
0000
0000
,
0010
0000
0000
0000
0000
0000
3001
0000
0000
0000
0000
0000
0000
0000
0000
0000
0100
0000
0001
0000
0000
0000
0000
0000
0010
0000
0000
0000
0000
0000
0100
0000
0000
0000
0000
0000
1000
0000
0000
0000
0100
0000
1000
0000
0000
0100
0000
0000
,
1000
0000
0000
0000
0000
0000
0101
0000
0000
0001
0000
1000
0001
0000
0000
0100
0000
0000
1100
0000
0000
0000
0000
1000
,
0010
0000
0000
0000
1000
0000
0000
0000
0000
0000
0001
0000
0100
0000
0000
0000
0000
0000
0001
0000
0000
0000
1000
0000
0001
0000
0000
0000
0000
0000
0010
0000
0000
0000
0000
0000
0100
0000
0000
1000
0000
0000
0100
0000
0000
0000
0000
0000
,
2000
0000
0000
0000
0000
0000
0000
0000
0000
3000
0000
0000
0000
0000
0000
0000
1000
0000
0010
0000
0000
0000
0100
0000
0000
0000
0000
0000
0000
0000
0100
0000
0000
0000
0010
0000
1000
0000
0000
0000
0000
0000
0020
0000
0000
0000
0000
0000
,
0100
0000
0000
0000
0000
0000
1030
0000
0000
0000
0000
0000
0000
0000
0000
0000
0001
0000
0100
0000
0000
0000
0000
0000
0010
0000
0000
0000
0000
0000
1000
0000
0000
0010
0000
0000
1000
0000
0000
0000
0000
0000
0010
0000
0000
0000
0000
0000
,
0200
0000
0000
0300
0000
0000
1001
0000
0000
1000
0000
0001
0200
0000
0000
0010
0000
0000
0301
0000
0000
0100
0000
0000
,
0010
0000
0100
0000
0000
0100
0010
0000
0000
1000
0000
0000
0100
0000
0000
0010
0000
0000
0001
0000
0000
0100
0000
0010
,
0200
0000
0000
0000
0000
0000
0300
0000
0001
2000
0000
0000
3000
0000
0000
0000
,
2002
3003
0220
0330
0202
0303
1001
0110
,
1200
0000
0000
0310
0000
0000
0001
0000
0000
0010
0000
0001
0010
0000
0000
0001
0000
0000
1000
0000
0000
0010
0000
1000
,
0000
0000
0100
0000
0000
0100
1000
0000
0000
0001
0000
0100
0001
0000
0000
1000
0000
0000
0100
0000
0000
0010
0000
0001
,
0010
0000
0000
0200
0000
0000
1000
0000
0000
0310
0000
0001
0010
0000
0000
0100
0000
0000
0020
0000
0000
0000
0000
0000
,
0001
0000
0000
0130
0000
0000
0000
0000
0001
1000
0000
0000
0100
0000
0000
1000
0000
0000
0010
0000
0000
0100
0000
0000
,
0002
0000
0000
0100
0000
0000
2003
0000
0000
0010
0000
0000
3002
0000
0000
0100
,
0000
0000
0023
0000
0000
0100
0000
0000
0032
0000
0000
1000
0000
0000
0103
0000
,
0000
0001
0010
0100
1000
0100
1000
0001
,
0010
0000
0001
0000
1000
0000
0010
0000
0200
0000
0000
0000
0300
0000
0010
1000
,
0020
0000
0000
0000
0030
0000
1000
0001
,
0100
0001
0200
0000
0000
0000
0000
0000
0000
0000
0300
0000
0100
0000
0002
0000
,
0000
0000
0000
0000
0000
0000
0000
0000
0003
0000
1000
0001
1000
0001
1000
0000
,
0001
0200
0000
0300
0001
0010
0100
0000
,
1001
0000
0001
0100
0100
0010
1000
0001
,
0001
0100
0010
0000
0000
0010
0200
0000
0001
0000
0001
0000
0010
0000
0310
0000
,
1000
0010
0000
0000
1000
0001
0000
1000
0200
0000
0010
0000
2300
0000
3000
0000
,
0001
1000
0001
0000
1000
0001
1000
0000
0020
0000
0100
0000
1030
0000
0001
0000
,
0100
0001
0010
0100
0010
0001
1000
0100
,
0010
0001
0010
0000
0001
1000
0002
0000
0100
0000
1000
0000
0103
0000
0001
0000
,
0010
0100
1000
0010
0100
0001
0010
0100
,
1000
0000
0000
0000
0000
0000
0000
0000
0000
0000
0000
0000
0110
0000
0000
0000
0000
0000
0000
0000
0000
0000
0000
0000
0201
0000
0000
0300
0000
0000
0000
0000
0000
0010
0000
0000
1000
0000
0000
0000
0000
0000
0000
0000
0000
0000
0001
0000
,
1000
0000
0000
0001
0000
0000
0100
0000
0000
0001
0000
1000
0001
0000
0000
1000
0000
0000
0010
0000
0000
0100
0000
0000
,
0010
0000
0000
1000
0000
0000
0100
0000
0000
0010
0000
0001
0010
0000
0000
0002
0000
0000
0010
0000
0000
1000
0000
0000
,
0020
0000
0000
0033
0000
0000
1010
0000
0000
0000
0000
1000
0010
0000
0000
1000
0000
0000
0001
0000
0000
0100
0000
0000
,
0010
0000
0000
1000
0000
0000
0100
0000
0000
0010
0000
0100
1000
0000
0000
0100
0000
0000
0020
0000
0000
0030
0000
0000
,
0001
0100
0000
0000
0000
0000
0001
0000
0000
0100
0000
0010
0100
0000
0000
0001
0000
0000
0010
0000
0000
0001
0000
0000
,
0100
0000
0000
0010
0000
0000
1000
0000
0000
0100
0000
0010
0001
0000
0000
0020
0000
0000
0100
0000
0000
0031
0000
0000
,
2000
3000
0110
0000
1000
0001
0100
0010
,
2020
3030
0022
0033
0220
0330
0001
0000
,
1200
0000
0000
0310
0000
0000
0001
0000
0000
1000
0000
0010
1000
0000
0000
0020
0000
0000
2000
0000
0000
3030
0000
0000
,
0021
0000
0000
0030
0000
0000
0200
0000
0000
1300
0000
0100
1000
0000
0000
0001
0000
0000
0100
0000
0000
0100
0000
0000
,
1100
0000
0000
0000
0000
0001
0100
0000
0000
0000
0000
0001
1000
0000
0000
0200
0000
0000
0020
0000
0000
0030
0000
0000
,
1300
0000
0001
0000
0100
0000
0010
0000
0100
0000
0001
0000
1000
0001
1000
0001
,
2000
0000
3000
0000
0110
0000
0000
0001
0100
0000
0100
0000
0020
0000
0030
0000
,
1200
0000
0000
0000
0000
0000
0010
0000
0000
0000
0000
0000
1300
0000
0000
0000
0000
0000
0100
0000
0000
0000
0010
0000
0100
0000
0000
0000
0000
0000
1000
0000
0000
0000
0000
0000
0001
0000
0000
1000
0000
0000
0001
0000
0000
1000
0000
0000
,
0002
0100
0100
0100
0100
0100
0103
0100
,
0001
0010
0001
0100
0010
1000
0100
1000
,
0010
0000
0200
0000
0001
0000
0010
0000
0302
0000
0003
0000
0001
1000
0001
1000
;

//--------------- dance-single - RxSteps ----------------
#NOTES:
     dance-single:
     RxSteps:
     Hard:
     9:
     0,0,0,0,0:
0000
0000
0000
0000
,
2000
0000
0200
3000
,
0020
0300
0200
0030
,
0310
0001
0020
0100
0031
0010
0100
1000
,
0200
0010
1300
0100
0010
0001
0100
0020
,
1000
0000
1000
0000
1000
0000
2030
0000
0100
0000
0100
0000
3100
0000
1000
0001
,
0100
0010
0100
0002
0010
0000
0013
0000
0001
0010
0100
1000
0010
0100
0001
0020
,
0100
0000
0100
0000
0100
0000
0130
0000
1000
0000
0001
0100
0010
1000
0010
0200
,
0300
0001
0010
0200
0010
0000
0310
0000
0001
1000
0010
0100
0001
1000
0100
0020
,
0001
0000
0100
0000
0001
0000
0130
0000
1000
0000
0010
0000
0100
0000
0001
1000
,
0001
0010
0200
0000
1000
0000
0010
0300
1000
0100
0020
0030
0001
0100
0010
0000
,
1000
0000
0001
0000
0010
0000
0001
0000
0100
0000
0010
0100
0001
1000
0200
0300
,
0010
0100
2000
0000
0000
0000
0000
0000
3000
0000
0000
0001
0200
0300
0010
0100
,
0001
0000
0200
0000
1300
0000
0100
0000
0001
0000
0010
0000
0100
1000
0100
0000
,
0100
0000
0000
1000
0000
0000
0010
0000
0000
0000
0000
0000
0100
0000
0000
0000
0000
0000
0001
0000
0000
0000
1000
0000
0001
0000
0000
0000
0000
0000
0100
0000
0000
0000
0000
0000
2200
0000
0000
3300
0000
0000
0000
0000
0000
0000
0001
0000
,
0010
0000
0000
0000
0000
0000
0100
0000
0000
0000
0000
0000
1000
0000
0000
0000
0000
0000
0010
0000
0000
0000
0100
0000
0001
0000
0000
0000
0000
0000
0100
0000
0000
0010
0000
0000
1000
0000
0000
0001
0000
0000
0200
0000
0000
0300
0000
0000
,
0010
0000
0000
0100
0000
0000
0001
0000
0000
0000
0000
0000
0010
0000
0000
0001
0000
0000
0100
0000
0000
0000
0010
0000
1000
0000
0000
0000
0000
0000
1000
0000
0000
0000
0000
0000
0001
0000
0000
0000
0000
0000
0100
0000
0000
0010
0000
0000
,
1000
0000
0000
0000
0000
0000
0200
0000
0000
0000
0000
0000
0301
0000
0000
0000
0000
0000
0100
0000
0000
0000
1000
0000
0010
0000
0000
0000
0000
0000
0010
0000
0000
0000
0000
0000
0100
0000
0000
0000
0000
0000
0001
0000
0000
0010
0000
0000
,
0001
0000
0000
1000
0000
0000
0200
0000
0000
0000
0000
0000
0010
0000
0000
0300
0000
0000
1000
0000
0000
0000
0001
0000
0100
0000
0000
0000
0000
0000
0010
0000
0000
0000
0000
0000
1000
0000
0000
0010
0000
0000
0100
0000
0000
0000
0000
0000
,
0011
0000
0000
0000
0000
0000
1010
0000
0000
0000
0000
0000
0021
0000
0000
0000
0000
0000
0130
0000
0000
0000
1000
0000
0100
0000
0000
0000
0000
0000
0010
0000
0000
0001
0000
0000
0010
0000
0000
0001
0000
0000
1000
0000
0000
0000
0000
0000
,
0010
1000
0100
0000
0010
0000
0001
0000
0200
0000
1300
0000
0100
0000
0001
0000
,
1200
0310
0021
0130
1002
0103
2010
3001
,
0102
0013
1010
0001
0010
0001
0100
0020
,
0031
1000
0100
0001
0020
1030
0001
0100
,
2000
3010
0100
1000
0001
0100
0010
0001
,
2000
0000
0000
0000
0000
0000
0000
0000
3000
0000
0000
0000
0001
0100
0010
0000
,
1000
0000
0000
0000
0000
0000
0200
0000
0000
0000
0000
0000
0301
0000
0000
0000
0000
0000
0100
0000
0000
0000
1000
0000
0100
0000
0000
0000
0000
0000
0010
0000
0000
0100
0000
0000
1000
0000
0000
0000
0000
0000
0001
0000
0000
0000
0000
0000
,
0100
0000
0000
0000
0000
0000
0100
0000
0000
0000
0000
0000
0001
0000
0000
0000
0000
0000
1000
0000
0000
0000
0001
0000
0010
0000
0000
0000
0000
0000
0001
0000
0000
0010
0000
0000
0100
0000
0000
0010
0000
0000
0100
0000
0000
0010
0000
0000
,
0001
0000
0000
0000
0000
0000
0020
0000
0000
0000
0000
0000
1030
0000
0000
0000
0000
0000
0010
0000
0000
0000
0001
0000
0010
0000
0000
0000
0000
0000
0100
0000
0000
0010
0000
0000
0001
0000
0000
0000
0000
0000
1000
0000
0000
0000
0000
0000
,
0021
0000
0000
0130
0000
0000
1100
0000
0000
0100
0000
0020
0000
0000
0000
0001
0000
0000
0130
0000
1000
0010
0000
0100
,
0001
0000
0000
0000
0000
0000
1000
0000
0000
0000
0000
0000
0020
0000
0000
0030
0000
0000
0001
0000
0000
0000
1000
0000
0100
0000
0000
0000
0000
0000
0010
0000
0000
1000
0000
0000
0100
0000
0000
0000
0000
0000
0010
0000
0000
0000
0000
0000
,
0001
0000
0000
0000
0000
0000
0020
0000
0000
0000
0000
0000
1030
0000
0000
0000
0000
0000
0010
0000
0000
0000
0001
0000
0010
0000
0000
0000
0000
0000
0100
0000
0000
1000
0000
0000
0001
0000
0000
0100
0000
0000
0010
0000
0000
0100
0000
0000
,
0002
0000
0000
0003
0000
0000
0110
0000
0000
1000
0000
0001
0020
0000
0000
0000
0000
0000
0130
0000
0000
1001
0000
0000
,
1000
0000
0000
0010
0000
0000
0000
0000
0000
0000
0100
0000
0001
0000
0000
0000
0000
0000
0000
0000
0000
0000
1000
0000
0100
0000
0000
0000
0000
0000
0000
0000
0000
0000
0000
0000
0110
0000
0000
0000
0000
0000
0000
0000
0000
0000
0000
0000
,
1001
0000
0000
0000
0000
0000
0001
0000
0000
0000
1000
0000
0001
0000
0000
0000
0000
0000
0100
0000
0000
0000
0010
0000
0100
0000
0000
0000
0000
0000
0001
0000
0000
1000
0000
0000
0100
0000
0000
0000
0000
0000
1000
0000
0000
0000
0000
0000
,
0001
0000
0000
0200
0000
0000
1300
0000
0000
0100
0000
0000
0001
0000
0000
0000
0000
0000
0010
0000
0000
0000
0001
0000
0010
0000
0000
0000
0000
0000
0100
0000
0000
0000
1000
0000
0100
0000
0000
0000
0000
0000
1000
0000
0000
0000
0000
0000
,
0010
0000
0100
0010
0000
0000
1000
0000
0000
0020
0000
0000
0031
0000
0000
0010
0000
0000
1000
0000
0000
0200
0000
0000
,
0301
0000
0000
0000
0000
0000
2000
0000
0000
0000
0000
0000
3000
0000
0000
0000
0010
0000
0100
0000
0000
0000
0000
0000
1000
0000
0000
0000
0000
0000
0001
0000
0000
0000
0000
0000
0100
0000
0000
0010
0000
0000
0100
0000
0000
0001
0000
0000
,
1000
0200
0010
1000
0010
1300
0001
0200
,
1300
0000
0000
0100
0000
0000
0001
0000
0000
0200
0000
0000
1000
0000
0000
0300
0000
0000
0100
0000
0000
0000
0000
0000
0001
0000
0000
0000
0000
0000
0001
0000
0000
0000
0010
0000
0001
0000
0000
0000
0000
0000
0100
0000
0000
0000
0000
0000
,
0001
0000
0000
0010
0000
0000
0100
0000
0000
0000
0000
0000
1001
0000
0000
0000
0000
0000
0110
0000
0000
0000
0000
0000
1200
0000
0000
0000
0000
0000
0000
0000
0000
0000
0310
0000
0000
0000
0000
0000
0000
0000
0001
0000
0000
0000
0000
0000
,
0200
2000
0000
0000
0000
0000
0000
0000
0000
3300
0000
0000
,
0021
0000
0000
0130
0000
0000
1000
0000
0000
0010
0000
0100
0010
0000
0000
1000
0000
0000
0001
0000
0000
0100
0000
0010
,
0100
0000
0001
0000
0000
0000
0000
0000
0100
0001
0100
0001
0100
0001
0100
0001
,
1000
0000
0000
0020
0000
0000
0031
0000
0000
0010
0000
1000
0020
0000
0000
0100
0000
0000
1030
0000
0000
0001
0000
0100
,
0001
0000
0010
0000
0000
0010
0001
0000
0000
0001
0000
0010
0100
0000
0000
0100
0000
1000
0200
0000
0000
0301
0000
0100
,
1000
0000
0000
0010
0000
0000
0100
0000
0000
0001
0000
2000
0010
0000
0000
3100
0000
0000
0002
0000
0000
0203
0000
0000
,
1300
0000
0000
0000
0000
0000
0002
0000
0000
0000
0000
0000
0003
0000
0000
0000
0010
0000
0100
0000
0000
0000
0000
0000
0001
0000
0000
0000
0000
0000
1000
0000
0000
0000
0000
0000
0010
0000
0000
0000
0100
0000
0010
0000
0000
0100
0000
0000
,
0002
0000
0000
0003
0000
0000
1100
0000
0000
1000
0000
0001
1000
0000
0000
0100
0000
0000
0101
0000
0000
1100
0000
0001
,
0100
0000
0000
0000
0010
0000
0000
0000
0000
0000
0100
0000
0010
0000
0000
0000
0000
0000
1000
0000
0000
0000
0001
0000
1000
0000
0000
0000
0000
0000
0100
0000
0000
0000
0000
0000
1000
0000
0000
0010
0000
0000
0100
0000
0000
0001
0000
0000
,
0020
0000
0000
0000
0000
0000
0000
0000
0000
0030
0000
0000
0001
0000
0000
0000
1000
0000
0010
0000
0000
0000
0100
0000
0000
0000
0000
0000
0000
0000
0100
0000
0000
0000
0010
0000
1000
0000
0000
0000
0000
0000
0020
0000
0000
0000
0000
0000
,
0031
0000
0000
0000
0000
0000
2000
0000
0000
0000
0000
0000
3000
0000
0000
0000
0100
0000
0010
0000
0000
0000
0000
0000
1000
0000
0000
0000
0000
0000
0001
0000
0000
0010
0000
0000
0001
0000
0000
0000
0000
0000
1000
0000
0000
0000
0000
0000
,
0001
0000
0000
0100
0000
0000
0010
0000
0000
0000
0000
0000
1001
0000
0000
0000
0000
0000
1000
0000
0000
0000
0010
0000
0200
0000
0000
0000
0000
0000
0001
0000
0000
0000
0000
0000
0310
0000
0000
0000
0000
0000
0001
0000
0000
0000
1000
0000
,
0100
0000
0000
0000
0010
0000
0000
0000
0000
0000
0010
0000
0100
0000
0000
0000
0000
0000
1000
0000
0000
0000
0001
0000
0200
0000
0000
0000
0000
0000
0010
0000
0000
0000
0000
0000
0301
0000
0000
0000
0000
0000
1000
0000
0000
0100
0000
0000
,
0020
0000
0000
0030
0100
0010
0100
0000
1000
0100
1000
0001
0100
0010
1000
0000
,
0021
0031
1020
0130
0201
0310
1001
0110
,
1200
0000
0000
0310
0000
0000
0001
0000
0000
1000
0000
0001
0100
0000
0000
0001
0000
0000
1000
0000
0000
0100
0000
1000
,
0001
0000
0100
0000
0000
0100
0001
0000
0000
0010
0000
0200
1000
0000
0000
0310
0000
0000
1000
0000
0000
0001
0000
0200
,
1300
0000
0000
0001
0000
0000
0010
0000
0000
0100
0000
0001
1000
0000
0000
0100
0000
0000
0020
0000
0000
0000
0000
0000
,
1030
0000
0000
0002
0000
0000
0003
0000
0100
0010
0000
0000
0001
0000
0000
1000
0000
0000
0100
0000
0000
0010
0000
0000
,
0002
0000
0000
0100
0000
0000
2003
0000
0000
0010
0000
0000
3002
0000
0000
0100
,
0000
0000
0023
0000
0000
0100
0000
0000
0032
0000
0000
1000
0000
0000
0103
0000
,
0000
0000
0001
0010
0001
0010
0001
0000
1000
0010
1000
0010
1000
0000
0001
1000
,
0001
1000
0001
0000
0100
0001
0100
0001
0200
0000
0000
0000
0300
0000
0001
0010
,
0200
0000
0000
0000
0000
0300
1000
0001
,
0100
0010
2000
0000
0000
0000
0000
0000
0000
0000
3000
0000
0001
0100
0020
0000
,
0000
0000
0000
0000
0000
0000
0000
0000
0030
0000
1000
0001
1000
0010
0100
0000
,
0100
0010
2000
0000
0000
0000
3000
0000
0001
1000
0020
0200
0000
0000
0330
0000
,
1001
0000
0001
0100
0100
0010
1000
0001
,
0001
0100
0010
0000
0000
0010
0200
0000
0001
0000
0001
0000
0010
0000
0310
0000
,
1000
0100
0000
0000
1000
0001
0000
1000
0200
0000
0010
0000
1300
0000
1000
0000
,
0001
1000
0010
0000
1000
0001
0100
0000
0020
0000
0100
0000
1030
0000
0001
0000
,
0100
0001
0020
1030
0010
0001
0010
0100
,
0010
0001
0010
0000
0001
1000
0020
0000
1000
0000
0100
0000
1030
0000
0001
0000
,
0020
1030
0001
0100
0020
0031
0100
1000
,
0001
0000
0000
0000
0000
0000
0000
0000
0000
0000
0000
0000
0110
0000
0000
0000
0000
0000
0000
0000
0000
0000
0000
0000
2001
0000
0000
3000
0000
0000
0000
0000
0000
0010
0000
0000
1000
0000
0000
0000
0000
0000
0000
0000
0000
0000
0001
0000
,
0010
0000
0000
0100
0000
0000
1000
0000
0000
0010
0000
0100
0010
0000
0000
1000
0000
0000
0020
0000
0000
0031
0000
0000
,
0010
0000
0000
0000
0000
0000
1000
0000
0000
0000
0000
0000
0100
0000
0000
0000
0000
0000
0010
0000
0000
0000
0001
0000
0010
0000
0000
0000
0000
0000
0100
0000
0000
1000
0000
0000
0010
0000
0000
0100
0000
0000
0001
0000
0000
0100
0000
0000
,
0020
0000
0000
0030
0000
0000
0021
0000
0000
0031
0000
0100
0010
0000
0000
1000
0000
0000
0001
0000
0000
0200
0000
0000
,
1300
0000
0000
0000
0000
0000
0100
0000
0000
0000
0000
0000
0001
0000
0000
0000
0000
0000
0010
0000
0000
0000
0100
0000
1000
0000
0000
0000
0000
0000
0100
0000
0000
0010
0000
0000
0001
0000
0000
0010
0000
0000
0100
0000
0000
1000
0000
0000
,
0100
0000
0000
2000
0000
0000
0000
0000
0000
0000
0000
0000
3001
0000
0000
0000
0000
0000
0100
0000
0000
0000
0010
0000
0100
0000
0000
0000
0000
0000
0001
0000
0000
0000
0000
0000
0010
0000
0000
0000
0000
0000
0001
0000
0000
0000
0000
0000
,
0100
0000
0000
0000
0000
0000
0010
0000
0000
0000
0000
0000
1000
0000
0000
0000
0000
0000
0100
0000
0000
0000
0010
0000
0001
0000
0000
0000
0000
0000
0010
0000
0000
0100
0000
0000
1000
0000
0000
0100
0000
0000
0010
0000
0000
0100
0000
0000
,
2000
0000
3000
0000
0102
0003
0200
0000
1300
0000
0100
0000
0001
0000
0020
0000
,
0130
0001
1000
0100
0010
1000
0001
0000
,
1200
0000
0000
0310
0000
0000
0001
0000
0000
1000
0000
0010
0100
0000
0000
0020
0000
0000
2000
0000
0000
3030
0000
0000
,
0021
0000
0031
0000
0200
0000
1300
0000
0001
0000
0010
0000
0100
0001
0010
0000
,
1100
0000
0000
1000
0000
0010
0100
0000
0000
0000
0000
0001
1000
0000
0000
0200
0000
0000
0020
0000
0000
0030
0000
0000
,
1300
0000
0001
0000
0200
0000
1300
0000
0100
0000
0001
0000
1000
0100
0010
0100
,
2000
0000
3000
0000
0110
0000
0000
0001
0100
0000
0100
0000
0020
0000
0030
0000
,
1200
0000
0000
0000
0000
0000
0010
0000
0000
0000
0000
0000
1300
0000
0000
0000
0000
0000
0100
0000
0000
0000
0010
0000
0100
0000
0000
0000
0000
0000
1000
0000
0000
0000
0000
0000
0001
0000
0000
0010
0000
0000
0100
0000
0000
0010
0000
0000
,
0002
0100
0100
0100
0100
0100
0103
0100
,
0001
0100
0010
1000
0010
0100
0001
0010
0100
1000
0100
0010
0001
0100
0010
1000
,
0010
0000
0200
0000
0001
0000
0010
0000
0302
0000
0003
0000
0001
0010
0001
1000
;
