#TITLE:Feels;
#SUBTITLE:;
#ARTIST:Calvin Harris ;
#TITLETRANSLIT:;
#SUBTITLETRANSLIT:;
#ARTISTTRANSLIT:;
#GENRE:;
#CREDIT:RxSteps;
#MUSIC:feels.ogg;
#BANNER:feels.png;
#BACKGROUND:feels-BG.png;
#CDTITLE:cdtitle.png;
#SAMPLESTART:64.230;
#SAMPLELENGTH:17.822;
#SELECTABLE:YES;
#OFFSET:2.305;
#BPMS:0.000=101.000;
#STOPS:;
#BGCHANGES:;
#FGCHANGES:;

//--------------- dance-single - RxSteps ----------------
#NOTES:
     dance-single:
     RxSteps:
     Beginner:
     1:
     0,0,0,0,0:
0000
0000
0000
0000
,
0100
0000
0000
0000
,
0000
0000
0000
0000
,
0100
0000
0000
0000
,
0000
0000
0000
0000
,
0001
0000
0000
0000
,
1000
0000
0000
0000
,
0010
0000
0000
0000
,
0010
0000
0000
0000
,
1000
0000
0000
0000
,
0001
0000
0000
0000
,
0001
0000
0000
0000
,
1000
0000
0000
0000
,
0010
0000
0000
0000
,
0010
0000
0000
0000
,
0010
0000
0000
0000
,
1000
0000
0000
0000
,
0100
0000
0000
0000
,
0001
0000
0000
0000
,
0001
0000
0000
0000
,
1000
0000
0000
0000
,
0010
0000
0000
0000
,
0010
0000
0000
0000
,
0100
0000
0000
0000
,
1000
0000
0000
0000
,
0100
0000
0000
0000
,
0010
0000
0000
0000
,
0001
0000
0000
0000
,
1000
0000
0000
0000
,
0010
0000
0000
0000
,
1001
0000
0000
0000
,
0001
0000
0000
0000
,
0100
0000
0000
0000
,
0100
0000
0000
0000
,
0010
0000
0000
0000
,
1001
0000
0000
0000
,
0100
0000
0000
0000
,
0100
0000
0000
0000
,
0001
0000
0000
0000
,
0001
0000
0000
0000
,
1000
0000
0000
0000
,
1000
0000
0000
0000
,
0010
0000
0000
0000
,
1000
0000
0000
0000
,
0001
0000
0000
0000
,
0010
0000
0000
0000
,
0100
0000
0000
0000
,
1000
0000
0000
0000
,
0001
0000
0000
0000
,
0010
0000
0000
0000
,
0010
0000
0000
0000
,
0001
0000
0000
0000
,
1000
0000
0000
0000
,
0100
0000
0000
0000
,
1001
0000
0000
0000
,
0010
0000
0000
0000
,
1000
0000
0000
0000
,
0001
0000
0000
0000
,
0010
0000
0000
0000
,
1001
0000
0000
0000
,
1000
0000
0000
0000
,
0100
0000
0000
0000
,
1000
0000
0000
0000
,
0010
0000
0000
0000
,
0010
0000
0000
0000
,
0100
0000
0000
0000
,
0001
0000
0000
0000
,
1000
0000
0000
0000
,
0110
0000
0000
0000
,
1000
0000
0000
0000
,
0001
0000
0000
0000
,
0100
0000
0000
0000
,
0100
0000
0000
0000
,
0001
0000
0000
0000
,
1000
0000
0000
0000
,
0010
0000
0000
0000
,
0100
0000
0000
0000
,
0001
0000
0000
0000
,
1001
0000
0000
0000
,
0100
0000
0000
0000
,
0100
0000
0000
0000
,
0010
0000
0000
0000
,
0001
0000
0000
0000
,
1001
0000
0000
0000
,
1000
0000
0000
0000
,
0010
0000
0000
0000
,
1001
0000
0000
0000
,
0010
0000
0000
0000
,
1000
0000
0000
0000
,
0100
0000
0000
0000
,
0010
0000
0000
0000
,
1001
0000
0000
0000
,
0010
0000
0000
0000
,
0001
0000
0000
0000
;

//--------------- dance-single - RxSteps ----------------
#NOTES:
     dance-single:
     RxSteps:
     Easy:
     3:
     0,0,0,0,0:
0000
0000
0000
0000
,
0002
0000
0000
0000
,
0000
0000
0000
0000
,
0203
0000
0000
0000
,
0000
0000
0000
0000
,
0320
0000
0000
0030
,
2000
3000
0010
0100
,
0010
0010
1000
1000
,
0002
0003
0001
0010
,
0200
0300
0010
0100
,
2000
3000
0001
0010
,
0100
1000
0001
0001
,
2000
3000
0010
0100
,
0010
0010
1000
0001
,
0010
0010
1001
0000
,
1000
0000
0000
0010
0000
0000
0000
0000
,
1000
0100
1100
1000
,
0001
0000
0000
0010
0000
0000
0001
0000
,
0100
0010
1000
1000
,
0002
0000
0003
0200
0000
0000
0300
0000
,
0001
1000
0100
1000
,
0010
0010
1000
0001
,
0110
0000
1000
0000
,
0001
0010
0100
1000
,
0100
0010
0001
0001
,
0100
0100
0010
0010
,
2000
3000
0020
0030
,
1000
0100
0010
0001
,
2000
3000
0010
0010
,
0100
0001
0100
0010
,
1001
0000
1000
0010
,
0100
0010
0100
0100
,
0001
0010
0001
0010
,
0100
0100
1000
1000
,
0001
1000
0010
1000
,
1010
0000
0001
0001
,
1000
0100
0010
0010
,
0001
1000
0001
0100
,
0002
0003
1000
0100
,
1000
0010
0100
0100
,
0002
0003
1000
1000
,
0020
0000
0000
0030
0000
1000
0000
0000
,
0001
1000
0100
0100
,
1000
0010
0100
0100
,
0020
0030
1000
0001
,
0010
0100
1000
0100
,
2000
3000
0020
0030
,
1000
0001
0010
0010
,
0100
0001
0100
0100
,
0010
0010
1000
1000
,
0002
0003
0200
0300
,
0100
0010
1000
0001
,
0100
0100
0010
1000
,
0200
0300
1000
0001
,
1001
0000
0001
0100
,
0010
0100
0010
0010
,
1000
0100
1000
0100
,
0010
0010
0001
0001
,
1000
0001
0100
0001
,
0101
0000
1000
1000
,
0001
0010
0100
0100
,
1000
0001
1000
0010
,
2000
0000
3000
0000
0001
1000
0001
0000
,
0200
0000
0300
0000
0001
0100
0001
0000
,
2000
0000
3000
0000
0010
1000
0010
0000
,
0200
0000
0300
0000
0100
0010
0100
0000
,
0002
0000
0003
0000
1000
0001
1000
0000
,
0020
0000
0030
0000
0100
0010
0100
0000
,
0002
0003
2000
3000
,
0020
0030
1000
1000
,
0002
0003
2000
3010
,
2000
3000
0002
0103
,
0002
0003
0200
0310
,
0020
0030
2000
3000
,
0002
0003
2000
3100
,
0200
0300
2000
3010
,
1000
0010
0100
0010
,
0100
0001
1000
0001
,
1001
0000
1000
0100
,
0010
0100
0010
0010
,
0001
0100
0001
0100
,
0010
0010
1000
1000
,
0001
1000
0100
1000
,
1100
0000
0001
0001
,
1000
0010
0100
0100
,
0001
0100
0010
0000
,
1001
0000
0001
0010
,
0100
0010
0100
0100
,
1000
0010
1000
0010
,
0100
0100
0001
0001
,
1000
0001
0010
0001
,
0200
0300
0001
0001
,
1000
0100
0010
0010
,
0001
0000
0100
0000
0000
0020
0000
0000
,
0030
0000
0000
0000
;

//--------------- dance-single - RxSteps ----------------
#NOTES:
     dance-single:
     RxSteps:
     Medium:
     6:
     0,0,0,0,0:
0000
0000
0000
0000
,
2000
0000
0000
0000
,
0000
0000
0000
0000
,
3002
0000
0000
0000
,
0000
0000
0000
0000
,
0203
0000
0000
0300
,
1001
0000
0000
0001
0000
0000
0100
0000
0010
0000
0000
0000
0010
0000
0000
0000
,
1000
0000
1000
0000
0010
1000
0020
0030
,
0100
0000
0100
0001
0100
0001
1000
0010
,
1000
0000
0000
1000
0000
0000
0000
0000
0020
0000
0000
0000
0130
0000
0000
0000
,
1001
0000
0000
1000
0000
0000
0010
0000
1000
0000
0100
0000
0010
0000
0001
0000
,
1000
0001
1000
0001
0010
0000
0010
0000
,
1010
0000
0000
0010
0000
0000
1000
0000
0010
0000
0100
0000
0001
0000
0100
0000
,
0002
0000
0000
0000
1003
0000
1000
0001
,
0100
0000
0100
0000
1100
0000
1000
0100
,
0010
0000
0010
0002
0000
0000
0003
1000
,
0002
0000
0023
0000
0130
0000
0100
0010
,
0001
0000
0001
0010
0000
0000
0000
0001
,
0200
0000
0320
0030
1000
0010
0100
0010
,
2000
3000
0010
0200
0000
0000
0300
0001
,
0100
0000
0200
0000
0310
0000
0010
1000
,
0100
1000
0100
0020
0000
0030
0010
0100
,
2000
0000
3000
0000
0000
1000
0000
0000
0001
0000
0000
0000
0001
0000
0100
0000
,
0010
1000
0010
1000
0001
0000
0001
0000
,
1010
0000
0000
1000
0000
0000
0001
0000
1000
0000
0010
0000
0100
0000
0010
0000
,
1000
0000
0000
1000
0000
0000
0000
0000
0001
0000
0000
0000
0002
0000
0000
0000
,
0023
0000
0000
0000
0030
0100
0000
0000
0020
0000
0000
0000
0030
0000
0100
0000
,
1000
0100
1000
0100
2000
0000
3000
0000
,
0101
0000
0000
0001
0000
0000
0100
0000
0001
0000
0010
0000
0100
0000
2000
0000
,
0000
0000
3010
0101
,
1000
0001
0100
0001
0010
0001
0100
0010
,
1000
0100
1000
0100
1000
0000
1000
0000
,
0101
1100
2001
0010
,
3100
0000
0000
2000
0000
0000
0000
0000
0001
0000
0000
0000
3001
0000
0000
0000
,
0110
0000
1001
0000
0001
1000
0010
0100
,
0002
0000
0000
0000
0100
0000
0103
0001
,
0100
0010
1000
0010
0200
0000
0302
0000
,
0023
0000
0001
0031
,
2000
0000
3000
0000
0010
1000
0001
0100
,
0010
0100
0001
1000
0010
0000
0010
0000
,
1000
0100
0010
0001
1000
0000
1000
0000
,
0010
0200
0000
0302
0000
1003
0000
0001
,
2000
0000
3000
0010
1000
0010
0100
0001
,
0010
0002
0000
0000
1003
0000
1000
0000
,
0010
1000
0010
0000
0101
0000
0001
0000
,
1000
0000
0100
0000
0010
0000
0000
0010
0100
0000
0010
0000
0100
0000
1000
0000
,
0001
0000
0000
0000
0000
0001
0000
0000
0100
0000
0000
0000
0000
0000
0100
0000
,
0001
0010
0100
1000
0001
0100
0010
0100
,
0010
0000
0000
0010
0000
0000
1000
0000
0001
0000
0100
0000
0010
0000
1000
0000
,
0100
0000
0100
1000
0001
0000
0001
0000
,
0200
0000
0000
0000
0300
0002
0000
0000
0023
0000
0000
0000
0030
0000
0100
0000
,
1000
0100
1000
0010
0100
0002
0000
0003
,
1000
0000
0000
1000
0000
0000
0001
0000
0100
0000
0010
0000
1000
0000
0010
0000
,
0100
0000
0000
0200
0000
0000
0300
0000
0001
0000
0000
0000
1100
0000
0000
0000
,
0001
1000
0010
1000
0100
1000
0010
0100
,
0001
0010
0001
0010
0001
0000
0001
0000
,
1010
0011
1002
0100
,
0013
0000
0000
0002
0000
0000
0000
0000
1000
0000
0000
0000
1003
0000
0000
0000
,
0110
0000
1001
0000
1000
0001
0100
0010
,
2000
0000
0000
0000
0010
0000
3010
1000
,
0010
0100
0001
0100
0020
0000
2030
0000
,
3200
0000
0310
0001
,
1000
0000
0000
1000
0000
0000
0000
0000
0001
0000
0100
0000
0001
0000
0000
0000
,
1000
0000
0000
0010
0000
0000
0000
0000
0100
0000
0010
0000
0100
0000
0000
0000
,
0001
0000
0000
1000
0000
0000
0000
0000
0010
0000
1000
0000
0010
0000
0000
0000
,
1000
0000
0000
0001
0000
0000
0000
0000
0100
0000
0010
0000
1000
0000
0000
0000
,
1000
0000
0000
0001
0000
0000
0000
0000
1000
0000
0100
0000
0010
0000
0000
0000
,
0010
0000
0000
0001
0000
0000
0000
0000
0001
0000
0010
0000
0100
0000
0000
0000
,
2000
3020
0230
0320
,
2030
3200
1300
0101
,
0001
0000
0000
0001
0000
0000
0000
0000
2000
0000
0000
0000
3010
0000
0000
0000
,
0010
0000
0000
0100
0000
0000
0000
0000
0002
0000
0000
0000
0010
0000
0000
0000
,
0013
0000
0000
0001
0000
0000
0000
0000
2000
0000
0000
0000
3100
0000
0000
0000
,
1000
0000
0000
0001
0000
0000
0000
0000
1000
0000
0100
0000
0010
0000
0000
0000
,
0010
0000
0000
0010
0000
0000
0000
0000
0002
0000
0000
0000
0103
0000
0000
0000
,
0001
0000
0000
1000
0000
0000
0000
0000
0020
0000
0000
0000
1030
0000
0000
0000
,
0002
0023
0230
0320
,
0032
0203
0310
1001
,
1000
0001
0010
0001
0100
0001
0010
0100
,
1000
0010
1000
0010
1000
0100
0010
0001
,
0010
1010
2001
0100
,
3010
0000
0000
2000
0000
0000
0000
0000
0001
0000
0000
0000
3001
0000
0000
0000
,
0110
0000
1001
0000
0001
1000
0100
0010
,
0002
0000
0000
0000
0010
0000
0013
0001
,
0010
0100
1000
0100
0020
0000
0032
0000
,
0203
0000
0001
0310
,
0001
1000
0100
1000
0010
1000
0100
0010
,
0001
0100
0001
0100
0001
0000
0001
0000
,
1100
0101
1002
0010
,
0103
0000
0000
0002
0000
0000
0000
0000
1000
0000
0000
0000
1003
0000
0000
0000
,
0110
0000
1001
0000
1000
0001
0010
0100
,
2000
0000
3000
0020
0000
0030
0200
0000
0000
0000
0300
0000
0000
0000
0010
0000
,
1000
0010
0100
0001
0200
0000
0310
0000
,
1000
0100
0010
0002
0000
0200
0000
0000
,
0303
0000
0000
0000
;

//--------------- dance-single - RxSteps ----------------
#NOTES:
     dance-single:
     RxSteps:
     Hard:
     7:
     0,0,0,0,0:
0000
0000
0000
0000
,
0002
0000
0000
0000
,
0000
0000
0000
0000
,
0200
0000
0000
0000
,
0000
0000
0000
0003
,
0020
0000
0000
0330
,
1001
0000
0001
0100
0001
0000
1000
0000
0010
0000
1000
0000
0100
0000
1000
0000
,
0001
0010
0001
1000
0220
0330
2200
3300
,
0011
0000
0001
1000
0001
0000
0100
0000
0010
0000
0100
0000
0001
0000
1000
0000
,
0100
0000
0010
0100
0010
0000
0100
0000
1000
0000
0001
0000
1000
0000
0010
0000
,
1100
0000
1000
0010
1000
0000
0010
0000
0100
0000
0001
0000
0100
0000
0010
0000
,
1000
0100
1000
0001
0220
0330
0022
0033
,
1001
0000
0001
1000
0001
0000
0100
0000
0010
0000
0100
0000
0001
0000
0010
0000
,
0001
0000
1000
0010
1000
0000
0000
0000
0002
0000
0003
0000
2000
0000
3000
0000
,
0001
1000
0010
1000
0022
0033
1000
0200
,
0020
0300
0031
2000
3000
0010
0101
1000
,
0010
0100
0020
0030
2200
3300
0001
0020
,
0200
0330
1000
0001
0000
0100
0110
0001
,
2000
0000
3020
0030
0100
0001
0010
0001
,
2000
0000
0000
0000
3100
0000
2000
0000
0000
0000
0001
0000
3100
0000
1000
0100
,
2000
3000
0001
0100
0001
0100
0010
1000
,
0100
0001
0100
2000
0000
3000
0001
0100
,
2100
0000
0000
0000
3000
0001
0100
0000
0002
0000
0003
0000
0000
1000
0100
0000
,
0010
0100
1000
0011
1010
1000
0001
0100
,
0010
0000
1000
0000
0100
0000
1000
0100
1000
0000
0100
0000
0010
0000
0001
0000
,
0100
0000
0010
1000
0010
0000
1000
0000
0001
0000
0100
0001
0100
0000
0001
0000
,
2200
0000
0300
0000
0000
0002
3000
0000
0200
0000
0003
0000
0300
0000
0010
0000
,
1000
0000
0100
0000
1000
0000
0001
0000
0010
0000
0001
0100
0001
0100
0001
0000
,
1000
0000
0010
1000
0000
0000
0010
0100
0010
0000
1000
0000
0100
0000
0010
0000
,
0001
0000
0000
0100
0001
0000
0000
0000
0110
0000
0000
0000
1001
0000
0000
0000
,
2000
0010
3002
0100
1003
0010
0100
0001
,
1000
0001
0100
0001
1000
0100
2000
3000
,
0101
0000
1100
0000
0001
1000
0001
0000
0100
0000
0010
0000
0100
0000
0001
0000
,
1000
0000
0010
0100
0010
0000
1000
0000
0011
0000
0000
0000
1100
0000
0000
0001
,
0100
0000
0000
0100
0002
0000
1000
0000
0010
0000
0003
0000
0002
0000
0003
0000
,
0110
0000
0001
0000
1000
0000
0100
0000
0010
0000
1000
0000
0001
0000
0100
0001
,
0200
0010
0301
2000
0100
3001
1000
0010
,
0100
0010
1000
0100
1000
0002
0200
0303
,
1010
0000
1000
0010
0000
1000
0001
0000
0100
0000
0001
0000
0010
0000
0001
0000
,
0100
0000
0001
1000
0000
0010
0100
0000
0002
0000
0000
0000
0023
0000
0030
0000
,
1001
0000
0001
0010
0000
0001
0100
0000
0010
0000
0100
0000
0001
0000
0000
0000
,
1000
0000
0001
0100
0000
0000
1000
0100
0000
0000
0010
0100
0000
0000
1001
0000
,
0110
0000
0001
0100
0000
0001
1000
0000
0100
0000
0010
0000
0100
0000
0010
0000
,
0001
0000
1000
0001
0000
1000
0010
0000
0200
0000
0000
0000
0302
0000
0003
0000
,
0110
0000
1000
0010
0000
1000
0001
0000
0010
0000
0001
0000
1000
0000
0100
0000
,
1000
0000
0001
0010
0001
0000
0000
1000
0100
0000
1000
0010
1000
0000
0001
0000
,
0022
0000
0033
0000
0000
2000
0000
0000
0002
0000
3000
0000
0003
0000
0100
0001
,
0100
0000
0010
0000
1000
0000
0010
0000
0100
0000
0001
1000
0001
1000
0001
0000
,
0100
0000
0000
0100
0001
0000
1000
0000
0001
0000
0100
0000
0010
0000
0100
0000
,
0001
0000
0000
0001
1000
0000
0100
0000
0010
0000
0000
0001
0010
0002
0000
0000
,
2000
0000
3003
0000
0000
0011
0000
0000
0110
0000
0000
0000
0000
0001
1000
0000
,
0001
0000
0100
0000
0010
0000
1000
0000
0100
0000
1000
0001
1000
0001
1000
0000
,
0010
0000
0000
0010
0000
0000
1000
0000
0001
0000
1000
0000
0010
0000
0100
0000
,
0022
0030
2000
0003
0002
3003
0110
0000
,
0002
0100
2003
0010
3001
0100
0010
1000
,
0001
1000
0010
1000
0001
0010
0002
0003
,
1010
0000
0011
0000
1000
0001
1000
0000
0010
0000
0100
0000
0010
0000
1000
0000
,
0001
0000
0100
0010
0100
0000
0001
0000
1100
0000
0000
0000
0011
0000
0000
1000
,
0010
0000
0000
0010
2000
0000
0001
0000
0100
0000
3000
0000
2000
0000
3000
0000
,
0110
0000
1000
0000
0001
0000
0010
0000
0100
0000
0001
0000
1000
0000
0010
1000
,
0020
0100
1030
0002
0010
1003
0001
0100
,
0010
0100
0001
0010
0002
2000
0000
0003
,
3001
0000
0000
0100
0001
0000
0000
0000
0100
0000
0010
0000
0001
0000
0000
0000
,
1100
0000
0000
0001
0100
0000
0000
0000
0010
0000
0100
0000
1000
0000
0000
0000
,
0010
0000
0000
0010
0100
0000
0000
0000
0002
0000
1000
0000
0010
0000
0003
0000
,
1000
0000
0000
1000
0010
0000
0000
0000
0100
0000
0010
0000
0001
0000
0000
0000
,
1000
0000
0000
0001
0100
0000
0000
0000
0001
0000
0100
0000
1000
0000
0000
0000
,
0100
0000
0000
1000
0001
0000
0000
0000
0200
0000
0001
0000
0010
0000
0300
0000
,
0002
0000
0100
1003
2010
0000
0100
3001
,
0110
0000
1000
0000
0001
0000
0200
0000
0020
0330
0000
0000
1001
0000
0000
0000
,
0001
0000
0000
1010
0000
0000
0000
0000
0001
0010
0001
0000
1000
0000
0000
0000
,
0101
0000
0000
0000
0110
0000
0000
0000
1000
0010
1000
0010
1000
0001
0100
0000
,
1100
0000
0000
0000
0011
0000
0000
0000
0001
0100
0001
0100
0001
0000
0000
0000
,
0110
0000
1100
0000
0001
0010
0100
0000
,
1001
0000
0000
0000
0110
0000
0000
0000
1000
0001
1000
0001
1000
0000
0000
0000
,
0110
0000
0000
0000
0011
0000
0000
0000
0100
0010
0100
0010
1000
0001
0000
0000
,
2000
0000
0010
3001
0102
0000
0010
1003
,
0110
0000
0001
0000
1000
0000
0020
0000
0200
0330
0000
0000
1001
0000
0000
0000
,
2000
0100
3002
0010
1003
0100
0010
0001
,
1000
0001
0010
0001
1000
0010
2000
3000
,
0011
0000
1010
0000
0001
1000
0001
0000
0010
0000
0100
0000
0010
0000
0001
0000
,
1000
0000
0100
0010
0100
0000
1000
0000
0101
0000
0000
0000
1010
0000
0000
0001
,
0010
0000
0000
0010
0002
0000
1000
0000
0100
0000
0003
0000
0002
0000
0003
0000
,
0110
0000
0001
0000
1000
0000
0010
0000
0100
0000
1000
0000
0001
0000
0010
0001
,
0020
0100
0031
2000
0010
3001
1000
0100
,
0010
0100
1000
0010
0100
0010
1000
0000
,
0002
0010
2003
0100
3001
0010
0100
1000
,
0001
1000
0100
1000
0001
0100
0001
1000
,
1100
0000
0101
0000
1000
0001
1000
0000
0100
0000
0010
0000
0100
0000
1000
0000
,
0001
0000
0010
0100
0010
0000
0001
0000
1010
0000
0000
0000
0101
0000
0000
1000
,
0100
0000
0000
0100
2000
0000
0001
0000
0010
0000
3000
0000
2000
0000
3000
0010
,
0100
0000
0001
1000
0000
0001
0010
0000
0001
0000
1000
0000
0001
0000
0100
0001
,
0200
0010
0301
2000
0100
3001
1000
0010
,
0100
0010
1000
0002
0000
0020
0000
0000
,
0033
0000
0000
0000
;
