#TITLE:FREAK;
#SUBTITLE:feat. YUNGBLUD;
#ARTIST:Demi Lovato;
#TITLETRANSLIT:;
#SUBTITLETRANSLIT:;
#ARTISTTRANSLIT:;
#GENRE:;
#CREDIT:RxSteps;
#MUSIC:FREAK.ogg;
#BANNER:FREAK.png;
#BACKGROUND:FREAK-bg.png;
#CDTITLE:cdtitle.png;
#SAMPLESTART:35.674;
#SAMPLELENGTH:20.526;
#SELECTABLE:YES;
#OFFSET:-2.516;
#BPMS:0.000=152.000;
#STOPS:;
#BGCHANGES:;
#FGCHANGES:;

//--------------- dance-single - RxSteps ----------------
#NOTES:
     dance-single:
     RxSteps:
     Beginner:
     2:
     0,0,0,0,0:
0000
0000
0000
0000
,
0001
0000
0000
0000
,
0001
0000
0000
0000
,
1000
0000
0000
0000
,
0100
0000
0000
0000
,
0100
0000
0000
0000
,
0100
0000
0000
0000
,
0010
0000
0000
0000
,
0001
0000
0000
0000
,
1000
0000
0000
0000
,
0001
0000
0000
0000
,
0001
0000
0000
0000
,
1000
0000
0000
0000
,
1000
0000
0000
0000
,
0100
0000
0000
0000
,
1000
0000
0000
0000
,
0001
0000
0000
0000
,
0001
0000
0000
0000
,
0010
0000
0010
0000
,
0010
0000
0000
0000
,
1000
0000
0000
0000
,
1001
0000
0000
0000
,
0001
0000
0000
0000
,
0100
0000
0000
0000
,
0001
0000
0000
0000
,
0202
0000
0303
0000
,
0000
0000
0001
0000
,
1000
0000
0000
0000
,
0000
0000
0010
0000
,
0010
0000
0000
0000
,
1000
0000
0000
0000
,
0001
0000
0000
0000
,
0001
0000
0000
0000
,
0200
0000
0300
0000
,
0000
0000
0010
0000
,
0020
0000
0030
0000
,
0000
0000
1000
0000
,
1000
0000
0000
0000
,
0010
0000
0000
0000
,
0020
0000
0000
0000
,
0030
0000
0000
0000
,
0200
0000
0000
0000
,
0300
0000
0000
0000
,
0000
0002
0000
0000
0000
0000
0000
0000
,
0003
0000
0000
0000
,
1000
0000
0000
0000
,
0100
0000
0100
0000
,
0100
0000
0000
0000
,
0001
0000
0000
0000
,
0100
0000
0100
0000
,
0100
0000
0000
0000
,
0001
0000
0000
0000
,
1000
0000
0000
0000
,
2000
0000
3000
0000
,
0000
0000
0010
0000
,
0010
0000
0000
0000
,
1000
0000
0000
0000
,
0001
0000
0001
0000
,
0001
0000
0000
0000
,
0010
0000
0000
0000
,
0100
0000
0000
0000
,
2000
0000
3000
0000
,
0000
0000
0010
0000
,
0020
0000
0030
0000
,
0000
0000
0100
0000
,
0100
0000
0000
0000
,
0001
0000
0001
0000
,
0100
0000
0100
0000
,
0000
0000
1000
0000
,
2000
0000
3000
0000
,
0000
0000
0010
0000
,
0020
0000
0030
0000
,
0000
0000
0001
0000
,
0001
0000
0000
0000
0000
0000
0000
1000
,
0000
0000
0000
0000
,
0001
0000
0000
0000
0000
0000
0000
0100
,
0000
0000
0000
0000
,
0010
0000
0000
0000
0000
0000
0000
0010
,
0000
0000
0000
0000
,
1000
0000
0000
0000
0000
0000
0000
0001
,
0000
0000
0000
0000
,
0100
0000
0100
0000
,
0100
0000
0000
0000
,
0001
0000
0000
0000
,
0001
0000
0000
0000
,
0020
0000
0030
0000
,
0000
0000
1000
0000
,
1000
0000
0000
0000
,
0001
0000
0001
0000
,
0001
0000
0000
0000
,
0010
0000
0000
0000
,
0100
0000
0000
0000
,
0100
0000
0000
0000
,
2000
0000
3000
0000
,
0000
0000
0001
0000
,
0002
0000
0003
0000
,
0000
0000
0200
0000
,
0300
0000
0000
0000
;

//--------------- dance-single - RxSteps ----------------
#NOTES:
     dance-single:
     RxSteps:
     Easy:
     4:
     0,0,0,0,0:
0000
0000
0000
0000
,
1000
0000
0000
0000
0010
0000
0000
0010
,
0000
0000
0000
1000
0000
0000
0000
0000
,
0001
0000
0000
0000
0001
0000
0000
0100
,
0000
0000
0000
0100
0000
0000
0000
0000
,
0010
0000
0000
0000
1000
0000
0000
0010
,
0000
0000
0000
0010
0000
0000
0000
0000
,
1000
0000
0000
0000
0001
0000
0000
1000
,
0000
0000
0000
1000
0000
0000
0000
0000
,
0001
0000
0010
0000
,
0100
0000
1000
0000
,
0001
0000
0001
0000
,
1000
0000
0010
0000
,
0100
0000
0010
0000
,
0100
0000
0100
0000
,
0001
0000
1000
0000
,
0100
0000
0010
0000
,
0001
0000
0001
0000
,
1000
0001
1000
0000
,
0100
0000
0010
0000
,
0002
0000
0003
0000
,
1001
0000
0001
0000
,
0100
0000
0000
0001
0000
0100
0000
0000
,
0001
0000
0000
1000
,
0000
0000
0000
0010
0000
1000
0000
0000
,
0020
0000
0000
0000
,
0030
0000
1000
0000
,
0001
0000
0010
0000
,
0100
0000
1000
0000
,
0001
0000
0100
0000
,
0001
0000
0100
0000
,
0010
0000
0000
0000
,
0010
0000
1000
0000
,
1000
0000
0000
0000
0001
0000
0000
1000
,
0000
0010
1000
0010
,
2000
0000
0000
0000
,
3000
0000
0001
0000
,
0100
0000
0200
0000
,
0000
0300
0000
0000
,
0001
0000
0002
0000
,
0000
0003
0000
0000
,
0010
0000
0100
0000
,
0000
0000
0000
1000
0000
0000
0000
0000
,
0000
0002
0000
0000
0000
0000
0000
0000
,
0000
0000
0003
0000
,
0100
0000
0000
0000
,
1000
0000
0100
0000
,
0010
0000
0001
0000
,
0001
0000
0100
0000
,
1001
0000
1000
0000
,
0010
0000
0000
1000
0000
0010
0000
0000
,
1000
0000
0000
0001
,
0000
0000
0000
0100
0000
0001
0000
0000
,
0200
0000
0000
0000
,
0300
0000
0001
0000
,
1000
0000
0100
0000
,
0010
0000
0001
0000
,
1000
0000
0010
0000
,
1000
0000
0010
0000
,
0100
0000
0000
0000
,
0100
0000
0001
0000
,
0001
0000
0000
0000
1000
0000
0000
0001
,
0000
0100
0001
0100
,
0002
0000
0000
0000
,
0003
0000
1000
0000
,
0010
0000
0010
0000
,
0010
0000
1000
0000
,
1000
0000
1000
0000
,
0001
0000
0100
0000
,
0002
0000
0000
0000
,
0003
0000
1000
0000
,
2000
0000
0000
0000
,
3000
0000
0010
0000
,
1000
0000
0010
0000
,
0010
0000
0100
0000
,
0001
0000
0001
0000
,
0010
0000
0010
0000
,
1000
0000
0001
0000
,
1000
0000
0100
0000
,
1000
0000
1000
0000
,
0001
0000
0100
0000
,
0002
0000
0000
0000
,
0003
0000
0000
0000
,
1000
0000
0000
0000
,
0010
0000
1000
0000
,
0010
0000
0010
0000
,
1000
0000
0001
0000
,
0010
0000
0010
0000
,
0100
0000
0100
0000
,
0001
0000
0100
0000
,
0001
0000
0100
0000
,
0010
0000
0000
0000
,
0010
0000
1000
0000
,
1000
0000
0000
0000
0001
0000
0000
1000
,
0000
0010
1000
0010
,
2000
0000
0000
0000
,
3000
0000
0002
0000
,
0003
0000
0000
0000
;

//--------------- dance-single - RxSteps ----------------
#NOTES:
     dance-single:
     RxSteps:
     Medium:
     6:
     0,0,0,0,0:
0000
0000
0000
0000
,
1000
0000
0010
0000
1000
0000
0000
0001
,
0000
1000
0000
0100
0000
1000
0000
0000
,
0100
0000
0010
0000
0100
0000
0000
1000
,
0000
0100
0000
1000
0000
0010
0000
0000
,
0100
0000
0010
0000
1000
0000
0000
0001
,
0000
1000
0000
0100
0000
0010
0000
0000
,
0001
0000
1000
0000
0001
0000
0000
0100
,
0000
0010
0000
0100
0000
0001
0000
0000
,
1000
0010
0100
0001
,
0010
0100
1000
0001
,
1000
0100
0010
0001
,
1000
0010
0100
0001
,
0100
0001
0010
0001
,
1000
0100
1000
0010
,
0100
0001
0010
0002
,
0000
0000
0000
2000
0000
0000
3003
0000
,
0001
0000
1000
0000
0010
1000
0010
1000
,
0001
0100
0001
0010
,
0001
0000
1000
0000
0010
1000
0010
1000
,
0010
0000
0100
0000
,
1000
0000
0001
0100
0001
0000
1000
0010
,
1000
0000
0000
0010
0000
0010
0000
0000
,
1000
0001
1000
0001
1000
0001
0000
0000
,
0100
0000
0010
0000
,
0101
0000
0000
0100
0001
0000
0001
0100
,
0000
0001
1000
0000
0010
0000
0010
0000
,
2000
0000
0002
3000
,
0203
0000
0301
0001
,
1000
0000
0010
1000
0010
0000
0100
0001
,
0100
0000
0000
0001
0000
0001
0000
0000
,
1000
0001
1000
0001
1000
0001
0000
0000
,
0010
0000
0000
1000
0000
1000
0000
0000
,
0001
0100
0000
0100
0001
0000
1000
0001
,
0000
0001
1000
0000
0010
0000
0010
0000
,
1000
0001
0000
0001
1000
0000
0010
1000
,
0000
1000
0010
0000
0200
0000
0300
0000
,
0002
0000
0200
0000
,
0000
0303
0000
0000
0000
1000
0001
0000
,
0200
0000
0000
0000
0000
0002
0000
0000
,
0000
0303
0000
0000
0000
0001
1000
0000
,
0200
0000
2000
0000
,
3300
0000
0000
0001
0000
2000
0000
0000
,
0000
0020
0000
0000
0000
0000
0000
0000
,
0000
3030
0000
0000
,
0001
0000
0100
0000
0010
0100
0010
0100
,
0010
1000
0010
1000
,
0001
0000
0010
0000
0001
0010
0001
0010
,
0001
1000
0010
0100
,
0001
0000
1000
0010
1000
0000
0010
0100
,
0010
0000
0000
0010
0000
0010
0000
0000
,
1000
0010
1000
0010
1000
0010
0000
0000
,
1000
0000
0000
0001
0000
0001
0000
0000
,
1000
0010
0000
0010
1000
0000
0010
1000
,
0000
0001
1000
0000
0010
0000
0010
0000
,
2000
0000
3020
0000
,
1000
0000
0100
0130
,
0001
0000
0100
0001
0100
0000
0001
1000
,
0001
0000
0000
0100
0000
0100
0000
0000
,
1000
0001
1000
0001
1000
0001
0000
0000
,
1000
0000
0000
0010
0000
0010
0000
0000
,
1000
0100
0000
0100
1000
0000
1000
0100
,
0000
1000
0001
0000
0100
0000
0100
0000
,
0001
1000
0000
1000
0001
0000
0001
0010
,
0000
0010
0001
0000
1000
0000
1000
0000
,
0001
0010
0100
1000
,
0001
0010
0100
1000
,
0010
0010
1000
1000
,
0001
0100
0010
1000
,
0001
0000
0000
0001
0100
0000
0100
0001
,
0000
1000
0001
0000
0100
0000
0100
0000
,
0001
1000
0000
1000
0001
0000
0100
0001
,
0000
1000
0001
0000
0100
0010
0100
0010
,
0200
0000
0000
0000
,
0000
0000
0300
0000
,
0001
0000
0100
0001
0100
0001
0000
1000
,
0000
0010
0000
1000
0010
1000
0000
0000
,
0001
0000
1000
0001
1000
0001
0000
0100
,
0000
0010
0000
1000
0010
1000
0000
0000
,
0001
0000
0010
0001
0010
0001
0000
1000
,
0000
0100
0000
1000
0100
1000
0000
0000
,
0001
0000
1000
0001
1000
0000
0001
0100
,
0001
0000
0000
1000
0000
1000
0000
0020
,
0000
0000
0030
0000
,
0100
0000
0001
0000
,
2002
0000
0000
0000
,
3003
0000
0001
0001
,
1000
0100
0010
0001
,
0010
0100
1000
1000
,
0001
0000
0100
0001
0100
0000
0010
1000
,
0010
0000
0000
1000
0000
1000
0000
0000
,
0010
1000
0010
1000
0010
1000
0000
0000
,
0100
0000
0001
0001
,
1000
0010
0000
0010
1000
0000
0001
1000
,
0000
1000
0001
0000
0100
0000
0100
0000
,
0001
1000
0000
1000
0001
0000
0100
0001
,
0000
0001
0100
0000
0020
0000
0000
0000
,
0030
0000
0000
0000
;

//--------------- dance-single - RxSteps ----------------
#NOTES:
     dance-single:
     RxSteps:
     Hard:
     8:
     0,0,0,0,0:
0000
0000
0000
0000
,
0001
0000
0100
0010
0100
0010
1000
0001
,
0000
0100
0010
1000
0000
0100
0000
1000
,
0010
0000
0100
0001
0100
0010
1000
0001
,
0000
1000
0100
0010
0000
0100
0000
1000
,
0010
0000
0100
0001
0100
0010
1000
0100
,
0000
1000
0001
0010
0000
0001
0000
1000
,
0001
0000
0100
0001
1000
0010
1000
0100
,
0000
1000
0020
0200
0300
0000
1030
0000
,
0001
0100
0010
0100
0001
0010
0001
2000
,
3000
0010
0100
0010
1000
0100
1000
0001
,
1000
0001
0100
0010
1000
0001
0010
0200
,
0300
0010
0100
1000
0100
1000
0010
0100
,
0001
0010
0001
0100
0001
0010
0001
2000
,
3000
0001
0100
0001
0010
0100
1000
0001
,
0100
0010
1000
0001
0100
0010
0100
0002
,
0003
0100
0010
1000
0001
1000
0010
0000
,
0100
0000
0001
0000
0010
0001
0010
0001
,
1000
0100
1000
0010
,
0100
0000
0001
0000
1000
0100
1000
0100
,
0010
0000
0000
0000
0001
0000
0000
0000
0200
0002
0000
0000
0303
0000
0000
0000
,
0110
0000
1000
0010
1000
0001
0100
0010
,
0100
0001
0010
0002
0000
2003
3000
0010
,
0100
0010
1000
0001
0100
0010
1000
0100
,
1000
0100
1000
0002
0000
0200
0303
0000
,
0010
0100
0000
0010
0100
0000
0001
0010
,
0000
0001
2000
0000
0010
0000
3001
0000
,
1000
0010
0100
0010
1000
0001
0010
0001
,
1000
0010
1000
0010
0011
0000
1010
0000
,
0001
0000
1000
0100
0010
0001
1000
0100
,
0010
0001
1000
0001
0000
0010
0000
0001
,
0100
0010
0100
0010
0100
0001
1000
0010
,
0100
0001
1000
0020
0000
2000
3030
0000
,
0001
0100
0000
0010
0100
0000
0001
1000
,
0000
0100
0010
0000
1100
0000
0101
0000
,
1000
0010
0000
1000
0001
0000
0100
0001
,
0000
0100
0010
0000
1000
0100
1000
0100
,
1000
0010
0000
0100
0001
0100
0010
1000
,
0000
0010
0100
0001
0000
0010
0000
0001
,
0100
0000
0001
0010
0001
0100
0010
1000
,
0000
0100
1000
0010
0000
0100
0000
0010
,
0100
0000
0001
1000
0100
1000
0001
0010
,
0000
0100
1000
0010
0000
0100
0000
0001
,
0010
0000
0001
1000
0100
0010
0100
0010
,
0000
0001
0100
0001
0000
1000
0000
0000
,
0010
0000
1000
0000
0100
1000
0100
1000
,
0001
0010
0001
0100
,
0010
0000
1000
0000
0001
0010
0001
0010
,
0100
0000
0000
0000
1000
0000
0000
0000
0020
2000
0000
0000
3030
0000
0000
0000
,
0110
0000
0001
0100
0001
1000
0010
0100
,
0010
1000
0100
2000
0000
3002
0003
0100
,
0010
0100
0001
1000
0010
0100
0001
0010
,
0001
0010
0001
2000
0000
0020
3030
0000
,
0100
0010
0000
0100
0010
0000
1000
0100
,
0000
1000
0002
0000
0100
0000
1003
0000
,
0001
0100
0010
0100
0001
1000
0100
1000
,
0001
0100
0001
0100
1100
0000
0101
0000
,
1000
0000
0001
0010
0100
1000
0001
0010
,
0100
1000
0001
1000
0000
0100
0000
1000
,
0010
0100
0010
0100
0010
1000
0001
0100
,
0010
1000
0001
0200
0000
0002
0303
0000
,
1000
0010
0000
0100
0010
0000
1000
0001
,
0000
0010
0100
0000
0011
0000
1010
0000
,
0001
0100
0000
0001
1000
0000
0010
1000
,
0000
0010
0100
0000
0001
0010
0001
0010
,
0100
0010
0001
1000
0010
0100
0001
1000
,
0010
0100
0001
1000
0001
0010
0100
1000
,
0010
0100
0010
0100
0001
1000
0010
0100
,
0010
1000
0100
0010
0100
0010
0002
0003
,
1100
0000
0000
0001
0100
0000
0010
0100
,
0000
1000
0001
0000
1010
0000
0011
0000
,
1000
0100
0000
1000
0010
0000
0001
0100
,
0000
0001
0100
0010
1000
0001
1000
0001
,
1000
0000
0010
1000
0001
0100
0000
0010
,
0000
0100
0000
0010
1000
0010
0000
0000
,
0100
0000
0001
1000
0100
0010
0000
0100
,
0000
1000
0000
0001
0100
0001
0000
0000
,
1000
0000
0001
1000
0001
0100
0000
0001
,
0000
0010
0000
0100
0010
0100
0000
0000
,
1001
0000
0001
0100
0001
1000
0000
0110
,
0000
0001
0000
1000
0010
0100
0000
0000
,
1000
0000
0010
1000
0010
0100
0010
1000
,
0010
0100
0010
2000
0000
3001
0000
0010
,
0001
0010
0001
0010
0001
0000
0100
0001
,
0100
0010
0100
0001
2000
0020
3030
0000
,
0100
0010
0000
0100
0010
0000
0001
0100
,
0000
0001
2000
0000
0100
0000
3001
0000
,
1000
0100
0010
0100
1000
0001
0100
0001
,
1000
0100
1000
0100
0101
0000
1100
0000
,
0001
0000
1000
0010
0100
0001
1000
0010
,
0100
0001
1000
0001
0000
0100
0000
0001
,
0010
0100
0010
0100
0010
0001
1000
0100
,
0010
0001
1000
0200
0000
2000
3300
0000
,
0001
0010
0000
0100
0010
0000
0001
1000
,
0000
0010
0100
0000
1010
0000
0011
0000
,
1000
0100
0000
1000
0001
0000
0010
0001
,
0000
0010
0100
0000
1000
0010
1000
0010
;
