#TITLE:Enemies;
#SUBTITLE:;
#ARTIST:V O E;
#TITLETRANSLIT:;
#SUBTITLETRANSLIT:;
#ARTISTTRANSLIT:;
#GENRE:;
#CREDIT:RxSteps;
#MUSIC:Enemies.ogg;
#BANNER:Enemies.png;
#BACKGROUND:Enemies-bg.png;
#CDTITLE:cdtitle.png;
#SAMPLESTART:63.474;
#SAMPLELENGTH:19.310;
#SELECTABLE:YES;
#OFFSET:1.354;
#BPMS:0.000=174.000;
#STOPS:;
#BGCHANGES:;
#FGCHANGES:;

//--------------- dance-single - RxSteps ----------------
#NOTES:
     dance-single:
     RxSteps:
     Beginner:
     2:
     0,0,0,0,0:
0000
0000
0000
0000
,
0001
0000
0000
0000
,
0100
0000
0000
0000
,
0100
0000
0000
0000
,
0010
0000
0000
0000
,
1000
0000
0000
0000
,
0001
0000
0000
0000
,
0001
0000
0000
0000
,
1000
0000
0000
0000
,
1000
0000
0000
0000
,
0010
0000
0000
0000
,
0100
0000
0000
0000
,
0100
0000
0000
0000
,
0010
0000
0000
0000
,
0010
0000
0000
0000
,
1000
0000
0000
0000
,
1000
0000
0000
0000
,
0001
0000
0000
0000
,
0100
0000
0100
0000
,
0100
0000
0000
0000
,
0001
0000
0000
0000
,
2000
0000
0000
0000
,
3000
0000
0000
0000
,
0010
0000
0010
0000
,
0010
0000
0000
0000
,
0002
0000
0000
0000
,
0003
0000
0000
0000
,
0100
0000
0000
0000
,
0001
0000
0000
0000
,
1000
0000
0000
0000
,
0001
0000
0000
0000
,
0010
0000
0010
0000
,
0010
0000
0000
0000
,
1001
0000
0000
0000
,
0010
0000
0000
0000
,
0110
0000
0000
0000
,
0100
0000
0000
0000
,
1100
0000
0000
0000
,
1000
0000
0000
0000
,
0001
0000
0001
0000
,
0001
0000
0000
0000
,
0011
0000
0000
0000
,
0010
0000
0000
0000
,
1100
0000
0000
0000
,
1000
0000
0000
0000
,
0101
0000
0000
0000
,
0001
0000
0000
0000
,
1000
0000
1000
0000
,
1000
0000
0000
0000
,
0010
0000
0000
0000
,
1000
0000
0000
0000
,
0010
0000
0010
0000
,
0010
0000
0000
0000
,
1000
0000
0000
0000
,
0001
0000
0000
0000
,
0100
0000
0100
0000
,
0100
0000
0000
0000
,
0010
0000
0000
0000
,
1000
0000
0000
0000
,
0001
0000
0000
0000
,
0001
0000
0000
0000
,
0010
0000
0000
0000
,
0010
0000
0000
0000
,
1000
0000
1000
0000
,
1000
0000
0000
0000
,
0001
0000
0000
0000
,
0010
0000
0000
0000
,
0100
0000
0000
0000
,
0100
0000
0000
0000
,
0010
0000
0000
0000
,
0001
0000
0000
0000
,
0010
0000
0000
0000
,
1000
0000
0000
0000
,
0100
0000
0000
0000
,
0100
0000
0000
0000
,
0001
0000
0000
0000
,
1000
0000
0000
0000
,
0100
0000
0000
0000
,
0010
0000
0000
0000
,
0010
0000
0000
0000
,
1000
0000
0000
0000
,
0001
0000
0001
0000
,
0001
0000
0000
0000
,
0100
0000
0100
0000
,
0100
0000
0000
0000
,
0010
0000
0010
0000
,
0010
0000
0000
0000
,
1000
0000
1000
0000
,
1000
0000
0000
0000
,
0002
0000
0000
0000
,
0003
0000
0000
0000
,
0200
0000
0000
0000
,
0300
0000
0000
0000
,
0001
0000
0000
0000
,
1000
0000
0000
0000
,
0100
0000
0100
0000
,
0100
0000
0000
0000
,
1001
0000
0000
0000
,
0001
0000
0000
0000
,
0011
0000
0000
0000
,
0010
0000
0000
0000
,
0110
0000
0000
0000
,
1000
0000
0000
0000
,
0100
0000
0100
0000
,
0100
0000
0000
0000
,
0011
0000
0000
0000
,
0001
0000
0000
0000
,
1001
0000
0000
0000
,
1000
0000
0000
0000
,
0101
0000
0000
0000
,
0100
0000
0000
0000
,
0001
0000
0001
0000
,
0001
0000
0000
0000
,
1001
0000
0000
0000
,
1000
0000
0000
0000
,
1100
0000
0000
0000
,
0100
0000
0000
0000
,
0110
0000
0000
0000
,
0001
0000
0000
0000
,
0010
0000
0010
0000
,
0010
0000
0000
0000
,
1100
0000
0000
0000
,
1000
0000
0000
0000
,
1001
0000
0000
0000
,
0001
0000
0000
0000
,
1010
0000
0000
0000
,
0010
0000
0000
0000
,
1000
0000
1000
0000
,
1000
0000
0000
0000
,
0001
0000
0000
0000
,
0100
0000
0000
0000
,
0010
0000
0010
0000
,
0010
0000
0000
0000
,
1000
0000
0000
0000
,
0001
0000
0000
0000
,
0100
0000
0100
0000
,
0100
0000
0000
0000
,
0001
0000
0000
0000
,
0010
0000
0000
0000
,
0010
0000
0000
0000
,
0001
0000
0000
0000
,
1000
0000
0000
0000
,
0010
0000
0000
0000
,
1000
0000
1000
0000
,
1000
0000
0000
0000
,
0020
0000
0000
0000
,
0000
0000
0000
0000
,
0000
0000
0000
0000
,
0000
0000
0000
0000
,
0030
0000
0000
0000
;

//--------------- dance-single - RxSteps ----------------
#NOTES:
     dance-single:
     RxSteps:
     Easy:
     4:
     0,0,0,0,0:
0000
0000
0000
0000
,
1000
0001
0100
0001
,
1000
0010
0100
0001
,
0100
0010
1000
0100
,
1000
0010
0100
0001
,
1000
0010
0200
0001
,
0310
0100
0002
1000
,
0103
0001
1000
0010
,
1000
0100
0010
0100
,
1000
0001
0001
0100
,
0010
1000
0001
0010
,
0100
1000
0100
0010
,
0001
0100
0010
0100
,
0001
0001
1000
0020
,
0000
0000
0000
0000
,
0000
0000
0000
0000
,
0030
0000
1000
0100
,
0010
0000
0000
0001
0000
0100
0000
0010
,
0000
0000
1000
0100
,
0010
0100
1000
0001
,
0010
0100
1000
0000
,
0200
0000
0000
1000
0000
0000
0000
1000
,
0300
0000
0001
0010
,
0100
0010
0001
0010
,
0100
0000
1000
0001
,
0200
0000
0000
0010
0000
0000
0001
0000
,
0300
0000
0001
1000
,
0020
0000
0030
1000
0000
0010
0000
0200
,
0000
0300
0001
0010
,
0100
0000
0000
0100
0000
1000
0000
0100
,
0000
0000
1000
0100
,
0010
0010
0001
0001
,
1000
0001
0100
0000
,
0101
0000
0000
0000
0000
0001
0100
0000
,
0001
0010
0100
0000
,
1100
0000
0000
0000
0000
1000
0100
0000
,
1000
0001
0010
0000
,
0011
0000
0000
0000
0000
0001
0010
0000
,
0001
1000
0100
1000
,
0002
0003
0002
0000
,
0103
0000
0001
1000
,
0100
0000
0000
0000
1000
0100
0000
0000
,
1000
0001
0100
0010
,
1000
0000
0000
0000
0000
1000
0010
0000
,
1000
0001
0010
0100
,
0010
0000
0001
0000
0000
0010
0001
0000
,
0100
0001
0100
0010
,
2000
3000
2000
0000
,
3100
0000
1000
0001
,
0100
0000
0000
0010
0000
0010
0000
2000
,
0000
0000
3000
0000
,
0001
0001
0001
0100
,
0010
0100
0001
1000
,
0100
0000
0000
1000
0000
0100
0000
0020
,
0000
0000
0030
0000
,
0001
1000
0001
1000
,
0010
0100
0001
0010
,
0200
0000
0000
1000
0000
0000
1000
0000
,
0300
0000
1000
0100
,
0010
0000
0000
0010
0000
0001
0000
0200
,
0000
0300
0001
0100
,
0020
0000
0000
1000
0000
1030
0000
0010
,
0000
0000
1000
0001
,
0100
0100
0001
0100
,
0010
1000
0001
0010
,
0200
0300
1000
0100
,
0010
0010
0100
1000
,
0001
1000
0010
0100
,
0010
1000
0100
0010
,
0001
1000
0001
0100
,
0010
0010
1000
0001
,
0100
0001
1000
0100
,
0010
0001
0010
0100
,
1000
1000
0001
0001
,
0100
0001
1000
0010
,
0100
0001
1000
0100
,
0010
0100
1000
0001
,
0010
0001
0200
0000
,
0010
0000
0001
0000
,
0010
0000
0001
0000
,
0310
0000
1000
0001
,
0100
0000
0000
0010
0000
0010
0000
1000
,
0000
0000
0001
0010
,
0100
0100
1000
0100
,
0020
0000
0031
0000
,
0200
0000
0000
0001
0000
0000
0000
0010
,
0300
0000
0001
1000
,
0100
0100
1000
0001
,
0100
0100
0001
0100
,
0020
0000
0000
1000
0000
0000
1000
0000
,
0030
0000
0010
1000
,
0001
0000
0000
0100
0000
0100
0000
0010
,
0000
0000
1000
0100
,
0010
0000
0000
0010
0000
0001
0000
0100
,
0000
0000
0001
0100
,
0010
0010
1000
1000
,
0001
1000
0010
0000
,
1010
0000
0000
0000
0000
1000
0010
0000
,
1000
0100
0010
0000
,
0011
0000
0000
0000
0000
0001
0010
0000
,
0001
1000
0100
0000
,
1100
0000
0000
0000
0000
1000
0100
0000
,
1000
0001
0010
0001
,
2000
3000
2000
0000
,
3010
0000
1000
0001
,
0010
0000
0000
0000
0001
0010
0000
0000
,
0001
1000
0010
0100
,
0001
0000
0000
0000
0000
0001
0100
0000
,
0001
1000
0100
0010
,
0100
0000
1000
0000
0000
0100
1000
0000
,
0010
1000
0010
0100
,
0002
0003
0002
0000
,
0013
0000
0001
0000
,
1100
0000
0000
0000
0000
1000
0100
0000
,
1000
0010
0100
0000
,
0101
0000
0000
0000
0000
0001
0100
0000
,
0001
1000
0010
0000
,
1010
0000
0000
0000
0000
1000
0010
0000
,
1000
0001
0100
0001
,
2000
3000
2000
0000
,
3100
0000
1000
0001
,
0100
0000
0000
0000
0001
0100
0000
0000
,
0001
1000
0100
0010
,
0001
0000
0000
0000
0000
0001
0010
0000
,
0001
1000
0010
0100
,
0010
0000
1000
0000
0000
0010
1000
0000
,
0100
1000
0100
0010
,
0002
0003
0002
0000
,
0103
0000
0001
1000
,
0010
0000
0000
0100
0000
0100
0000
0002
,
0000
0000
0003
0000
,
1000
1000
1000
0010
,
0100
0010
1000
0001
,
0010
0000
0000
0001
0000
0010
0000
0200
,
0000
0000
0300
0000
,
1000
0001
1000
0001
,
0100
0010
1000
0100
,
0020
0000
0000
0001
0000
0000
0001
0000
,
0030
0000
0001
0010
,
0100
0000
0000
0100
0000
1000
0000
0020
,
0000
0030
1000
0010
,
0200
0000
0000
0001
0000
0301
0000
0100
,
0000
0000
0001
1000
,
0010
0010
1000
0010
,
0100
0001
1000
0100
,
0020
0000
0000
0000
,
0000
0000
0000
0000
,
0000
0000
0000
0000
,
0000
0000
0000
0000
,
0030
0000
0000
0000
;

//--------------- dance-single - RxSteps ----------------
#NOTES:
     dance-single:
     RxSteps:
     Medium:
     8:
     0,0,0,0,0:
0000
0000
0000
0000
,
0001
0000
0000
0000
0010
0000
0001
0000
0010
0000
0001
0000
0010
0000
0000
0001
,
0000
0000
0000
0000
1000
0000
0001
0000
0100
0000
0000
0000
0010
0000
0000
0100
,
0010
0100
0010
1000
,
0010
1000
0001
0100
,
0010
0000
1000
0010
0100
0000
0010
0100
,
0010
0000
0000
1000
0000
0000
0010
0000
1000
0000
0000
0000
0001
0000
1000
0000
,
0001
0010
0100
1000
,
0100
0000
0010
0000
0001
0000
0010
0001
,
0010
0000
0001
0100
0010
0000
1000
0000
,
0001
0000
0100
0001
0000
0100
0010
0000
,
1000
0100
0010
0001
,
0100
0000
0010
0100
0010
0000
0100
0001
,
0000
0000
1000
0000
0000
0000
0001
0000
0100
0000
0000
0001
0000
0000
1000
0000
,
0000
0020
0000
0000
,
0000
0000
0000
0000
,
0030
0000
0000
0000
1000
0001
1000
0001
,
1000
0000
0000
0200
0000
0301
0000
0200
,
0000
0000
0300
0000
1000
0100
1000
0100
,
1000
0001
0100
0010
,
1000
0010
1000
0000
0001
1000
0001
1000
,
0020
0000
0000
0100
0000
0000
1030
0010
,
0000
0000
0000
0000
1000
0001
1000
0001
,
1000
1000
0010
0010
,
0100
0001
0100
0000
0001
0000
0200
0000
,
1000
0300
0000
0200
0000
0000
0002
0000
,
0303
0000
0000
0000
1000
0001
1000
0001
,
2000
0000
0000
3010
0000
0100
0000
0002
,
0000
0000
0203
0310
,
1000
0000
0000
0200
0000
0001
0300
0200
,
0000
0000
0300
0000
1000
0100
1000
0100
,
1000
0001
0100
0010
,
1000
0010
1000
0000
0002
0000
0003
0000
,
0110
0000
1010
0000
0000
0001
0100
0000
,
0110
0000
0011
0000
0001
0010
0001
0010
,
0001
0000
1010
0000
0000
1000
0001
0000
,
0110
0000
1010
0000
1000
0010
1000
0010
,
0100
0000
0101
0000
0000
0001
1000
0000
,
0110
0000
1001
0000
0001
1000
0001
2000
,
0010
0000
3020
0000
,
0130
0000
0000
0000
0001
0100
0001
0100
,
0010
0000
1010
0000
0000
1000
0001
0000
,
0011
0000
1010
0000
1000
0010
1000
0010
,
0100
0000
0101
0000
0000
0001
1000
0000
,
0110
0000
1100
0000
1000
0100
1000
0100
,
0010
0000
0011
0000
0000
0001
1000
0000
,
0101
0000
1010
0000
1000
0010
1000
0020
,
0100
0000
0200
0030
,
0301
0000
0000
0000
0001
1000
0001
1000
,
0200
0000
0000
0301
0000
0200
0000
2000
,
0000
0000
0000
3300
,
0101
1100
0101
1000
,
0010
1000
0020
0000
0000
0000
0230
0000
,
1000
0300
0000
0200
0000
0302
0000
0200
,
0000
0000
0303
0000
,
1010
0011
1010
0001
,
1000
0001
1000
0000
0010
0000
0100
0000
,
0002
0000
0000
0023
0000
0000
0230
0000
,
0000
0000
0300
0000
1000
0100
1000
0100
,
2000
0000
0000
3002
0000
0203
0000
1000
,
0000
0000
0000
0300
0100
0000
0001
0000
,
0020
0000
0000
0001
0000
0100
0000
0032
,
0000
0000
0000
0003
1000
0100
1000
0100
,
1000
0001
0100
0010
,
1000
0010
1000
0000
0001
1000
0001
1000
,
0010
0000
0000
1000
0001
1000
0001
1000
,
0010
0000
0000
0000
0100
0000
0010
0000
0100
0000
0000
0001
0000
0000
1000
0000
,
0001
0100
0010
1000
,
0100
0010
0001
0100
,
0010
0000
1000
0010
1000
0000
0001
0100
,
0001
0000
1000
0001
1000
0000
0010
0100
,
0010
1000
0010
0100
,
0010
0000
1000
0000
0001
0000
0010
0001
,
0010
0000
0001
1000
0001
0000
0100
0000
,
0010
0000
0100
0010
0100
0000
0001
0100
,
0001
0200
1300
0200
,
0302
0000
0103
0000
0001
0100
0010
0100
,
0010
0000
0000
0000
1000
0000
0001
0000
1000
0000
0000
0001
0000
0000
0010
0000
,
0000
0200
1300
0200
,
0301
0200
1300
0200
,
1300
0000
0000
0000
0001
1000
0001
1000
,
0010
0000
0000
1000
0000
0100
0000
0020
,
0000
0000
0030
0000
0001
0010
0001
0010
,
0002
0203
1300
0200
,
0301
0100
0001
0000
1000
0010
1000
0010
,
0200
0000
0000
0001
0000
0000
0000
0001
,
0000
0000
0300
0000
0001
0100
0001
0100
,
0010
1000
0100
1000
,
0001
0100
0001
0000
1000
0000
0100
0000
,
0020
0000
0000
0230
0000
0000
2300
0000
,
0000
0000
3000
0000
0001
1000
0001
1000
,
0200
0000
0000
2300
0000
3200
0000
0320
,
0000
0000
0030
0000
0001
0100
0001
0100
,
0020
2030
3200
0001
,
0000
0000
0300
0000
0100
1000
0100
1000
,
0001
0100
0010
1000
,
0001
1000
0001
0000
0200
0000
0300
0000
,
0110
0000
0101
0000
0000
1000
0010
0000
,
0110
0000
1100
0000
1000
0100
1000
0100
,
1000
0000
0101
0000
0000
0001
1000
0000
,
0110
0000
0101
0000
0001
0100
0001
0100
,
0010
0000
1010
0000
0000
1000
0001
0000
,
0110
0000
1001
0000
1000
0001
1000
0002
,
0100
0000
0203
0000
,
0310
0000
0000
0000
1000
0010
1000
0010
,
0100
0000
0101
0000
0000
0001
1000
0000
,
1100
0000
0101
0000
0001
0100
0001
0100
,
0010
0000
1010
0000
0000
1000
0001
0000
,
0110
0000
0011
0000
0001
0010
0001
0010
,
0100
0000
1100
0000
0000
1000
0001
0000
,
1010
0000
0101
0000
0001
0100
0001
0200
,
0010
0000
0020
0300
,
1030
0000
0000
0000
1000
0001
1000
0001
,
0010
0000
0011
0000
0000
1000
0100
0000
,
0110
0000
1010
0000
1000
0010
1000
0010
,
1000
0000
0011
0000
0000
0001
1000
0000
,
0110
0000
0011
0000
0001
0010
0001
0010
,
0100
0000
1100
0000
0000
1000
0001
0000
,
0110
0000
1001
0000
1000
0001
1000
0002
,
0010
0000
0023
0000
,
0130
0000
0000
0000
1000
0100
1000
0100
,
0010
0000
0011
0000
0000
0001
1000
0000
,
1010
0000
0011
0000
0001
0010
0001
0010
,
0100
0000
1100
0000
0000
1000
0001
0000
,
0110
0000
0101
0000
0001
0100
0001
0100
,
0010
0000
1010
0000
0000
1000
0001
0000
,
1100
0000
0011
0000
0001
0010
0001
0020
,
0100
0000
0200
0030
,
1300
0000
0000
0000
1000
0001
1000
0001
,
0020
0000
0000
0031
0000
0020
0000
2000
,
0000
0000
0000
3030
,
0011
1010
0011
1000
,
0100
1000
0200
0000
0000
0000
0320
0000
,
1000
0030
0000
0020
0000
0032
0000
0020
,
0000
0000
0033
0000
,
1100
0101
1100
0001
,
1000
0001
1000
0000
0100
0000
0010
0000
,
0002
0000
0000
0203
0000
0000
0320
0000
,
0000
0000
0030
0000
1000
0010
1000
0010
,
2000
0000
0000
3002
0000
0023
0000
1000
,
0000
0000
0000
0030
0010
0000
0001
0000
,
0200
0000
0000
0001
0000
0010
0000
0302
,
0000
0000
0000
0003
1000
0010
1000
0010
,
1000
0001
0010
0100
,
1000
0100
1000
0000
0001
1000
0001
1000
,
0200
0000
0000
0000
,
0000
0000
0000
0000
,
0000
0000
0000
0000
,
0000
0000
0000
0000
,
0300
0000
0000
0000
;

//--------------- dance-single - RxSteps ----------------
#NOTES:
     dance-single:
     RxSteps:
     Hard:
     9:
     0,0,0,0,0:
0000
0000
0000
0000
,
1000
0000
0000
0000
0001
0000
0100
0000
0010
0000
0100
0000
0010
0000
0000
1000
,
0000
0000
0000
0000
0010
0000
0100
0000
0001
0000
0000
0100
0000
0000
0001
0000
,
1000
0100
0010
0100
,
1000
0001
0100
0010
,
1000
0000
0001
1000
0001
0000
0100
0010
,
1000
0000
0100
0010
0001
0000
1000
0100
,
0010
0100
1000
0001
,
0010
0000
0100
0010
0100
0000
1000
0100
,
0010
0000
0001
0010
0100
0000
0010
0000
,
0100
0000
1000
0010
0100
0000
0010
0100
,
0001
1000
0001
0100
,
0001
0000
1000
0100
1000
0000
0100
1000
,
0001
0000
0000
0000
1000
0000
0001
0000
1000
0000
0000
0010
0000
0000
0100
0000
,
0000
0010
0100
0001
,
0010
0001
0100
0010
,
1000
0000
0000
0000
0001
0010
0100
1000
,
0001
0000
0000
0001
0000
0200
0000
1000
,
0000
0000
0000
0000
1300
0100
0010
0100
,
0001
0001
0100
0010
,
1000
0100
0010
0000
0001
0010
0100
1000
,
0002
0000
0000
0010
0000
2003
0000
0020
,
0000
0000
3030
0000
1000
0010
0100
0001
,
0010
0100
1000
0100
,
1000
0100
0010
0000
0001
0100
0010
1000
,
0200
0000
0000
0001
0000
0000
1000
0000
,
0000
0001
0000
0000
0301
0100
0010
0001
,
2000
0000
0000
3001
0000
1000
0000
0200
,
0000
0000
0300
0000
1000
0010
0100
0001
,
2000
0000
0000
0010
0000
0100
3000
0002
,
0000
0000
0000
0003
0100
0010
1000
0100
,
1000
0001
0010
0001
,
1000
0100
0010
0000
0001
1000
0001
0100
,
0001
0000
0110
1000
0010
0100
0010
1000
,
0001
1000
0100
1000
0001
0010
0100
1000
,
0010
0000
0101
0001
0100
0010
0100
0001
,
0010
0001
0100
0010
1000
0100
0010
0001
,
0100
0000
1010
1000
0010
0100
0010
1000
,
0100
0010
0100
0010
0001
0100
0010
1000
,
0002
0000
2000
3003
,
0220
0000
0330
0000
1000
0001
0100
0010
,
1000
0000
0201
0000
0300
0010
1010
0000
,
0011
0000
1010
0000
0001
0010
0100
1000
,
0010
0000
1002
0000
0003
0100
0101
0000
,
1100
0000
0101
0000
1000
0100
0010
0001
,
0010
0000
1200
0000
0300
1000
1001
0000
,
0110
0000
1001
0000
1000
0010
0100
0002
,
2000
3000
0020
0033
,
2200
0000
3300
0000
0001
0100
0010
0000
,
0200
0000
0300
0001
1000
0001
0100
0020
,
0100
0000
1030
0000
0001
0010
0100
0010
,
0001
1000
0001
0100
0001
0000
1100
0000
,
0001
1000
0001
0100
0010
1000
0001
0100
,
0020
0000
0000
1000
0000
0001
0030
1000
,
0010
0000
0100
0000
0001
1000
0001
0100
,
0010
1000
0010
0100
0010
1000
0001
0010
,
0001
0010
0100
0010
0001
0010
0100
2000
,
0002
3003
0000
0220
0330
0000
2200
0000
,
0000
0000
3300
0000
1000
0001
0100
0010
,
2000
3000
0000
0101
0000
0110
0000
1020
,
0000
0000
0000
0030
0100
0001
1000
0010
,
0200
0000
0300
1001
0000
0011
0000
2020
,
0000
0000
3030
0000
0001
0010
0100
1000
,
0001
0010
0001
1000
0001
0100
0010
1000
,
0001
0010
0100
0000
1000
0001
0100
0010
,
1000
0000
0000
0010
1000
0010
1000
0100
,
0010
0000
0000
0000
0010
0000
0001
0000
0010
0000
0000
0001
0000
0000
1000
0000
,
0010
1000
0001
0010
,
0100
0010
0001
1000
,
0100
0000
1000
0010
0100
0000
0010
0100
,
0001
0000
1000
0001
1000
0000
0100
1000
,
0010
0200
0301
0200
,
1300
0000
0100
2000
0000
3000
0100
0010
,
1000
0000
0100
1000
0001
0000
0010
0000
,
0001
0000
0000
0000
1000
0000
0010
0000
1000
0000
0000
0010
0000
0000
0100
0000
,
0010
1000
0100
0010
,
0100
0000
1000
0010
0100
0001
0100
0010
,
0100
0000
0000
0000
0010
0000
1000
0000
0010
0000
0000
1000
0000
0000
0020
0000
,
0000
0030
0200
0000
0301
0000
0200
0000
,
1300
0200
0301
0200
,
1300
0000
0100
0000
0001
0100
0010
1000
,
0001
0000
0000
2000
0000
3020
0000
0001
,
0000
0000
0000
0000
0031
0010
0100
0001
,
1000
1000
0010
0100
,
0001
0010
0100
0000
1000
0100
0010
0001
,
2000
0000
0000
0100
0000
3002
0000
0200
,
0000
0000
0303
0000
0001
0100
0010
1000
,
0100
0010
0001
0010
,
0001
0010
0100
0000
1000
0010
0100
0001
,
0020
0000
0000
1000
0000
0000
0001
0000
,
0000
0001
0030
0000
0010
0001
0100
0010
,
1000
0000
0000
1000
0000
0001
0000
0020
,
0000
0000
0030
0000
0001
0100
0010
1000
,
0002
0000
0000
0100
0000
0010
0003
2000
,
0000
0000
0000
3000
0010
0100
0001
0010
,
0001
1000
0100
1000
,
0001
0010
0100
0000
1000
0001
1000
0010
,
0100
0000
1010
0010
0100
0010
0100
0001
,
1000
0001
0010
0001
1000
0100
0010
0001
,
0100
0000
1010
1000
0010
0100
0010
1000
,
0100
1000
0010
0100
0001
0010
0100
1000
,
0010
0000
0101
0001
0100
0010
0100
0001
,
0010
0100
0010
0100
1000
0010
0100
0001
,
2000
0000
0002
3003
,
0220
0000
0330
0000
0001
1000
0010
0100
,
0001
0000
1020
0000
0030
0100
0101
0000
,
1100
0000
0101
0000
1000
0100
0010
0001
,
0100
0000
2001
0000
3000
0010
1010
0000
,
0011
0000
1010
0000
0001
0010
0100
1000
,
0100
0000
0021
0000
0030
0001
1001
0000
,
0110
0000
1001
0000
0001
0100
0010
2000
,
0002
0003
0200
3300
,
0022
0000
0033
0000
1000
0010
0100
0001
,
1000
0000
0011
1000
0100
0010
0100
1000
,
0001
1000
0010
1000
0001
0100
0010
1000
,
0100
0000
0011
0001
0010
0100
0010
0001
,
0100
0001
0010
0100
1000
0010
0100
0001
,
0010
0000
1100
1000
0100
0010
0100
1000
,
0010
0100
0010
0100
0001
0010
0100
1000
,
0002
0000
2000
3003
,
0220
0000
0330
0000
1000
0001
0010
0100
,
1000
0000
0021
0000
0030
0100
1100
0000
,
0101
0000
1100
0000
0001
0100
0010
1000
,
0100
0000
1002
0000
0003
0010
0011
0000
,
1010
0000
0011
0000
1000
0010
0100
0001
,
0010
0000
1020
0000
0030
1000
1001
0000
,
0110
0000
1001
0000
1000
0100
0010
0002
,
2000
3000
0200
0303
,
2020
0000
3030
0000
0001
0010
0100
0010
,
0002
0003
0000
0110
0000
0011
0000
1002
,
0000
0103
0000
0010
1000
0001
0100
0010
,
1000
1000
0101
1100
,
0001
1000
0001
0000
0010
0100
1000
0000
,
1200
0000
0000
0001
0300
1000
0100
0020
,
0000
0000
0031
0000
0010
0100
1000
0001
,
1000
0010
1000
0001
1000
0100
0010
0000
,
0010
0100
1000
0000
0001
1000
0010
0100
,
0020
0000
0000
1000
0000
0000
0001
0000
,
0000
0000
0001
0030
0010
0100
0001
1000
,
0100
1000
0001
0100
0001
0010
0001
1000
,
0001
1000
0100
1000
0001
0100
0010
1000
,
0001
0010
0001
0100
0010
1000
0100
1000
,
0010
0100
0001
0010
0001
0010
0100
1000
,
0001
1100
0101
0110
,
1000
0100
0010
0000
0001
1000
0010
0100
,
0002
0000
0000
0000
,
0000
0000
0000
0000
,
0000
0000
0000
0000
,
0000
0000
0000
0000
,
0003
0000
0000
0000
;
