#TITLE:Empires;
#SUBTITLE:;
#ARTIST:Electric Swing Circus;
#TITLETRANSLIT:;
#SUBTITLETRANSLIT:;
#ARTISTTRANSLIT:;
#GENRE:;
#CREDIT:RxSteps;
#MUSIC:Empires.ogg;
#BANNER:Empires.png;
#BACKGROUND:Empires-BG.png;
#CDTITLE:cdtitle.png;
#SAMPLESTART:24.298;
#SAMPLELENGTH:20.000;
#SELECTABLE:YES;
#OFFSET:1.702;
#BPMS:0.000=120.000;
#STOPS:;
#BGCHANGES:;
#FGCHANGES:;

//--------------- dance-single - RxSteps ----------------
#NOTES:
     dance-single:
     RxSteps:
     Beginner:
     2:
     0,0,0,0,0:
0000
0000
0000
0000
,
1000
0000
0000
0000
,
0001
0000
0001
0000
,
1000
0000
1000
0000
,
0010
0000
0010
0000
,
1000
0000
0001
0000
,
0010
0000
0010
0000
,
1000
0000
0000
0000
,
0100
0000
0000
0000
,
0001
0000
0001
0000
,
0001
0000
0000
0000
,
1000
0000
0000
0000
,
0100
0000
0000
0000
,
0010
0000
0000
0000
,
0001
0000
0000
0000
,
0100
0000
0100
0000
,
0010
0000
0010
0000
,
1000
0000
1000
0000
,
0001
0000
0001
0000
,
0100
0000
0010
0000
,
1000
0000
1000
0000
,
0010
0000
0010
0000
,
1000
0000
0200
0000
,
0300
0000
0000
0000
,
0001
0000
0000
0000
,
0001
0000
0000
0000
,
0010
0000
0000
0000
,
0010
0000
0000
0000
,
1000
0000
0000
0000
,
0100
0000
0100
0000
,
2000
0000
3000
0000
,
0001
0000
0001
0000
,
0010
0000
0010
0000
,
1000
0000
1000
0000
,
0100
0000
0100
0000
,
0001
0000
1000
0000
,
0010
0000
0010
0000
,
1000
0000
0001
0000
,
0001
0000
1000
0000
,
0010
0000
0100
0000
,
0010
0000
0010
0000
,
0001
0000
0001
0000
,
2000
0000
3000
0000
,
0010
0000
0010
0000
,
1000
0000
1000
0000
,
0001
0000
0000
0000
,
0001
0000
0000
0000
,
0100
0000
0000
0000
,
0010
0000
0000
0000
,
1001
0000
0000
0000
,
1000
0000
0100
0000
,
1000
0000
0001
0000
,
0100
0000
0100
0000
,
0001
0000
1000
0000
,
0100
0000
0100
0000
,
0010
0000
0010
0000
,
0001
0000
0001
0000
,
1000
0000
0000
0000
0000
0000
0000
0200
,
0000
0000
0300
0000
0000
0000
0000
0100
,
0000
0000
0000
0100
0000
0000
0000
0001
,
0000
0000
0000
0000
0000
1000
0000
0000
,
0000
0000
0000
0000
0000
0000
0000
0010
,
0000
0000
0000
0000
,
1000
0000
0000
0000
0000
0000
0000
0010
,
0000
0000
0000
0000
,
0100
0000
0000
0000
,
0001
0000
0000
0000
,
0001
0000
0000
0000
,
1000
0000
1000
0000
,
2000
0000
3000
0000
,
0020
0000
0030
0000
,
1000
0000
0000
0000
,
0001
0000
1000
0000
,
1001
0000
0000
0000
,
0001
0000
0001
0000
,
0100
0000
0010
0000
,
0010
0000
0010
0000
,
1000
0000
0001
0000
,
0010
0000
0010
0000
,
1000
0000
1000
0000
,
0010
0000
0010
0000
,
0001
0000
0001
0000
,
1000
0000
0100
0000
,
0100
0000
0010
0000
,
0200
0000
0300
0000
,
0001
0000
0001
0000
,
1000
0000
0010
0000
,
1000
0000
0000
0000
,
0010
0000
0000
0000
,
0001
0000
0000
0000
,
1000
0000
0000
0000
,
0000
0020
0000
0000
,
0000
0000
0000
0000
,
0000
0000
0000
0000
,
0000
0000
0000
0000
,
0000
0030
0000
0000
;

//--------------- dance-single - RxSteps ----------------
#NOTES:
     dance-single:
     RxSteps:
     Easy:
     4:
     0,0,0,0,0:
0000
0000
0000
0000
,
0001
0000
1000
0000
0001
1000
0001
0000
,
0010
0010
2000
3000
,
0001
0000
0100
0000
0001
0100
0001
0000
,
1000
1000
0010
0000
,
1000
0000
0001
0000
0100
0001
0100
0000
,
0010
0010
2000
3000
,
0001
0000
0200
0300
,
0002
0003
0010
0010
,
0001
0000
0000
0000
0000
0000
0000
0000
1000
0000
0000
0001
0000
0000
0000
0000
,
0200
0300
0002
0003
,
1000
0010
0100
0000
,
0001
0000
0010
0000
0001
0010
0001
0000
,
1000
0100
2000
3000
,
0001
0001
0100
0000
,
0101
0000
0000
0000
0001
0100
0001
0000
,
1000
1000
0001
0000
,
1000
0010
1000
0000
0001
0000
0100
0000
,
0001
0001
2000
3000
,
0010
0000
0100
0000
0010
0100
0010
0000
,
1000
1000
0002
0003
,
0100
0001
0100
0000
0001
0000
0010
0000
,
0100
0100
1000
0000
,
0020
0000
0000
0030
,
2000
0000
0000
3000
,
0002
0000
0000
0003
,
0020
0000
0032
0003
,
1000
0100
0010
0001
,
0010
0000
0100
0000
1000
0000
0001
1000
,
0001
0000
0100
0000
,
0001
0000
1000
0000
,
1001
0000
0000
0000
0001
1000
0001
0000
,
0100
0000
0100
0000
0001
0100
0001
0100
,
0001
2000
3000
0000
,
0010
0000
0010
0000
1000
0010
1000
0010
,
1000
0000
0000
0000
0001
1000
0001
0000
,
0100
0100
0001
0000
,
1000
0000
0010
0010
,
1000
1000
0100
0000
,
0001
1000
0010
0100
,
0001
1000
0100
0010
,
0001
0010
0100
1000
,
0002
0000
0203
0000
,
0301
1000
0010
0100
,
0010
1000
0100
1000
,
0001
0000
0100
0000
,
0010
0000
1000
0000
,
0001
0000
0100
0000
,
0001
0001
1000
0000
,
1001
0000
0000
0000
1000
0001
1000
0000
,
0010
0000
0010
0000
1000
0010
1000
0010
,
1000
0002
0003
0000
,
0100
0000
0100
0000
0001
0100
0001
0100
,
0001
0000
0000
0000
1000
0001
1000
0000
,
0010
0010
1000
0000
,
0001
0000
0100
0100
,
0001
0001
0010
0010
,
0002
0003
0200
0300
,
0010
0010
0010
0000
,
1000
0000
0010
0000
,
0100
0100
0200
0300
,
0001
0000
0000
0000
1000
0000
0000
0010
,
1000
0000
0000
0000
0001
1000
0001
0000
,
1000
0000
0010
0000
0100
0000
0000
0010
,
1000
0001
0010
0100
,
2000
3000
0002
0003
,
0200
0300
0020
0030
,
2000
3000
0002
0003
,
0010
0010
0020
0030
,
0002
0000
0000
0000
0000
0000
0000
0000
0000
0000
0000
0000
0000
0000
0000
0000
0000
0000
0000
0000
0000
0000
0000
0000
0000
0000
0000
0000
0000
0000
0000
0000
0000
0000
0000
0000
0000
0000
0000
0000
0000
0000
0000
0000
0000
0000
0000
0000
0000
0000
0000
0000
0000
0000
0000
0000
0000
0000
0000
0000
0000
0000
0000
0000
0000
0000
0000
0000
0000
0000
0000
0000
0000
0000
0000
0000
0000
0000
0000
0000
0000
0000
0000
0000
0000
0000
0000
0000
0000
0000
0000
0000
0000
0000
0000
0000
0000
0000
0000
0000
0000
0000
0000
0000
0000
0000
0000
0000
0000
0000
0000
0000
0000
0000
0000
0000
0000
0000
0000
0000
0000
0000
0000
0000
0000
0000
0000
0000
0000
0000
0000
0000
0000
0000
0000
0000
0000
0000
0000
0000
0000
0000
0000
0000
0000
0003
0000
0000
0000
0000
0000
0000
0000
0000
0000
0000
0000
0000
0000
0000
0000
0000
0000
0000
0000
0000
0000
0000
0000
0000
0000
0000
0000
0000
0000
0000
0000
0000
0000
0000
0000
0000
0000
0000
0000
0000
0000
0000
0000
0000
0000
0000
,
1000
0000
0000
0000
0010
1000
0000
0000
,
0001
0000
0000
0100
0000
0000
0001
0000
,
1000
0100
0010
0001
,
1000
0000
0001
0000
0001
1000
0001
0000
,
0010
0000
0010
0000
0001
0010
0001
0010
,
0001
2000
3000
0000
,
0100
0000
0100
0000
1000
0100
1000
0100
,
1000
0000
0000
0000
0001
1000
0001
0000
,
0010
0010
0001
0000
,
1000
0000
0100
0100
,
1000
1000
0010
0000
,
0001
1000
0100
0010
,
0001
1000
0010
0100
,
0001
0100
0010
1000
,
0002
0000
0023
0000
,
0031
1000
0100
0010
,
0100
1000
0010
1000
,
0001
0000
0000
0000
0100
0000
0001
0100
,
0000
0000
0010
0000
1000
0000
0010
1000
,
0000
0000
0001
0000
1000
0000
0001
0100
,
0001
0000
0001
0000
1000
0000
0000
0010
,
0000
2000
0000
0000
,
0000
0000
0000
0000
,
0000
0000
0000
0000
0000
0000
0000
0000
0000
0000
0000
0020
0000
0000
0000
0000
,
0000
0000
0000
0000
,
0000
3030
0000
0000
;

//--------------- dance-single - RxSteps ----------------
#NOTES:
     dance-single:
     RxSteps:
     Medium:
     6:
     0,0,0,0,0:
0000
0000
0000
0000
,
1000
0000
0100
0000
1000
0010
1000
0000
,
0001
0001
0100
0001
,
0001
0100
0001
0000
1000
0100
0010
0000
,
0010
0000
0010
0000
0001
1000
0001
0000
,
1000
0001
0100
0000
0001
0010
0100
0000
,
0100
0000
0100
0000
0010
0000
0000
0100
,
1000
0100
0000
1000
0010
0000
0010
0000
,
1000
0001
1000
0000
0010
1000
0010
0000
,
0100
0000
0001
0000
0000
0000
0000
0000
1000
0000
0000
0001
0000
0000
0000
0000
,
0001
1000
0010
1000
0100
0000
0000
0000
,
1000
0100
0010
0002
0000
0000
0003
0000
,
0001
0010
0100
2000
0000
0000
3000
0000
,
1000
0000
0010
0000
0100
0000
0010
0000
0100
0000
0000
0001
0000
0000
0000
0000
,
1000
0000
1000
0000
0010
1000
0010
0000
,
0110
0000
1010
0000
1000
0010
1000
0000
,
0001
0000
0001
0000
1000
0010
0100
0001
,
0100
0000
0100
0001
0100
0001
0000
0000
,
1000
0000
1000
0000
0001
0010
0100
1000
,
0100
0000
0100
0000
1000
0010
1000
0000
,
0001
0000
0001
0000
0010
0001
0010
0001
,
0100
0000
0100
0000
0001
0100
0001
0000
,
1000
1000
0020
0030
,
0200
0000
0000
0300
,
0002
0000
0003
0000
1000
0001
0000
0000
,
0100
0000
0000
0010
0000
0000
0000
0000
,
0100
0000
0100
0000
0001
0000
0000
0001
,
0010
0100
1000
0000
0001
0000
1000
0100
,
1000
0100
0010
0100
1000
0000
0001
0000
,
0001
0000
0100
0010
0100
0000
0000
0000
,
0001
0001
1000
0100
,
0110
0000
0101
0000
0001
0100
0001
0000
,
1000
0000
1000
0000
0001
0100
0010
1000
,
0010
0000
0010
1000
0010
1000
0000
0000
,
0001
0000
0001
0000
1000
0100
0010
0001
,
0010
0000
0010
0000
0001
0100
0001
0000
,
1000
0000
1000
0000
0100
1000
0100
1000
,
0010
0000
0010
0000
1000
0010
1000
0000
,
0001
0001
0200
0300
,
0001
1000
0010
0000
0010
1000
0001
0000
,
0100
0000
0100
0000
0100
0001
0100
0010
,
0000
1000
0000
0010
1000
0000
1000
0000
,
0001
0010
0100
1000
0001
1000
0001
1000
,
0001
0000
0100
0000
0100
0000
0010
0100
,
0001
0100
0001
0100
0020
0000
0030
0000
,
2000
0000
3000
0000
,
0002
0000
0003
0000
,
0200
0000
0000
0300
,
0010
0000
0010
0000
1000
0010
1000
0000
,
0110
0000
1100
0000
1000
0100
1000
0000
,
0001
0000
0001
0000
1000
0100
0010
0001
,
0010
0000
0010
0001
0010
0001
0000
0000
,
1000
0000
1000
0000
0001
0100
0010
1000
,
0010
0000
0010
0000
1000
0100
1000
0000
,
0001
0000
0001
0000
0100
0001
0100
0001
,
0010
0000
0010
0000
0001
0010
0001
0000
,
1000
1000
0200
0300
,
0020
0030
0200
0300
,
1000
0000
1000
0000
1000
0000
0000
0101
,
0000
0000
0000
0110
0000
0000
0000
1010
,
0000
1000
0000
0010
0000
2000
0000
0000
,
3001
0000
1000
0000
0010
0100
0010
0000
,
1000
0000
0001
0000
0010
0001
0010
0000
,
0001
0000
0010
0000
0100
0010
0100
0000
,
1000
0100
0010
0001
,
1000
0001
1000
0000
0010
1000
0010
0000
,
0100
0001
0100
0000
0001
1000
0001
0000
,
1000
0100
0010
0000
0010
0100
1000
0000
,
0001
1000
0001
1000
0001
0100
0000
0000
,
0020
0000
0130
0100
,
0002
0000
0003
0000
1000
0001
0000
0000
,
1100
0000
1001
0000
,
0001
1000
0010
0100
0001
1000
0010
0100
,
0010
0000
1000
0000
1000
0100
1000
0000
,
0001
0000
0001
0000
1000
0100
0010
0001
,
0010
0000
0010
0001
0010
0001
0000
0000
,
1000
0000
1000
0000
0001
0100
0010
1000
,
0010
0000
0010
0000
1000
0100
1000
0000
,
0001
0000
0001
0000
0100
0001
0100
0001
,
0010
0000
0010
0000
0001
0010
0001
0000
,
1000
1000
0200
0300
,
1000
0001
0010
0000
0010
0001
1000
0000
,
0100
0000
0100
0000
0100
1000
0100
1000
,
0000
0001
0000
0010
0001
0000
0001
0000
,
1000
0010
0100
0001
1000
0001
1000
0001
,
1000
0000
0100
0000
0100
0000
0010
0100
,
1000
0100
1000
0100
0020
0000
0030
0000
,
0002
0000
0003
0000
,
2000
0000
3000
0000
,
0020
0000
0000
0030
,
0100
0000
0100
0000
0001
0000
0000
0001
,
0000
2002
0000
0000
,
0000
0000
0000
0000
,
0000
0000
0000
0000
3000
0000
0000
0000
0000
0000
0000
0200
0000
0000
0000
0000
,
0000
0000
0000
0000
,
0000
0303
0000
0000
;

//--------------- dance-single - RxSteps ----------------
#NOTES:
     dance-single:
     RxSteps:
     Hard:
     7:
     0,0,0,0,0:
0000
0000
0000
0000
,
1000
0100
0010
0000
0010
0100
1000
0000
,
0001
0000
0100
0000
0001
1000
0100
0010
,
0001
0100
0010
0000
1000
0001
0010
0000
,
1100
0000
0011
0000
1000
0010
0100
0001
,
1000
0010
0100
0000
0001
0010
0001
0000
,
1100
0000
0012
0000
2000
0000
0003
3010
,
1000
0000
0010
1000
0000
0000
0001
0000
0010
0000
0000
0010
0000
0000
0000
0000
,
0001
0000
0010
0000
0001
0000
0100
0000
0010
0100
0000
0010
0000
0000
1000
0000
,
0100
0000
1000
0000
0001
0000
0000
0000
0101
0000
0000
1100
0000
0000
0001
0000
,
0100
0010
1000
0001
0010
0100
1000
0001
,
0100
0000
0010
0000
1000
0000
0010
0000
1000
0000
0000
0001
0000
0000
0000
0000
,
0010
0000
0001
0000
0100
0000
0000
0010
0100
0000
0000
0001
0000
0000
0000
0000
,
1000
0000
0100
0000
0010
0000
0001
0000
1000
0000
0000
0010
0000
0000
0000
0000
,
0100
0010
1000
0001
0200
0001
0310
0000
,
1100
0000
0101
0000
1000
0010
1000
0000
,
0101
0000
0110
0000
0001
0010
0100
0010
,
0001
1000
0010
0100
0001
0100
0010
0000
,
1001
0000
0110
0000
1000
0100
0010
0001
,
0100
0010
1000
0000
0001
0010
0001
0000
,
1100
0000
0011
0001
0010
0100
1000
0001
,
0010
0001
0100
0010
1000
0010
0100
0000
,
0011
2010
0002
3000
,
0103
0001
1000
0010
1000
0001
0000
0000
,
0100
0001
0010
0001
1000
0001
1000
0010
,
0100
0001
1000
0010
1000
0001
0010
0100
,
0010
0100
1000
0010
0100
0010
0000
1000
,
0001
0010
0100
1000
0001
0010
0100
1000
,
0010
0000
0100
0000
0001
0000
1000
0000
0010
0000
0000
0000
0100
0001
0000
0000
,
1000
0001
0010
0001
1000
0100
0010
0001
,
1000
0100
1000
0010
,
0011
0000
1010
0000
0001
0100
0001
0000
,
1010
0000
0110
0000
1000
0100
0010
0100
,
1000
0001
0100
0010
1000
0010
0100
0000
,
1001
0000
0110
0000
0001
0010
0100
1000
,
0010
0100
0001
0000
1000
0100
1000
0000
,
0011
0000
1100
1000
0100
0010
0001
1000
,
0100
1000
0010
0100
0001
0100
0010
0000
,
1100
0102
2000
0003
,
3001
1000
0100
0010
0100
0010
0100
1000
,
0001
0100
0010
0100
0001
1000
0100
1000
,
0000
0002
0000
1000
0010
0000
1003
0000
,
0001
1000
0010
0100
0001
1000
0100
0010
,
0001
0100
0010
0100
0001
0100
0010
1000
,
0100
0010
0001
1000
0001
0010
0100
1000
,
0001
0000
0000
0000
0100
0000
0000
0000
0010
0100
0000
0000
0010
0000
0000
1000
,
0010
0000
0000
0000
1000
0000
0001
0000
1000
0000
0010
0000
0100
0010
0000
0000
,
1000
0000
0001
1000
0100
1000
0001
0010
,
0002
0000
0000
0000
2000
0003
0000
3000
0010
0000
2000
0000
3001
0000
0000
0000
,
0110
0000
1100
0000
0001
0010
0001
0000
,
1100
0000
0110
0000
1000
0010
0100
0010
,
1000
0001
0010
0100
1000
0100
0010
0000
,
1001
0000
0110
0000
0001
0100
0010
1000
,
0100
0010
0001
0000
1000
0010
1000
0000
,
0101
0000
1010
1000
0010
0100
0001
1000
,
0010
1000
0100
0010
0001
0010
0100
0000
,
1010
0000
0000
0000
0012
0000
0000
0003
2000
0000
0020
3000
0000
0000
0200
0000
,
0000
0330
0000
1001
2200
3300
0000
0101
,
0110
0000
1001
0000
0220
0330
0000
1010
,
0022
0033
0000
1100
2020
3030
0000
1001
,
0102
1000
0100
1000
0103
0010
0100
0010
,
1000
0010
0000
0000
0100
0001
0000
0000
1000
0010
0000
1000
0000
0000
0001
0100
,
0000
0000
0010
0100
0000
0000
0000
0000
2001
0000
0000
0000
3100
0000
0000
0000
,
0001
0100
0000
0000
1000
0100
0000
0000
0001
1000
0000
0001
0000
0000
0100
0001
,
0000
1000
0100
1000
0001
1000
0010
1000
,
0001
0100
0010
1000
0001
0100
1000
0000
,
0001
0100
0010
0100
0001
0010
1000
0000
,
0001
1000
0100
0010
1000
0001
0100
0000
,
0010
0000
1000
0000
0001
0000
1000
0000
0010
0000
0100
0000
0001
0100
0000
0000
,
0002
0000
0003
1000
0010
0000
1000
0001
,
0200
0000
0000
0000
0300
0000
0000
0000
1100
0000
0101
0000
0000
0000
0000
1000
,
0010
0000
0000
0000
1000
0000
0000
0001
0100
0000
0001
0000
0100
0000
0010
0000
,
0100
0001
0010
0100
1000
0010
0100
0001
,
1010
0000
0011
0000
1000
0100
1000
0000
,
0011
0000
0110
0000
0001
0100
0010
0100
,
0001
1000
0100
0010
0001
0010
0100
0000
,
1001
0000
0110
0000
1000
0010
0100
0001
,
0010
0100
1000
0000
0001
0100
0001
0000
,
1010
0000
0101
0001
0100
0010
1000
0001
,
0100
0001
0010
0100
1000
0100
0010
0000
,
0101
0000
2100
0000
0002
0000
3000
0003
,
1000
0001
0010
0100
0010
0100
0010
0001
,
1000
0010
0100
0010
1000
0001
0010
0001
,
0000
2000
0000
0001
0100
0000
3001
0000
,
1000
0001
0100
0010
1000
0001
0010
0100
,
1000
0010
0100
0010
1000
0010
0100
0001
,
0010
0100
1000
0001
1000
0100
0010
0001
,
1000
0000
0000
0000
0010
0000
0000
1000
0010
0000
1000
0000
0001
0000
0010
0000
,
0001
0000
1000
0000
0010
0000
0000
0100
0010
0000
1000
0000
0001
0000
0100
0000
,
0001
0000
1000
0000
0010
0000
0000
1000
0001
0000
1000
0000
0010
0000
0100
0000
,
0002
0000
0000
0000
0020
0003
0000
0000
0000
0200
0000
0030
0000
0000
2000
0000
,
0300
0020
0000
0000
,
0000
0000
0000
0000
,
0000
0000
3000
0000
0000
0000
0000
0000
0000
0000
0000
0200
0000
0000
0000
0000
,
0000
0000
0000
0000
,
0000
0330
0000
0000
;
