#TITLE:EDGE;
#SUBTITLE:Blanke Remix;
#ARTIST:REZZ;
#TITLETRANSLIT:;
#SUBTITLETRANSLIT:;
#ARTISTTRANSLIT:;
#GENRE:;
#CREDIT:RxSteps;
#MUSIC:EDGE (Blanke Remix).ogg;
#BANNER:EDGE (Blanke Remix).png;
#BACKGROUND:EDGE (Blanke Remix)-BG.png;
#CDTITLE:cdtitle.png;
#SAMPLESTART:36.031;
#SAMPLELENGTH:19.200;
#SELECTABLE:YES;
#OFFSET:2.369;
#BPMS:0.000=100.000;
#STOPS:;
#BGCHANGES:;
#FGCHANGES:;

//--------------- dance-single - RxSteps ----------------
#NOTES:
     dance-single:
     RxSteps:
     Beginner:
     2:
     0,0,0,0,0:
0000
0000
0000
0000
,
0002
0000
0000
0000
,
0000
0000
0000
0000
,
0003
0000
0000
0000
0000
1000
0000
0000
,
0001
0000
0000
0000
,
0100
0000
0000
0000
0000
0010
0000
0000
,
0010
0000
0000
0000
,
1000
0000
0000
0000
0000
1000
0000
0000
,
0001
0000
0010
0000
,
1001
0000
0000
0000
,
1000
0000
0000
0000
,
0010
0000
0000
0000
0000
0100
0000
0000
,
0100
0000
0000
0000
,
0001
0000
0000
0000
0000
0010
0000
0000
,
0010
0000
0000
0000
,
1000
0000
0000
0000
,
1000
0000
0000
0000
,
0001
0000
0100
0000
,
0100
0000
0000
0000
,
0010
0000
0010
0000
,
0000
0000
1000
0000
,
1000
0000
0001
0000
,
0010
0000
0000
0000
,
2002
0000
3003
0000
,
1000
0000
0001
0000
,
0100
0000
0000
0000
,
1000
0000
0000
0000
,
0010
0000
0000
0000
,
0010
0000
0000
0000
,
0001
0000
0001
0000
,
0100
0000
0000
0000
,
2002
0000
3003
0000
,
0001
0000
0000
0000
,
0100
0000
0000
0000
,
0010
0000
0000
0000
,
0010
0000
0000
0000
0000
1000
0000
0000
,
0000
0000
0000
0000
,
0001
0000
0000
0000
0000
0010
0000
0000
,
0000
0000
0010
0000
,
0000
0000
0000
0000
0000
0100
0000
0000
,
0000
0000
0000
0000
,
1000
0000
0000
0000
,
0001
0000
0000
0000
,
0010
0000
0000
0000
0000
0010
0000
0000
,
0000
0000
1000
0000
,
0100
0000
0000
0000
0000
0100
0000
0000
,
0000
0000
0010
0000
,
0010
0000
0000
0000
,
1001
0000
0000
0000
,
2000
0000
0000
0000
,
3000
0000
0000
0000
,
0010
0000
0000
0000
,
0002
0000
0003
0000
,
1000
0000
0000
0000
,
0020
0000
0030
0000
,
2020
0000
3030
0000
,
1000
0000
0000
0000
,
0001
0000
0000
0000
,
0010
0000
0000
0000
,
0100
0000
0000
0000
,
0001
0000
0000
0000
,
0100
0000
0100
0000
,
0000
0000
0010
0000
,
0220
0000
0330
0000
,
1000
0000
0000
0000
,
0002
0000
0000
0000
,
0000
0000
0000
0000
,
0000
0000
0000
0000
,
0000
0000
0000
0000
,
0003
0000
0000
0000
;

//--------------- dance-single - RxSteps ----------------
#NOTES:
     dance-single:
     RxSteps:
     Easy:
     3:
     0,0,0,0,0:
0000
0000
0000
0000
,
0002
0000
0000
0000
,
0000
0000
0000
0000
,
0003
0000
0000
1000
0000
0001
0000
0000
,
0100
0000
0100
0000
,
0001
0000
0000
1000
0000
0010
0000
0000
,
1000
0000
0001
0000
,
0100
0000
0000
0001
0000
0100
0000
0000
,
0010
0000
0010
0000
,
1001
0000
0000
1000
0000
0010
0000
0000
,
0100
0001
0010
0100
,
1000
0000
0000
0001
0000
0100
0000
0000
,
0010
0010
1000
0010
,
0100
0000
0000
0001
0000
0010
0000
0000
,
0001
1000
0010
1000
,
0100
0010
0001
1000
,
0020
0000
0000
0030
,
0000
1001
0000
0001
,
1000
1000
0010
0010
,
0200
0300
0002
0003
,
1000
0010
0100
0100
,
0002
0003
1000
0001
,
0010
0100
1000
0000
,
0202
0000
0303
0000
,
1000
0010
1000
0001
,
0001
0100
0010
0010
,
1000
1000
0010
0010
,
2000
3000
0001
0100
,
0001
0000
1000
0010
,
1000
0001
0100
0100
,
0001
0001
1000
1000
,
0020
0000
0000
0030
,
1000
0010
0100
0001
,
2000
0000
0000
0000
,
3000
0000
0001
0000
,
0100
0000
0000
0010
0000
1000
0000
0000
,
0010
0000
0010
0000
,
0100
0000
0000
0001
0000
0010
0000
0000
,
0001
0000
1000
0000
,
0010
0000
0000
1000
0000
0001
0000
0000
,
0100
0000
0100
0000
,
0001
0010
0100
1000
,
0001
0001
1000
1000
,
0010
0010
1000
1000
,
0001
0100
0010
1000
,
0100
0000
0000
1000
0000
0100
0000
0000
,
1000
0100
0010
0001
,
1000
0100
0010
0001
,
2000
0000
3000
0000
,
2200
0000
0000
0000
,
3300
0000
0000
0001
,
2002
3003
1000
0010
,
0100
0100
0001
0001
,
1000
0100
0100
1000
,
0020
0000
0230
0300
,
0002
0000
0000
0000
0003
0000
1000
0001
,
2000
3000
0010
1000
,
0001
0100
0001
0001
,
1000
1000
0010
0010
,
2000
3000
0001
0100
,
0010
0010
1000
0100
,
1000
0001
0200
0300
,
0020
0030
2000
3000
,
0020
0000
0030
1000
,
0010
0010
1000
0001
,
0200
0000
0000
0000
,
0000
0000
0000
0000
,
0000
0000
0000
0000
,
0000
0000
0000
0000
,
0300
0000
0000
0000
;

//--------------- dance-single - RxSteps ----------------
#NOTES:
     dance-single:
     RxSteps:
     Medium:
     6:
     0,0,0,0,0:
0000
0000
0000
0000
,
0002
0000
0000
0000
,
0000
0000
0000
0000
,
0003
0000
0000
0000
0000
0000
1000
0000
0000
0000
0001
0000
0000
0100
0000
0000
,
0002
0003
0200
0300
,
0020
0000
0000
0000
0030
0000
0010
0000
0000
0000
1000
0000
0000
0100
0000
0000
,
2000
3000
2000
3000
,
0020
0000
0000
0000
0030
0000
0100
0000
0000
0000
0010
0000
0000
0100
0000
0000
,
0002
0003
2000
3000
,
0010
0000
0010
0000
1000
0000
1000
0000
0000
0000
0001
0000
0000
0010
0000
0000
,
0001
0010
0100
1000
0001
0010
0100
1000
,
0001
0000
1000
0000
0010
0000
1000
0000
0000
0000
0100
0000
0000
0010
0000
0000
,
0001
1000
0010
0100
0010
0100
0010
1000
,
0001
0000
0001
0000
1000
0000
1000
0000
0000
0000
0010
0000
0000
0100
0000
0000
,
0002
0000
0200
0300
,
2003
0000
0000
0000
3000
0000
0001
0000
0000
0000
0100
0000
0000
0010
0000
0000
,
0220
0000
0000
0330
,
2000
0000
3001
1000
0001
1000
0001
1000
,
0010
1000
0010
1000
0001
0100
0001
0100
,
0020
0000
0030
2000
0000
0000
0000
3000
,
0001
0010
0100
1000
0100
0010
0001
0000
,
2000
0000
3010
1000
0010
1000
0010
1000
,
0001
1000
0001
1000
0010
0100
0010
0100
,
0002
0000
0003
2000
,
3001
1000
0010
0100
0001
1000
0100
1000
,
0002
0103
0202
0303
,
0220
0330
2200
3300
,
0002
0000
0003
0000
0100
0001
0100
0001
,
1000
0100
0010
0010
0200
0300
1000
0000
,
0200
1300
0020
0030
,
2002
3003
0022
0033
,
2000
0000
0000
0000
0000
3000
0001
1000
,
0001
0001
0100
0100
,
0020
0000
0000
0000
,
0000
0000
0000
0000
,
0030
0000
0000
0000
0000
0000
1000
0000
0000
0000
0001
0000
0000
0010
0000
0000
,
0002
0003
0200
0300
,
0020
0000
0000
0000
0030
0000
1000
0000
0000
0000
0100
0000
0000
0010
0000
0000
,
0200
0000
0000
0300
,
2000
0000
0000
0000
3000
0000
0001
0000
0000
0000
0010
0000
0000
0100
0000
0000
,
0020
0030
0002
0003
,
1000
0010
0100
0001
,
0010
0100
1000
0001
,
0010
0000
0000
0000
0100
0000
1000
0000
0000
0000
0010
0000
0000
0100
0000
0000
,
0100
0010
1000
0001
,
0010
0000
0001
0000
0010
0000
0001
0000
0000
0000
1000
0000
0000
0100
0000
0000
,
1000
0100
0010
0001
1000
0100
0010
0001
,
2000
0010
0010
3001
,
0220
0000
0000
0330
,
1000
0000
0001
1000
0001
0000
0010
0100
,
0010
0100
1000
0001
1000
0010
1000
1000
,
0002
0000
0100
0000
0103
0000
1000
0001
,
1000
0010
0100
0001
1000
0100
0010
0100
,
2000
0100
0100
3001
,
1000
0100
0010
0001
0010
0001
0010
0010
,
0002
0000
0000
0000
0003
0000
1000
0001
,
1000
0010
0010
1000
2000
0000
3200
0000
,
0320
0032
1000
2003
,
0010
3010
0100
0100
,
0002
0000
0003
0020
0000
0000
0030
0000
,
0001
0010
0100
0010
0200
0000
2300
0000
,
3020
2030
0001
3002
,
0100
0203
0010
0301
,
2000
0000
0000
3001
,
1000
0001
1000
0010
1000
0000
0001
0000
,
0020
0000
0000
0000
,
0000
0000
0000
0000
,
0000
0000
0000
0000
,
0000
0000
0000
0000
,
0030
0000
0000
0000
;

//--------------- dance-single - RxSteps ----------------
#NOTES:
     dance-single:
     RxSteps:
     Hard:
     8:
     0,0,0,0,0:
0000
0000
0000
0000
,
2000
0000
0000
0000
,
0000
0000
0000
0000
,
0000
0000
0000
0000
3000
0000
0000
0000
0001
0000
1000
0000
0000
0001
0000
0000
,
0100
0010
1000
0010
1000
0001
0010
0100
,
0010
0000
0100
0000
1000
0000
0010
0000
0000
0000
1000
0000
0000
0001
0000
0000
,
1000
0100
0010
0100
1000
0001
0100
0010
,
1000
0000
0001
0000
0010
0000
0100
0000
0000
0000
0010
0000
0000
1000
0000
0000
,
0001
0100
0010
0100
0001
1000
0100
1000
,
0010
0000
0010
0000
0100
0000
0001
0000
0000
0000
0100
0000
0000
0001
0000
0000
,
1000
0010
1000
0010
0100
0010
0100
0001
,
0010
0000
0001
0000
1000
0000
0200
0000
0000
0000
1000
0000
0000
0310
0000
0000
,
0001
0100
0010
1000
0010
0100
0010
1000
,
0001
0000
0010
0000
0001
0000
0020
0000
0000
0000
0100
0000
0000
0031
0000
0000
,
0010
0010
0001
1000
0100
0100
1000
0001
,
1100
0000
1000
0000
0010
0000
0200
0300
0000
0000
0021
0000
0000
0130
0000
0000
,
2002
0000
0000
3003
,
0220
0330
1000
0001
0200
0001
0010
0301
,
1200
0010
1300
0101
2100
0001
0100
3010
,
0022
0000
0000
0000
0033
0000
0010
0001
0010
0001
0010
0000
0001
0000
1000
0000
,
1010
0010
0100
0001
2000
0001
3100
0002
,
0100
0003
1010
0001
0100
0010
0001
0100
,
1100
1000
0010
0100
1000
0010
0100
0001
,
0010
0001
1000
0001
1000
0010
0100
0010
0100
0000
0001
0000
0100
0000
0100
0000
,
0001
0010
0001
0100
0010
0001
1000
0100
,
0110
0000
1001
0001
0200
0310
0101
1000
,
0021
0130
0022
0033
1200
0310
1100
0000
,
2002
0000
0000
0000
3003
0000
1000
0001
1000
0000
0001
0000
0100
0000
0010
0000
,
1000
0000
0001
0000
0100
0001
0100
0000
0020
0000
1000
0000
0130
0000
0000
0000
,
2200
3300
0000
0000
0110
0000
0001
0000
0020
0000
0130
0000
1010
0000
0001
0000
,
0021
0000
0130
0000
0022
0033
0000
0000
1200
0000
0310
0000
2200
3300
0000
0000
,
0100
1000
0001
1000
0001
0100
0010
0100
0010
0000
1000
0000
0001
0000
0010
0000
,
0001
0000
0000
0001
1000
0000
0000
0010
1000
0000
0000
0010
0100
0000
0000
0000
,
0202
0000
0000
0000
0000
0000
0000
0000
0000
0000
0000
0000
0000
0303
0000
0000
,
1000
0010
0001
0010
0001
1000
0010
0100
,
0010
0000
0100
0000
0001
0000
0010
0000
0000
0000
0001
0000
0000
1000
0000
0000
,
1000
0100
0001
0100
0001
1000
0100
0010
,
0100
0000
0010
0000
0001
0000
0100
0000
0000
0000
0001
0000
0000
1000
0000
0000
,
1000
0100
0010
0100
1000
0001
0100
0001
,
0010
0000
0100
0000
0100
0000
1000
0000
0000
0000
0010
0000
0000
0001
0000
0000
,
0001
0010
0001
0010
0100
0010
0100
1000
,
0010
0000
0100
0000
0001
0000
0010
0000
0001
0000
1000
0000
0000
0001
0000
0000
,
0010
0100
1000
0100
1000
0001
0100
0010
,
0100
0000
0010
0000
1000
0000
0200
0000
0000
0000
0010
0000
0000
1300
0000
0000
,
0001
0010
0100
0010
0001
0001
0010
0100
,
1000
0000
0001
0000
0100
0000
0020
0000
0000
0000
0100
0000
0000
1030
0000
0000
,
0001
0000
0000
1000
0010
0000
0000
0000
1000
0000
0000
0001
0010
0000
0000
0000
,
0001
0000
0000
0100
0010
0000
0000
0000
1000
0000
0000
0010
1000
0000
0000
0000
,
0220
0000
0000
0330
,
2001
0000
0100
0010
3100
0000
1000
0020
,
0100
1000
0230
0001
0010
0301
1100
0012
,
2000
3003
0000
0000
0220
0330
0000
0000
2020
3030
0000
0000
0101
0000
0001
0000
,
1000
0020
0100
1030
0200
0010
0302
0013
,
2010
0000
0001
3200
0010
1300
0001
0010
,
0001
0010
0100
1000
0100
0010
0011
1100
,
1000
0100
1000
0001
0100
0001
0100
0010
0100
0000
0010
0000
1000
0000
0100
0000
,
1000
0001
0100
0001
0020
0100
0031
0020
,
0200
0330
0000
0000
1001
0000
1000
0000
0020
0000
0130
0000
0011
0000
1000
0000
,
0201
0310
0202
0303
1020
0130
1010
0000
,
2002
0000
0000
0000
3003
0000
1000
0001
1000
0000
0001
0000
0010
0000
0100
0000
,
1000
0000
0001
0000
0010
0001
0010
0000
0200
0000
1000
0000
0310
0000
0000
0000
,
1010
0000
0110
0001
0200
0310
1100
0001
,
0201
0310
0202
0303
1020
0130
1010
0000
,
0100
0001
1000
0001
1000
0100
0010
0100
0010
0000
0001
0000
0010
0000
0010
0000
,
0001
0000
0000
1000
0010
0000
0000
1000
0010
0000
0000
0100
0002
0000
0000
0000
,
2000
0000
0000
0000
,
0000
0000
0000
0000
,
0000
0000
0000
0000
,
0000
0000
0000
0000
,
3003
0000
0000
0000
;
