#TITLE:Drop in the Ocean;
#SUBTITLE:;
#ARTIST:Venjent;
#TITLETRANSLIT:;
#SUBTITLETRANSLIT:;
#ARTISTTRANSLIT:;
#GENRE:;
#CREDIT:RxSteps;
#MUSIC:Drop in the Ocean.ogg;
#BANNER:Drop in the Ocean.png;
#BACKGROUND:Drop in the Ocean-bg.png;
#CDTITLE:cdtitle.png;
#SAMPLESTART:90.372;
#SAMPLELENGTH:24.138;
#SELECTABLE:YES;
#OFFSET:1.352;
#BPMS:0.000=174.000;
#STOPS:;
#BGCHANGES:;
#FGCHANGES:;

//--------------- dance-single - RxSteps ----------------
#NOTES:
     dance-single:
     RxSteps:
     Beginner:
     4:
     0,0,0,0,0:
0000
0000
0000
0000
,
0100
0000
0000
1000
,
0010
0100
0010
1000
,
0100
0000
0000
1000
0000
0000
0010
0000
,
0000
0100
0000
0000
0001
0000
1000
0000
,
0001
0000
0000
0100
0000
0000
0001
0000
,
0000
1000
0000
0000
0010
0000
1000
0000
,
0002
0000
0003
0100
0000
0000
0100
0000
,
0000
0001
0000
0000
1000
0000
0010
0000
,
1000
0000
0000
0001
0000
0000
0100
0000
,
0001
0100
0100
0010
,
1000
0000
0000
0010
0000
0000
0100
0000
,
0000
0100
0000
0000
0001
0000
0010
0000
,
0001
0000
0000
0010
0000
0000
0001
0000
,
0000
1000
0000
0000
0001
0000
0010
0000
,
0001
0000
0000
0001
0000
0000
0100
0000
,
0000
0010
0000
0000
1000
0000
0001
0000
,
0100
0000
0000
0010
0000
0000
0100
0000
,
0001
1000
0010
1000
,
0100
0000
0000
0000
1000
0000
0000
0001
,
0000
0100
0010
0100
,
0001
0000
0000
0000
0001
0000
0000
0100
,
0000
0002
0000
0000
,
0103
0000
0001
1000
,
0001
0100
0010
0100
,
0020
0000
0030
1000
,
0001
0100
0010
1000
,
0100
0000
0000
0000
1000
0000
0000
0001
,
0000
0100
0010
0100
,
0100
0000
0001
0000
0100
0000
0000
0010
,
0000
2000
0000
3000
,
0010
0000
0100
0001
,
0001
1000
0001
1000
,
0010
0000
0100
0001
,
0010
0001
0100
0001
,
1000
0100
0010
0001
,
0010
0000
0100
0000
1000
0000
0000
0001
,
0000
0020
0000
0000
,
0030
0000
0000
0000
0001
0000
0000
1000
,
0000
0020
0000
0030
,
0000
1000
1000
0001
,
1000
0010
0010
0100
,
0001
1000
0001
0100
,
0010
0100
0010
0100
,
0010
1000
0001
0100
,
0001
2000
0000
0000
,
3000
0001
1000
0020
,
0000
0000
0000
0030
,
1000
0000
0010
0000
0100
0000
0000
0001
,
0000
0000
1000
0001
,
0100
0010
0100
0001
,
0200
0000
0300
0001
,
1000
0000
0000
0001
0000
0000
0001
0000
,
1000
0000
1000
0000
0000
0010
0000
0000
,
0100
0000
0100
0000
0000
0001
0000
0000
,
1000
1000
0010
0010
,
0100
0000
0000
0001
0000
0000
0000
0000
,
0100
0000
0100
0000
0000
0001
0000
0000
,
1000
0020
0000
0030
,
1000
0001
0001
0001
,
1000
0000
0000
0001
0000
0000
0000
0000
,
1000
0000
1000
0000
0000
0010
0000
0000
,
0100
0000
0100
0000
0000
0001
0000
0000
,
0010
0010
0001
0010
,
0001
0000
0000
1000
0000
0000
0000
0000
,
0001
0100
0010
1000
,
0001
1000
0001
0000
,
0110
0000
0000
1000
,
0001
1000
1000
0010
,
0100
0000
0000
0000
0010
0000
0000
1000
,
0000
0200
0000
0300
,
1000
1000
0001
0001
,
0100
0010
1000
0010
,
0200
0000
0300
0001
,
1000
0100
0010
0001
,
0020
0000
0030
0001
,
1000
0001
0100
0010
,
0010
0000
0000
0000
0100
0000
0000
0001
,
0000
0010
0000
0010
,
0001
0001
1000
0001
,
0100
0010
1000
0001
,
0200
0000
0300
0001
,
1000
0100
0010
0001
,
0200
0000
0000
0000
,
0300
0000
0000
0000
0001
0000
0000
1000
,
0000
0020
0000
0000
,
0030
0000
0000
0000
1000
0000
0000
0100
,
0000
0000
0020
0000
0000
0000
0000
0030
,
0000
0000
0001
0000
0001
0000
0000
0100
,
0000
0000
0010
0000
0010
0000
0000
0200
,
0000
0000
0000
0300
,
0001
0000
0000
1000
0000
0000
0010
0000
,
1000
0000
0000
0001
0000
0000
0100
0000
,
0010
2000
0000
0000
,
3000
0010
0010
0000
,
1000
0000
0000
0001
0000
0000
0100
0000
,
0100
0001
0100
0001
,
1000
0100
0010
0010
,
0100
1000
1000
0001
,
0200
0000
0000
0000
0301
0000
0000
0100
,
0000
0010
1000
0000
,
0001
0000
0010
0100
,
1000
0001
0100
0010
,
1000
0000
0000
0000
0001
0000
0000
0100
,
0000
0100
0010
0000
,
1000
0000
0001
0001
,
0100
0010
1000
0001
,
0100
0001
0001
0100
,
0100
0010
0010
1000
,
1000
0001
0100
0010
,
1000
0001
1000
0001
,
1000
0100
0010
0001
,
0010
0001
0010
0001
,
0010
0001
0100
0010
,
1000
0002
0000
0003
,
0200
0000
0300
0001
,
1000
0000
0000
1000
0000
0000
0000
0000
,
0001
0100
0010
0010
,
1000
0001
0001
0100
,
0010
0010
1000
0001
,
0100
0000
0000
0100
0000
0000
0000
0000
,
0001
0100
0010
1000
,
0001
0020
0000
0030
,
0001
0010
0010
0001
,
1000
0000
0000
0010
0000
0000
0000
0000
,
1000
0001
0100
0100
,
0010
1000
0001
0100
,
0010
0010
1000
1000
,
0001
0000
0000
0100
0000
0000
0000
0000
,
0010
1000
0010
1000
,
0001
0010
0100
1000
,
0100
1000
1000
0001
,
0100
0001
0001
0001
,
2000
0000
3000
0000
0010
0000
0000
0100
,
0000
0002
0000
0003
,
1000
1000
0010
0100
,
0010
0000
0000
0100
0000
0000
0000
0000
,
0001
0001
0010
0100
,
1000
0020
0000
0030
,
0100
0001
0001
0100
,
0010
0000
0000
0010
0000
0000
0000
0000
,
1000
0100
0010
0001
,
0100
0010
0100
0010
,
0100
0000
0000
0100
0000
0000
0001
0000
,
0001
0000
0000
0200
0000
0000
0000
0000
,
0002
0000
0300
0000
,
0003
1000
0001
0100
,
0001
0000
0000
0000
0010
0000
0000
0001
,
0000
1000
0100
0010
,
0001
0000
0000
0000
0100
0000
0000
0100
,
0000
0010
0000
0000
,
1000
0000
0001
0100
,
0010
1000
0001
0010
,
0001
0000
1000
0001
,
0010
0100
1000
0100
,
1000
0000
0000
0000
0010
0000
0000
0100
,
0000
0100
0001
1000
,
0010
0010
1000
0001
,
0000
0002
0000
0000
0003
0000
0000
0000
,
0100
0000
0100
0001
,
0010
0100
0010
0001
,
0200
0000
0300
0010
,
0100
0010
1000
0001
,
0200
0000
0000
0000
,
0300
0000
0000
0000
0001
0000
0000
0010
,
0000
0200
0000
0000
,
0000
0000
0300
0000
1000
0000
0000
0010
,
0000
0100
0000
0000
,
0001
0000
0100
0000
0010
0000
0000
0020
,
0000
0000
0000
0030
,
2000
0000
0000
0000
,
0002
0000
0000
0000
,
3000
0000
0000
0000
1003
0000
0000
0001
,
0000
0200
0000
0000
,
0300
0000
0001
0000
1000
0000
0000
0020
,
0000
0000
0000
0030
,
0100
0000
0100
0000
0001
0000
0000
1000
,
0000
0000
0001
1000
,
0100
0010
0001
0100
,
0010
0000
0100
0000
;

//--------------- dance-single - RxSteps ----------------
#NOTES:
     dance-single:
     RxSteps:
     Easy:
     6:
     0,0,0,0,0:
0000
0000
0000
0000
,
0100
0000
0000
1000
,
0010
0100
0010
1000
,
0100
0000
0000
1000
0000
0000
0010
0000
,
0000
0100
0000
0000
0001
0000
1000
0000
,
0001
0000
0000
0010
0000
0000
0001
0000
,
0000
1000
0000
0000
0010
0000
1000
0000
,
0002
0000
0003
0100
0000
0000
0100
0000
,
0000
0001
0000
0000
1000
0000
0010
0000
,
1000
0000
0000
0001
0000
0000
0100
0000
,
0001
0100
0100
0010
,
1000
0000
0000
0010
0000
0000
0100
0000
,
0000
0100
0000
0000
0001
0000
0010
0000
,
0001
0000
0000
0010
0000
0000
0200
0000
,
0000
1000
0000
0000
0310
0000
0100
0000
,
1000
0000
0000
0001
0000
0000
0100
0000
,
0000
0010
0000
0000
1000
0000
0001
0000
,
0100
0000
0000
0010
0000
0000
0100
0000
,
0001
1000
0100
1000
,
0010
0000
0000
0000
0100
0000
0000
0001
,
0000
0100
0010
0200
,
0302
0000
0003
0000
0010
0000
0100
2000
,
0000
0002
3000
0000
,
0100
0000
2003
3010
,
0100
0001
0010
0100
,
0020
0000
0001
0130
,
0010
0001
1000
0010
,
0200
0000
0000
0000
0301
0000
0000
1000
,
0000
0100
0010
0100
,
1000
0000
0001
0000
0100
0000
0010
0200
,
0000
0302
0000
0003
,
2000
0000
0001
0010
,
3002
1000
0103
1000
,
0020
0000
0130
0001
,
0010
0001
0100
0001
,
1000
0100
0010
0001
,
0010
0100
1000
0010
,
0100
0010
0010
0100
,
0001
0010
0100
0010
,
0001
1000
0001
0010
,
0100
1000
1000
0001
,
2000
0020
0000
3000
,
1030
0001
0010
0100
,
1000
0000
0000
0001
0000
0000
0100
0000
,
0010
0000
0000
0000
0010
0000
0100
0001
,
0000
0200
0000
0000
,
0300
0001
1000
0100
,
2000
0000
0000
3000
,
0001
0000
0100
0000
0010
0000
0010
0200
,
0000
0300
0001
0100
,
0001
0010
0100
1000
,
1100
1000
0000
0001
,
0100
0000
0000
0100
0000
0000
0001
0000
,
1000
0001
2000
0000
3000
0010
1000
0000
,
0001
0100
0002
0000
0003
1000
0001
0000
,
0001
0000
0001
0000
0100
0010
0100
0000
,
0002
0000
0000
1000
0003
1000
0001
0000
,
0100
0001
0200
0000
0300
0010
0100
0000
,
0001
1000
0020
0000
0000
0000
0100
0000
,
1030
0000
0010
0000
0010
1000
0010
0000
,
0200
0000
0000
0010
0300
0010
0100
0000
,
0010
1000
0020
0000
0030
1000
0010
0000
,
0100
0001
0010
0100
,
1000
1000
0001
0100
,
0002
0000
0000
1003
0000
0001
1000
0000
,
0001
0100
0010
1000
,
0100
0010
0002
0003
,
0100
0000
0001
0000
0010
0000
0100
0010
,
0100
1000
0001
0100
,
0200
0000
0000
0000
0310
0000
1000
0002
,
0000
0000
0200
0300
0003
0100
0001
0000
,
1000
1000
0010
0010
,
0100
0001
1000
0010
,
2200
0000
3300
1000
,
0010
0100
0001
0010
,
0022
0000
0000
0033
0000
0000
0001
1000
,
0001
1000
0010
0100
,
0010
0000
0010
0000
1000
0000
0001
2000
,
0000
0000
0020
3000
0030
1000
0020
0000
,
0100
0130
0001
0100
,
0010
0100
0001
1000
,
0220
0000
0330
0001
,
1000
0100
0010
0001
,
2200
0000
0000
3300
0000
1000
0100
0000
,
1000
0000
0001
0000
0100
0000
0010
0200
,
0000
0002
0000
0000
,
0303
0000
0000
0000
0001
0000
1000
0200
,
0000
0020
0300
0000
,
0030
0000
0001
0000
0100
0000
0010
0100
,
0000
0000
0001
0000
0001
0000
1000
0200
,
0000
0000
0000
0300
,
1000
0000
0010
1000
0000
0001
1000
0001
,
1000
0000
0001
0100
0001
0000
0100
0010
,
0000
2000
0000
0000
,
0000
0010
3020
0000
,
0130
0000
0100
0010
0000
1000
0001
0000
,
1000
0000
0010
0000
0100
0000
0001
0200
,
0000
0000
0000
0300
0001
0000
1000
0000
,
0010
0010
1000
0001
,
0200
0000
0000
0000
0301
0000
0000
0100
,
0000
0010
1000
0000
,
0001
0000
0010
0100
,
1000
0001
0100
0010
,
1000
0000
0000
0000
0001
0000
0000
0100
,
0000
0100
0010
0000
,
1000
0000
0000
0000
0001
0100
0001
0000
,
0100
0010
1000
0001
,
0100
0001
0001
0100
,
0100
0010
0010
1000
,
1000
0001
0100
0010
,
1000
0100
0010
0001
,
1000
0100
0010
0001
,
0010
0100
1000
0001
,
0010
0001
0100
0010
,
1000
0002
0000
0003
,
1010
1000
1000
0001
,
0010
0000
0000
0010
0000
0001
0010
0000
,
0001
0010
0002
0003
0000
0001
0010
0000
,
0001
1000
0002
0000
0003
1000
0001
0000
,
0100
0000
0100
0000
0001
0100
0001
0000
,
0020
0000
0030
0001
0000
0010
0001
0000
,
1000
0001
2000
3000
0000
1000
0001
0000
,
0001
0100
0020
0000
0000
0000
1030
0000
,
0001
0010
0010
0001
,
2000
0000
0000
0100
3000
1000
0100
0000
,
1000
0000
0020
0000
0030
1000
0010
0000
,
0100
0020
0000
0030
0000
0010
0100
0000
,
0010
0000
0010
0000
1000
0100
1000
0000
,
0002
0000
0000
1000
0003
1000
0001
0000
,
0100
0001
0100
0000
0000
0001
0200
0000
,
0001
0001
0310
1000
,
0100
1000
1000
0001
,
0020
0001
0031
0001
,
2000
0000
3000
0000
0010
0000
0100
0020
,
0000
0000
2000
0030
0000
0000
3000
0000
,
0001
0000
0001
0000
0100
0001
0100
0000
,
0020
0000
0000
1000
0030
1000
0010
0000
,
0100
0001
0010
0100
,
1000
0020
0100
0130
,
0001
1000
1000
0100
,
0010
0000
0000
0010
0000
0001
0010
0000
,
0001
0100
0020
1000
,
0100
1000
0100
1030
,
0010
0000
0000
0100
0000
0010
1000
0010
,
0000
0000
0000
0200
0000
0000
0000
0000
,
0001
0001
0301
0001
,
0001
1000
0100
0010
,
0001
0000
0000
0000
0010
0000
0000
0001
,
0000
1000
0100
0010
,
0001
0000
0000
0000
0001
0000
0010
0002
,
0000
2000
0003
0000
,
3010
0000
0001
0100
,
0010
1000
0001
0010
,
1100
0000
1000
0001
,
0010
0100
1000
0100
,
0201
0000
0000
0000
0010
0000
0000
0001
,
0000
0001
0310
1000
,
0010
0000
0010
0000
1000
0000
0010
0200
,
0000
0002
0000
0303
,
0100
0000
1000
0001
,
0010
0100
0010
0001
,
1001
0000
1000
0010
,
0100
0010
1000
0001
,
0220
0000
0000
0000
,
0330
0000
0000
0000
0001
0000
1000
0020
,
0000
0200
0000
0000
,
0000
0000
0330
0000
0001
0000
1000
0200
,
0000
2000
0000
3300
,
0001
0000
0100
0000
0010
0000
0200
0020
,
0000
0000
0000
0300
,
2000
0000
0030
0000
,
0002
0000
0000
0000
,
3000
0000
0000
0000
0013
0000
0001
2000
,
0000
0020
0000
0030
,
0000
0000
3002
0000
0013
0000
0002
0200
,
0000
0000
0000
0300
,
0203
0000
0310
0000
1000
0000
0001
0020
,
0000
0000
0031
1000
,
0100
0010
0001
0100
,
0010
0000
0100
0000
;

//--------------- dance-single - RxSteps ----------------
#NOTES:
     dance-single:
     RxSteps:
     Medium:
     8:
     0,0,0,0,0:
0000
0000
0000
0000
,
0100
0000
0000
1000
,
0010
0100
0010
1000
,
0100
0000
0000
1000
0000
0000
0010
0000
,
0000
0100
0000
0000
0001
1000
0001
0100
,
0001
0000
0000
0010
0000
0000
0001
0000
,
0000
1000
0000
0000
0010
1000
0100
1000
,
0002
0000
0003
0100
0000
0010
0200
0000
,
0000
0301
0000
0100
0010
0100
0010
1000
,
0001
0000
0000
0100
0000
0010
0200
0000
,
0001
0320
0100
1000
,
0130
0000
0000
0010
0000
1000
0100
0000
,
0000
1000
0000
0000
0001
1000
0001
0100
,
0001
0000
0000
0010
0000
0000
0200
0000
,
0000
1000
0300
0000
0200
0310
0100
1000
,
0200
0000
0000
0310
0000
0001
0100
0000
,
0000
0100
0000
0010
1000
0010
1000
0001
,
0100
0000
0000
0010
0000
1000
0100
1000
,
0001
0100
0000
0000
0010
1000
0001
1000
,
0100
0000
0000
0000
0010
0000
0000
0001
,
0000
0100
0010
0200
,
0302
0000
0003
0000
0010
0000
0100
2000
,
0000
0002
3000
0000
,
0100
0000
2003
3010
,
0100
0001
0010
0100
,
0020
0000
0001
0130
,
0010
0001
1000
0010
,
0200
0000
0000
0000
0301
0000
0000
1000
,
0000
0100
0010
0100
,
1000
0000
0001
0000
0100
0000
0010
0200
,
0000
0302
0000
0003
,
2000
0000
0001
0010
,
3200
0320
0031
1000
,
0020
0000
0130
0001
,
0010
0001
0100
0001
,
0010
0001
0010
0000
0001
0100
0001
0000
,
0010
0100
0010
0000
0001
1000
0001
0000
,
0100
0001
0100
0000
0001
1000
0001
0000
,
1000
0010
1000
0000
0001
0100
0001
0000
,
0010
0001
0010
0000
0001
0100
0001
0000
,
0010
0001
0010
0000
0100
1000
0100
0000
,
2000
0010
0001
3200
,
0310
0002
1000
0010
,
2003
0010
3002
0100
,
2003
0010
3200
0010
,
2300
0001
3020
1000
,
0230
0001
0320
0100
,
1030
0010
1000
0010
1000
0010
1000
0010
,
0100
0001
0100
0001
0100
0001
0100
0001
,
2000
0000
3010
0100
,
0001
0010
0100
1000
,
0021
0200
0030
1300
,
0020
0000
0000
0100
0030
0000
0001
0000
,
1000
0001
0020
0000
0030
0001
0100
0000
,
0010
1000
0020
0000
0030
0010
2000
0000
,
0001
0000
3001
0000
0100
0010
0100
0000
,
0002
0000
0000
1000
0003
1000
0001
0000
,
0100
0001
2000
0000
3000
0010
0100
0000
,
0001
0100
0020
0000
0030
0010
0100
0001
,
0100
0000
0010
0000
0000
1000
0001
0000
,
0020
0000
0000
0130
0000
1000
0010
0000
,
0010
1000
0002
0000
0003
0100
0001
0000
,
1000
0010
0200
0000
0300
0001
0200
0000
,
0010
0000
0310
0000
1000
0001
0100
0000
,
0010
0000
0000
0100
0000
0001
2000
0000
,
0010
3002
0100
0023
,
0100
0000
0031
0000
1000
0001
1000
0010
,
0100
0000
0001
0100
0010
0100
0001
0010
,
0100
0010
0002
0000
0010
0000
0103
0000
,
0200
0000
0000
0000
0310
0000
1000
0001
,
1000
0000
0020
0000
0030
1000
0001
0000
,
0100
0010
0100
0010
0100
0000
0001
0000
,
0101
1010
1100
0101
,
1000
0100
1000
0100
1000
0100
0010
0001
,
0020
0100
0032
0203
,
0310
0100
0010
0100
0010
0100
0001
1000
,
0100
1000
0100
1000
0100
1000
0002
0000
,
0100
0000
0203
0000
0310
0000
1000
0100
,
0000
0000
2000
0000
3000
0001
0200
0000
,
0010
0000
0310
0000
1000
0001
1000
0001
,
1000
0100
0010
0100
1000
0100
0010
0100
,
2000
0000
0001
0000
3010
0000
1000
0001
,
0010
0100
0010
0001
0010
0100
0010
0001
,
0020
0000
0100
0000
0130
0010
0200
0000
,
1300
0000
0001
0000
0100
0000
0010
0200
,
0000
0000
0302
0000
0003
1000
0010
0000
,
0100
0000
0001
0000
0100
0000
0010
2000
,
0000
0000
3002
0000
0003
0100
0001
0000
,
1000
0010
0100
0000
0100
0000
0001
1000
,
0000
0000
1000
0000
0010
0000
0010
0200
,
0000
0000
0000
0000
0300
0001
0100
0000
,
0001
0100
0010
0200
0300
0010
1000
0010
,
0200
0300
0001
2000
3000
0010
0100
0010
,
0200
0300
0100
0002
0003
1000
0100
1000
,
0200
0010
1300
0001
,
0100
0000
0010
0100
0000
0001
1000
0001
,
1000
0000
0020
0000
0100
0030
1000
0100
,
1000
0100
1000
0001
0100
0010
0100
0001
,
0100
0010
1000
0010
,
0200
0000
0000
0000
0301
0000
0000
0100
,
0000
0010
1000
0000
,
0100
0000
0010
0100
,
1000
0001
0100
0010
,
1000
0000
0000
0000
0001
0000
0000
0100
,
0000
0100
0010
0000
,
1000
0000
0000
0000
0001
0010
0001
0000
,
0100
0010
1000
0200
,
0010
1300
0002
0010
,
0023
0100
0032
0103
,
0001
1000
0001
0000
1000
0100
1000
0000
,
0001
0010
0001
0000
1000
0001
1000
0000
,
0010
0100
0010
0100
0010
0100
0010
0100
,
0001
0100
0001
0100
0001
0100
0001
0000
,
0010
0001
0100
0010
,
1000
0000
0001
0000
0100
0010
1000
0000
,
1100
0000
1000
0100
0010
0100
1000
0000
,
2000
0000
3000
0010
0000
0100
0001
0000
,
1000
0010
0200
0000
0300
0001
0010
0000
,
0001
0010
0200
0000
0300
1000
0100
0000
,
0101
0000
1010
0000
0001
0100
0001
0000
,
0020
0000
0030
0100
0000
1000
0100
0000
,
1000
0001
0200
0000
0300
0100
0010
0000
,
0010
0100
0002
0000
0003
0000
1020
0000
,
0130
0000
0010
0000
0010
0100
0001
0000
,
2000
0000
0000
0100
3000
0001
0100
0000
,
0001
1000
0020
0000
0030
0100
0001
0000
,
1000
0100
0020
0000
0030
0010
0100
0000
,
1000
0000
1000
0000
0001
0100
0001
0000
,
0010
0000
0000
0200
0300
1000
0010
0000
,
0100
0001
0020
0000
0030
0010
0200
0000
,
1000
0010
1300
0001
,
0010
1010
0110
1200
,
0310
0001
0001
0001
,
1000
0100
0010
0100
1000
0100
0010
0100
,
1000
0100
0010
0001
0010
0001
0010
0001
,
1000
0000
1000
0000
0001
0010
0100
0000
,
2000
0000
3000
0010
0000
0100
0001
0000
,
0010
0100
2000
3000
0000
1000
0001
0000
,
0020
0100
0001
0130
,
1100
0000
1000
0000
1000
0001
0100
0000
,
0020
0000
0030
0100
0000
0001
1000
0000
,
0010
0100
0002
0000
0003
1000
0010
0000
,
0020
1000
0100
1030
,
0001
0000
0000
0201
0000
0310
1000
0010
,
0000
0000
0000
0200
0000
0000
0000
0000
,
0001
0001
0301
0001
,
0001
0100
0010
1000
0001
0100
0010
1000
,
0001
0000
0000
0000
0010
0000
0000
0001
,
0000
1000
0100
0010
,
0001
0000
0000
0000
0001
0000
0010
0002
,
0000
2000
0003
0000
,
3010
0000
0101
0100
,
1010
0010
0101
0100
,
1200
0000
1300
0001
,
0101
0100
1001
0001
,
1200
0000
0000
0000
0010
0000
0000
1000
,
0000
1000
0310
0001
,
0010
0000
0100
0000
1000
0000
0010
0200
,
0000
0002
0000
0303
,
0100
0000
1010
0010
,
1001
1000
1100
0100
,
0021
0000
0100
0031
,
0010
0100
1000
0001
,
0220
0000
0000
0000
,
0330
0000
0000
0000
0001
0000
1000
0020
,
0000
0200
0000
0000
,
0000
0000
0330
0000
0001
0000
1000
0200
,
0000
2000
0000
3300
,
0001
0000
0100
0000
0010
0000
0200
0020
,
0000
0000
0000
0300
,
2000
0000
0030
0000
,
0002
0000
0000
0000
,
3000
0000
0000
0000
0013
0000
0100
2000
,
0000
0200
0000
0300
,
0000
0000
3002
0000
0013
0000
0002
0200
,
0000
0000
0000
0300
,
0203
0000
0310
0000
1000
0000
0001
0020
,
0000
0000
0031
1000
,
0100
0010
0001
0100
,
0010
0000
0100
0000
;

//--------------- dance-single - RxSteps ----------------
#NOTES:
     dance-single:
     RxSteps:
     Hard:
     9:
     0,0,0,0,0:
0000
0000
0000
0000
,
0100
0000
0000
1000
,
0010
0100
0010
1000
,
0100
0000
0000
1000
0000
0000
0010
0000
,
0000
0100
0000
0000
0001
1000
0001
0010
,
0100
0000
0000
0010
0000
0000
0001
0000
,
0000
1000
0000
0000
0010
1000
0100
0010
,
0002
0000
0003
0200
0300
1000
0200
0000
,
0000
0301
0000
0100
0010
1000
0100
0010
,
0001
0000
0000
0100
0000
0010
0200
0000
,
0001
0320
0100
1000
,
0130
0000
0000
0010
0000
1000
0100
0000
,
0000
1000
0000
0000
0001
1000
0010
0100
,
0001
0000
0000
0010
0000
0000
0200
0000
,
0000
1000
0300
0000
0200
0301
0100
1000
,
0200
0000
0000
0310
0000
0001
0100
0000
,
0000
0100
0000
0010
1000
0010
0100
0001
,
0010
0000
0000
0100
0000
1000
0100
1000
,
0001
0100
0000
0000
0010
1000
0001
1000
,
0100
0000
0000
0000
0010
0000
0000
0001
,
0000
0200
1300
0200
,
0302
0000
0003
0000
0010
0000
0100
2000
,
0000
0002
3000
0000
,
0100
0000
2003
3010
,
0100
0001
0010
0100
,
0020
0000
0001
0130
,
0010
0001
0200
1300
,
0200
0000
0000
0000
0301
0000
0000
1000
,
0000
0100
0010
0100
,
1000
0000
0001
0000
0100
0000
0010
0200
,
0000
0302
0000
0003
,
2000
0000
0001
0010
,
3200
0320
0031
0200
,
2300
0000
3100
0001
,
0020
1030
0010
0001
,
0010
0001
0010
0001
1000
0100
1000
0100
,
0010
0100
0010
0100
1000
0001
1000
0001
,
0100
0001
0100
0001
1000
0001
1000
0001
,
1000
0010
1000
0010
0100
0001
0100
0001
,
0010
0001
0010
0001
1000
0100
1000
0100
,
0010
0001
0010
0001
0100
0001
0100
0001
,
2000
0010
0001
3200
,
0310
0002
1000
0010
,
0103
0001
0100
0001
0100
0001
0100
0001
,
1000
0001
1000
0001
1000
0001
1000
0001
,
1000
0100
1000
0100
1000
0100
1000
0100
,
0010
0001
0010
0100
1000
0100
0010
0001
,
1000
0010
0100
0001
0100
0010
1000
0100
,
0010
0001
1000
0010
0100
0001
0010
0100
,
2000
0000
3020
0031
,
1000
0100
0010
1000
,
0021
0200
0030
1300
,
0020
0000
0000
0100
0030
0000
0001
0000
,
1000
0100
0010
0001
0010
0001
0010
0001
,
1000
0010
0100
0001
1000
0010
0100
0001
,
1000
0010
1000
0100
1000
0010
0100
0001
,
2000
0000
0000
0010
3000
1000
0100
0000
,
0021
0130
1000
0100
0010
0100
0010
0100
,
1000
0001
0200
0000
0300
0100
0001
0000
,
1020
0000
0230
0000
0300
0001
0020
0000
,
1000
0030
0000
0010
0000
0001
1000
0000
,
0010
0100
0001
0010
0100
1000
0010
0100
,
0001
0010
0100
1000
0100
1000
0001
0100
,
0001
1000
0001
0010
0001
0100
0010
1000
,
0002
0000
0000
0010
0003
0001
0100
0000
,
0010
1000
0010
1000
0001
0100
0001
0100
,
0001
1000
0100
0010
0001
0100
0010
1000
,
0001
0100
0001
0100
0010
1000
0001
0200
,
1300
0100
0001
0010
0100
0010
0001
0010
,
0100
1000
0100
1000
0001
0100
0010
1000
,
0001
1000
0100
0010
0100
1000
0100
0010
,
0001
1000
0001
1000
0100
0000
0110
0000
,
0101
1010
1100
0201
,
0310
0100
0001
1000
0100
0010
0001
0020
,
1030
0010
0001
0020
1030
0010
0001
0010
,
0100
1000
0100
0010
0100
1000
0001
0010
,
0100
0010
0001
1000
0010
0100
0001
0000
,
0020
0000
0100
0000
0032
0003
0100
0020
,
0000
0000
2030
0000
3000
0001
0020
0000
,
0130
0000
0100
0000
1000
0100
0010
0100
,
1000
0100
0010
0100
1000
0000
1000
0000
,
0001
0010
0100
1000
0010
0100
0001
0000
,
0001
0010
0100
0010
0001
0010
0100
0010
,
0001
0100
0010
1000
0010
0100
0001
1000
,
0100
0010
0001
1000
0100
1000
0010
0100
,
0001
1000
0001
0100
0010
1000
0001
0010
,
0001
0100
0010
1000
0010
1000
0001
0100
,
0010
1000
0010
0100
0010
1000
0001
0100
,
0010
1000
0200
0301
0200
1300
0200
0301
,
0100
1000
0020
0031
0020
1030
0020
0031
,
0010
1000
0010
0100
0001
1000
0010
0100
,
0002
0003
1000
0200
0300
0010
0001
0010
,
0002
0003
0001
2000
3000
0010
0100
0010
,
0200
0300
0100
0002
0003
1000
0100
1000
,
0200
0010
1300
0001
,
0100
0000
0010
0100
0000
0001
1000
0001
,
1000
0000
0020
0000
0100
0030
1000
0100
,
1000
0100
1000
0001
0100
0010
0100
0001
,
0200
1300
0001
0010
,
0200
0000
0000
0000
0301
0000
0000
0100
,
0000
0010
1000
0000
,
0100
0000
0010
0100
,
1000
0200
0301
0100
,
1000
0000
0000
0000
0001
0000
0000
0100
,
0000
0100
0010
0000
,
1000
0000
0000
0000
0001
0010
0001
0000
,
0100
0000
0010
0000
1000
0000
0001
0100
,
0001
0100
0010
1000
0100
0010
0001
1000
,
0100
0010
0001
0100
0010
1000
0010
0100
,
0001
1000
0001
1000
0001
0100
0001
0100
,
0001
0010
0001
0010
0001
1000
0001
1000
,
0100
0010
0001
0010
0100
0010
0001
0010
,
0100
0010
0001
0100
0010
1000
0001
0100
,
0002
0023
1030
0001
,
0100
0000
1000
0000
0010
0100
0001
0000
,
1100
0000
0001
0100
0001
1000
0010
0100
,
0001
1000
0010
0100
0010
0100
0001
0010
,
0100
0010
0001
0010
0100
0010
0100
0010
,
0001
1000
0010
0100
0010
0100
0010
1000
,
0001
0000
0110
0000
1000
0100
0010
0000
,
0101
0000
0100
0010
0100
0001
1000
0001
,
0100
0010
1000
0001
0100
0001
1000
0100
,
1000
0200
0002
0303
0000
0000
1001
0000
,
1200
0000
0310
0001
0010
0100
0010
0001
,
2000
0000
3000
0010
0000
0100
0001
0000
,
1000
0100
0010
0100
1000
0100
0010
0100
,
1000
0001
0020
0000
0030
0001
0200
0300
,
1000
0200
0301
0100
1000
0100
0020
0000
,
2030
0000
3000
0100
0000
1000
0010
0000
,
1000
0010
0100
0001
1000
0010
0100
0001
,
0010
0100
0010
0001
0010
0100
0010
0001
,
1000
0101
0110
1200
,
0310
0000
0002
0000
0010
0000
2003
3000
,
0010
1000
0010
0100
0001
0100
0010
0100
,
0001
0100
0010
1000
0100
1000
0100
0010
,
0001
0000
1010
0000
0001
0010
0100
0000
,
2000
0000
3000
0010
0000
0100
0001
0000
,
1000
0100
0010
0001
1000
0100
1000
0001
,
0020
2000
3030
0000
,
0101
0000
1010
0000
0001
1000
0200
0000
,
0320
0000
0030
0001
0000
1000
0200
0300
,
0010
0100
1000
0100
0010
0100
1000
0200
,
0301
0100
1000
0200
0301
0100
2000
0000
,
3020
0000
0030
0001
0000
1000
0100
0000
,
0010
0000
0000
2000
0000
0000
0000
0000
,
0001
0001
0001
3001
,
0001
0100
0010
1000
0100
0010
0001
0000
,
0100
0000
0000
0000
0010
0000
0000
1000
,
0000
1000
0100
0010
,
0001
0000
0000
0000
0001
0000
0010
0002
,
0000
2000
0003
0000
,
3010
0000
0110
0021
,
0130
1100
0201
2300
,
0200
0000
3300
0110
,
0101
1200
0310
0011
,
1200
0000
0000
0000
0010
0000
0000
1000
,
0000
1000
0310
0001
,
0010
0000
0100
0000
1000
0000
0010
0200
,
0000
0002
0000
0303
,
0100
0000
1010
1200
,
0310
0011
1020
0032
,
0020
0000
0003
0130
,
1001
0021
0130
1100
,
0022
0000
0000
0000
,
0000
0000
0003
0000
0130
0000
1000
0020
,
0000
0200
0000
0000
,
0000
0000
0330
0000
0001
0000
1000
0200
,
0000
2000
0000
3300
,
0001
0000
0100
0000
0010
0000
0200
0020
,
0000
0000
0000
0300
,
2000
0000
0030
0000
,
0002
0000
0000
0000
,
3000
0000
0000
0000
0013
0000
0100
2000
,
0000
0200
0000
0300
,
0000
0000
3002
0000
0013
0000
0002
0200
,
0000
0000
0000
0300
,
0203
0000
1300
0000
0100
0000
0001
0020
,
0000
0000
0031
1000
,
0100
0010
0001
0100
,
0010
0000
0100
0000
;
