#TITLE:Dirty Work;
#SUBTITLE:;
#ARTIST:Aespa;
#TITLETRANSLIT:;
#SUBTITLETRANSLIT:;
#ARTISTTRANSLIT:;
#GENRE:;
#CREDIT:RxSteps;
#MUSIC:Dirty Work.ogg;
#BANNER:Dirty Work.png;
#BACKGROUND:Dirty Work-bg.png;
#CDTITLE:cdtitle.png;
#SAMPLESTART:88.330;
#SAMPLELENGTH:19.592;
#SELECTABLE:YES;
#OFFSET:2.282;
#BPMS:0.000=98.000;
#STOPS:;
#BGCHANGES:;
#FGCHANGES:;

//--------------- dance-single - RxSteps ----------------
#NOTES:
     dance-single:
     RxSteps:
     Beginner:
     4:
     0,0,0,0,0:
0000
0000
0000
0000
,
1000
0000
0000
0010
0000
0000
1000
0000
0000
0000
0001
0000
0000
0000
0000
0000
,
0010
0000
0000
0001
0000
0000
0010
0000
0000
0000
0001
0000
0000
0000
0000
0000
,
0001
0000
0000
0010
0000
0000
0100
0000
0000
0000
1000
0000
0000
0000
0000
0000
,
0001
0000
0000
1000
0000
0000
0010
0000
0000
0000
0100
0000
0000
0000
0000
0000
,
0001
0000
0100
0000
0010
1000
0010
0000
,
1000
0000
0001
0000
1000
0010
1000
0000
,
0001
0000
0020
0000
0030
0000
0001
0010
,
0001
0000
1000
0000
0010
0000
0100
0010
,
0100
0000
0001
0000
1000
0001
1000
0001
,
1000
0000
0010
0000
0100
0010
0100
0010
,
0100
0001
0010
0010
,
0001
0000
0000
1000
0000
0000
0001
0000
0000
0100
0000
0000
0001
0000
0000
0000
,
1000
0100
0010
0001
,
1000
0000
0010
0000
1000
0000
0000
0001
0000
0100
0000
0000
0001
0000
0000
0000
,
1000
0000
0001
0000
1000
0000
0000
0010
0000
1000
0000
0000
0010
0000
0000
0000
,
1000
0000
0001
0000
1000
0000
0000
0010
0000
1000
0000
0000
0010
0000
0000
0000
,
0100
0001
0010
0100
,
0100
0000
0010
0000
0001
0000
0000
0010
0000
0001
0000
0000
0010
0000
0000
0000
,
0001
0000
1000
0000
0001
0000
0000
0100
0000
0001
0000
0000
0100
0000
0000
0000
,
0010
0000
1000
0000
0010
0000
0000
0100
0000
0010
0000
0000
1000
0000
0000
0000
,
0001
0000
0100
0000
0010
0000
1000
0010
,
1000
0001
0010
0100
,
0010
0000
0001
0000
0010
0000
0000
0100
0000
1000
0000
0000
0100
0000
0000
0000
,
0100
0000
1000
0000
0001
0000
0000
1000
0000
0010
0000
0000
0100
0000
0000
0000
,
0001
0100
0001
0100
0001
0000
1000
0000
,
0010
0010
0100
0100
,
0001
0100
0002
0000
0000
0003
0100
0001
,
0100
0000
0010
0000
1000
0001
1000
0001
,
1000
0000
0010
0000
0000
0100
0000
0000
0000
0000
0010
0000
0100
0000
0010
0000
,
0100
0000
0001
0000
0010
0001
0010
0000
,
0100
1000
0100
1000
0100
0000
0010
0000
,
0001
0000
0000
1000
0000
0000
0010
0000
0000
0010
0000
0000
1000
0000
0000
0000
,
0001
0010
0100
1000
,
0001
0000
0100
0000
0001
0000
0000
1000
0000
0010
0000
0000
1000
0000
0000
0000
,
0001
0000
1000
0000
0001
0000
0000
0100
0000
0001
0000
0000
0100
0000
0000
0000
,
0001
0000
1000
0000
0001
0000
0000
0100
0000
0001
0000
0000
0100
0000
0000
0000
,
0010
1000
0100
0010
,
0010
0000
0100
0000
1000
0000
0000
0100
0000
1000
0000
0000
0100
0000
0000
0000
,
1000
0000
0001
0000
1000
0000
0000
0010
0000
1000
0000
0000
0010
0000
0000
0000
,
1000
0000
0000
0001
0000
0000
0100
0000
0000
0001
0000
0000
1000
0000
0000
0000
,
0100
0000
0000
0000
0000
0000
1000
0000
0000
0010
0000
0000
1000
0000
0000
0000
0000
0000
0001
0000
0100
0000
0001
0000
,
0100
0010
1000
0001
,
0010
0000
0000
0001
0000
0000
1000
0000
0000
0100
1000
0100
,
1000
0100
0010
0001
,
1000
0000
0001
0000
1000
0000
0001
0000
0000
0000
0000
0000
0100
0000
0000
0000
0000
0000
0010
0000
0000
0100
0000
0000
,
0010
0000
1000
0000
0100
0000
0010
0001
,
0010
0100
1000
0001
,
0100
0000
0000
0001
0000
0000
1000
0000
0000
0010
0000
0000
0100
0000
0000
0000
,
0001
1000
0010
0100
0010
0100
0010
0100
,
0001
1000
0100
0010
,
0001
1000
0010
1000
0010
1000
0010
1000
,
0001
0100
0010
1000
,
0010
0100
0001
0100
0001
0100
0001
0100
,
0010
1000
0001
0100
,
0010
0100
0010
1000
0010
1000
0010
1000
,
0001
0000
0000
0100
0000
0000
0100
0000
0000
0001
0000
0000
0010
0000
0001
0000
,
0010
0001
0100
0001
,
1000
0000
0100
0000
1000
0000
0000
0001
0000
0010
0000
0000
0001
0000
0000
0000
,
1000
0000
0001
0000
1000
0000
0000
0100
0000
1000
0000
0000
0100
0000
0000
0000
,
1000
0000
0001
0000
1000
0000
0000
0100
0000
1000
0000
0000
0100
0000
0000
0000
,
0010
0001
0100
0010
,
0010
0000
0100
0000
0001
0000
0000
0100
0000
0001
0000
0000
0100
0000
0000
0000
,
0001
0000
1000
0000
0001
0000
0000
0010
0000
0001
0000
0000
0010
0000
0000
0000
,
0100
0000
0000
1000
0000
0000
0100
0000
0000
0100
0000
0000
1000
0000
0000
0000
,
0001
0000
0010
0000
0100
0000
1000
0100
,
1000
0001
0100
0010
,
0100
0000
0001
0000
0100
0000
0000
0010
0000
1000
0000
0000
0010
0000
0000
0000
,
0010
0000
1000
0000
0001
0000
0000
1000
0000
0100
0000
0000
0010
0000
0000
0000
,
0001
0000
0100
0000
0010
0000
1000
0010
,
1000
0001
0010
0100
,
0010
0000
0001
0000
0010
0000
0000
0100
0000
1000
0000
0000
0100
0000
0000
0000
,
0100
0000
0000
0010
0000
0000
0001
0000
0000
1000
0000
0000
0001
0000
0000
0000
,
0100
0000
0000
0020
0000
0000
0200
0000
0330
0000
0000
0000
0000
0000
0000
0000
;

//--------------- dance-single - RxSteps ----------------
#NOTES:
     dance-single:
     RxSteps:
     Easy:
     6:
     0,0,0,0,0:
0000
0000
0000
0000
,
1000
0000
0000
0100
0000
0000
0010
0000
0001
0000
0020
0000
0000
0000
0031
0000
,
0010
0000
0000
0010
0000
0000
0001
0000
0010
0000
0200
0000
0000
0000
0310
0000
,
0001
0000
0000
1000
0000
0000
0100
0000
0010
0000
0200
0000
0000
0000
1300
0000
,
0100
0000
0000
1000
0000
0000
0010
0000
0100
0000
0020
0000
0000
0000
1030
0000
,
0010
0000
0100
0000
0001
0000
1000
0000
0010
1000
0010
0000
1000
0000
0001
0000
,
0010
0000
0001
0010
0100
1000
0100
1000
,
0100
0000
0020
0000
0030
0001
1000
0010
,
1000
0000
0200
0000
1300
0001
0100
0010
,
0100
0001
1000
0001
2000
3000
0200
0300
,
0010
0001
0010
0001
0020
0030
0200
0300
,
1000
0001
0100
0010
1000
0001
0100
0010
,
1000
0000
0000
0100
0000
0000
0010
0000
0000
0001
0000
0000
1000
0000
0000
0000
,
0110
1001
1000
0010
,
1000
0000
0001
0000
0010
0000
0000
0010
0000
0001
0000
0000
1000
0000
0001
0000
,
1000
0000
0000
0000
0010
0000
0000
0010
0000
0100
0000
0000
0001
0000
0000
0000
,
0010
0000
0100
0000
1000
0000
0000
0100
0000
0010
0000
0000
0100
0000
0000
0000
,
1000
0001
0010
0001
,
0100
0000
0010
0000
0100
0000
0000
0001
0000
1000
0000
0000
0010
0000
0000
0000
,
0010
0000
1000
0000
0001
0000
0000
0010
0000
0001
0000
0000
1000
0000
0001
0000
,
1000
0000
0100
0000
0010
0000
0000
0100
0000
1000
0000
0000
0100
0000
0000
0000
,
1000
0110
0001
0110
,
2000
0001
0100
3001
,
1000
0000
0010
0000
0100
0000
0000
0100
0000
0010
0000
0000
1000
0000
0000
0000
,
0001
0000
0010
0000
0100
0000
0000
0100
0000
0010
0000
0000
0001
0000
0000
0000
,
0100
0001
0100
0001
1000
0010
1000
0010
,
2000
3000
0200
0300
0020
0030
0200
0300
,
1000
0001
0100
0001
0010
0001
1000
0001
,
1000
0100
0010
0001
1000
0001
1000
0010
,
0100
0000
0001
0100
0000
0001
0200
0000
0000
0000
0310
0000
0100
0000
0010
0000
,
1000
0010
1000
0001
0100
0001
0100
0001
,
1000
0100
1000
0001
0100
0001
1000
0010
,
1000
0000
0000
0001
0000
0000
0100
0000
0000
0010
0000
0000
1000
0000
0000
0000
,
0110
1001
0001
0100
,
0001
0000
1000
0000
0100
0000
0000
0100
0000
1000
0000
0000
0001
0000
1000
0000
,
0001
0000
0000
0000
0100
0000
0000
0100
0000
0010
0000
0000
1000
0000
0000
0000
,
0100
0000
0010
0000
0001
0000
0000
0010
0000
0100
0000
0000
0010
0000
0000
0000
,
0001
1000
0100
1000
,
0010
0000
0100
0000
0010
0000
0000
1000
0000
0001
0000
0000
0100
0000
0000
0000
,
0100
0000
0001
0000
1000
0000
0000
0100
0000
1000
0000
0000
0001
0000
1000
0000
,
0001
0000
0000
0100
0000
0000
0010
0000
0000
0100
0000
0000
0002
0000
0003
0000
,
1000
0000
0010
0000
1000
0000
0010
0000
1000
0000
0010
0000
0200
0000
0000
0300
0000
0000
0001
0000
0010
0000
0001
0000
,
0010
0000
0001
0000
0010
0000
0002
0000
0000
0003
0000
0000
2000
0000
0000
3000
0000
0000
0010
0000
0100
0000
0010
0000
,
0100
0000
0000
0001
1000
0010
0100
0000
0000
0100
0010
1000
,
0002
0000
0000
0003
0000
0000
1000
0000
0100
0000
1000
0000
0200
0000
0000
0300
0000
0000
0020
0000
0000
0030
0000
0000
,
0001
0000
1000
0000
0001
0000
1000
0000
0010
0000
0100
0000
0020
0000
0000
0030
0000
0000
1000
0000
0000
0100
0000
0000
,
2000
3000
0001
0100
0002
0003
0010
0100
,
1000
0000
0010
0000
0100
0010
0100
0010
,
1000
0000
0000
0001
0000
0000
0100
0000
0000
0010
0000
0000
1000
0000
0000
0000
,
0001
0100
0001
1000
0010
0100
0001
1000
,
0010
0011
0100
1100
,
1000
0001
0100
0010
1000
0001
0100
0010
,
1000
0101
0010
1010
,
0001
1000
0001
0010
0100
1000
0001
0010
,
0100
1001
0100
1001
,
0001
1000
0010
0100
0010
1000
0001
0100
,
0010
0000
0000
1000
0000
0000
0100
0000
0000
0010
0000
0000
0001
0000
0000
0000
,
0110
1001
1000
0100
,
1000
0000
0001
0000
0100
0000
0000
0100
0000
0001
0000
0000
1000
0000
0001
0000
,
1000
0000
0000
0000
0100
0000
0000
0100
0000
0010
0000
0000
0001
0000
0000
0000
,
0100
0000
0010
0000
1000
0000
0000
0010
0000
0100
0000
0000
0010
0000
0000
0000
,
1000
0001
0100
0001
,
0010
0000
0100
0000
0010
0000
0000
0001
0000
1000
0000
0000
0100
0000
0000
0000
,
0100
0000
1000
0000
0001
0000
0000
0100
0000
0001
0000
0000
1000
0000
0001
0000
,
1000
0000
0000
0001
0000
0000
0010
0000
0000
0100
0000
0000
1000
0000
0000
0000
,
0001
0110
0001
0110
,
2000
0001
0010
3001
,
1000
0000
0100
0000
0010
0000
0000
0010
0000
0100
0000
0000
1000
0000
0000
0000
,
0001
0000
0100
0000
0010
0000
0000
0010
0000
0100
0000
0000
0001
0000
0000
0000
,
1100
0010
0011
0001
,
1000
0101
0100
1010
,
0001
0000
0100
0000
0001
0000
0000
0010
0000
0001
0000
0000
1000
0000
0000
0000
,
0001
0000
0000
0100
0000
0000
0010
0000
0000
1000
0000
0000
0100
0000
0000
0000
,
0010
0000
0000
0200
0000
0000
2000
0000
3300
0000
0000
0000
0000
0000
0000
0000
;

//--------------- dance-single - RxSteps ----------------
#NOTES:
     dance-single:
     RxSteps:
     Medium:
     8:
     0,0,0,0,0:
0000
0000
0000
0000
,
0001
0000
0000
0100
0000
0000
0010
0000
1000
0000
1200
0000
0000
0000
0310
0000
,
0100
0000
0000
1000
0000
0000
0001
0000
0010
0000
0200
0000
0000
0300
0010
0000
,
0001
0000
0000
1000
0000
0000
0010
0000
1000
0000
0101
0000
0000
0000
0100
0000
,
0010
0000
0000
1000
0000
0000
0100
0000
0010
0000
0002
0000
0000
0003
1000
0000
,
0001
0000
0100
0001
0100
0000
0010
0000
1000
0100
1000
0100
1000
0000
0001
0000
,
0010
0001
0020
0000
0100
0030
0001
0000
1000
0000
0010
0100
0010
0000
1000
0000
,
0010
0000
0100
0020
2000
0030
0000
3000
0001
0100
0001
1000
0200
0000
0010
0300
,
1000
0001
0200
0000
0010
0000
0300
0000
0100
0010
1000
0001
0200
0000
0010
0300
,
0001
1000
0001
0200
0010
0300
0010
0100
0001
0000
1000
0000
0001
0000
1000
0000
,
0010
0100
0010
0000
1000
0000
0001
0000
0010
0000
0100
0000
1000
0000
0100
0000
,
1000
0000
0001
0100
0010
0100
0001
0000
1000
0000
0010
0100
0010
0000
1000
0000
,
0200
0000
0000
0010
0000
0300
1000
0000
0000
0010
0000
0000
0100
0000
0000
0000
,
1100
0011
1010
0110
,
0001
0000
1000
0000
0010
0200
0300
0001
0000
1000
0010
1000
0020
0000
0100
0030
,
1000
0000
0100
0000
0010
0002
0003
1000
0000
0010
0100
0010
0100
0000
0001
0000
,
0110
0000
1000
0000
0010
0100
0000
0010
0000
1000
0100
1000
0100
0000
0000
0000
,
0011
0000
1010
0000
0011
0000
2100
3000
,
0100
0000
1000
0000
0001
0100
0000
0010
0000
1000
0100
0020
0001
0000
0130
0000
,
0010
0000
0001
0000
0100
0001
0000
1000
0000
0010
1000
0010
1000
0000
0001
0000
,
0100
0000
0010
0000
1000
0000
0100
1000
0000
0001
0010
0200
2000
3300
0000
0000
,
0101
0000
1100
0000
0101
0000
1200
0010
,
2000
3300
0000
0000
0001
0000
0100
0000
0010
0000
0100
0000
0002
0000
0010
0003
,
1000
0000
0100
0000
0010
0001
0000
1000
0000
0100
0010
0100
0010
0000
0001
0000
,
1000
0000
0010
0000
0100
0001
0000
1000
0000
0010
0100
0010
0100
0000
0001
0000
,
0010
0000
0100
1000
0100
0000
0010
0000
0001
0000
0100
0010
0100
0000
0001
0000
,
0200
0300
0010
0100
0001
0000
1000
0200
1000
0300
1000
0100
0020
0000
0001
0030
,
0100
0000
1000
0001
1000
0000
0010
0000
0100
0000
0001
0100
0001
0000
0010
0000
,
0001
0000
1000
0100
1000
0000
0200
0000
0010
0000
1000
0300
0010
0000
0001
0000
,
1000
0000
0001
0200
0300
0010
2000
3000
0010
0000
0100
0000
0001
0000
0100
0000
,
0010
1000
0010
1000
0001
0100
0001
0100
0010
1000
0010
1000
0001
0000
0100
0000
,
0010
0000
1000
0000
0001
0000
1000
0002
0010
0003
0010
0001
0010
0001
1000
0100
,
2000
0000
0000
3200
0000
0000
0320
0000
0000
0032
0000
0000
1003
0000
0000
0000
,
0011
1100
0101
0110
,
1100
0000
0001
0000
0100
0020
0030
1000
0000
0010
0100
0020
0100
0030
1000
0000
,
0001
0000
0010
0000
0100
2000
3000
0010
0000
0100
0010
0100
0010
0000
0000
0000
,
1001
0000
0001
0000
1000
0100
0000
0010
0000
0001
0010
0001
0010
0000
0000
0000
,
0110
0101
1100
0011
,
0010
0000
0001
0000
1000
0010
0000
0100
0000
0001
0010
0200
1000
0000
0310
0000
,
0100
0000
1000
0000
0010
1000
0000
0001
0000
0100
0001
0200
0010
0300
0001
0000
,
1000
0000
0000
0002
0000
0000
0023
0000
0000
0230
0000
0000
1300
0000
0000
0000
,
0001
0000
0100
0000
0010
0000
0100
0000
0001
0000
1000
0000
0200
0000
0000
0310
0000
0000
0100
0000
1000
0000
0100
0000
,
0010
0000
0001
0000
0010
0000
0001
0000
1000
0000
0010
0000
1000
0000
0000
0000
0001
0000
0100
0000
0000
0010
1000
0000
,
0001
0000
0100
0010
1000
0020
0100
0000
0030
0100
0001
1000
,
0010
0000
0000
0000
1000
0000
0000
0000
0001
0000
0000
0000
0100
0000
0000
0000
0001
0000
0000
0000
0200
0000
0000
0000
0020
0000
0000
0000
0330
0000
0000
0000
0000
0000
0000
0000
2200
0000
0000
0000
0000
0000
0300
0000
0000
3000
0000
0000
,
0001
0000
0100
0000
0010
0000
0100
0000
0001
0000
1000
0000
0200
0000
0000
0010
0300
0000
1000
0000
0000
0001
0000
0000
,
0100
0000
0010
0000
1000
0000
0001
0000
0100
0000
0001
0000
2000
0000
0000
0010
0000
0000
3001
0000
0000
1000
0000
0000
,
0010
0000
0100
0020
1000
0030
1000
0010
0100
0000
0001
0000
0010
0000
0100
0000
,
2000
0000
0000
3020
0000
0000
0230
0000
0000
0302
0000
0000
0013
0000
0001
0000
,
1000
0000
0001
0100
0001
0000
0100
0000
0010
0000
1000
0000
0100
0000
0010
0000
,
0001
0010
0000
0000
2100
0000
3000
0000
0010
0100
0000
0000
0021
0000
0030
0000
,
0100
0000
1000
0100
1000
0000
0010
0000
0100
0000
0001
0000
0010
0000
0100
0000
,
0010
0001
0000
0000
1020
0030
0000
0000
0100
0001
0000
0000
0220
0000
0330
0000
,
0001
0000
1000
0100
1000
0000
0001
0000
0010
0000
0100
0000
1000
0000
0010
0000
,
0100
0001
0000
0000
2200
0000
3300
0000
0010
0001
0000
0000
0102
0000
0003
0000
,
0010
0000
0100
1000
0100
0000
0010
0000
0001
0000
0100
0000
0010
0000
1000
0000
,
0100
1000
0000
0000
0201
0000
0000
0300
0020
0100
0030
0000
0100
0000
0001
0000
,
1010
0101
1100
0110
,
0101
0000
0001
0000
1000
0001
0000
0100
0000
0001
0100
0001
0100
0000
0010
0000
,
1000
0000
0010
0000
0100
0002
0003
1000
0000
0001
0100
0002
0100
0003
1000
0000
,
0011
0000
1000
0000
0010
0100
0000
0001
0000
0100
0010
0100
0010
0000
1000
0000
,
0011
1100
0101
1010
,
0010
0000
1000
0000
0001
0010
0000
0100
0000
0010
0001
0010
0001
0000
1000
0000
,
0100
0000
0010
0000
0001
0010
0000
0100
0000
1000
0100
1000
0100
0000
0020
0000
,
0001
0000
0000
0100
0030
0000
0010
0000
0000
0001
0000
0000
1000
0000
0000
0000
,
0011
0000
1010
0000
0011
0000
1020
0100
,
2000
3030
0000
0000
0001
0000
0100
0000
0020
0000
1000
0000
0130
0000
0001
0000
,
1000
0000
0010
0000
0100
0001
0000
1000
0000
0010
0100
0010
0200
0000
0001
0300
,
0001
0000
0010
0000
0100
1000
0000
0001
0000
0010
0001
0010
0001
0000
0000
0000
,
1100
0000
0101
0000
1100
0000
0201
0010
,
0002
0303
0000
0000
1000
0000
0010
0000
0200
0000
0001
0000
0310
0000
1000
0000
,
0001
0000
0100
0000
0010
1000
0000
0001
0000
0100
0010
0100
0010
0000
1000
0000
,
0002
0000
0000
0203
0000
0000
0320
0000
0000
1030
0000
0000
0200
0000
0000
0000
,
1000
0000
0300
0020
0000
0000
0002
0000
0033
0000
0000
0000
0000
0000
0000
0000
;

//--------------- dance-single - RxSteps ----------------
#NOTES:
     dance-single:
     RxSteps:
     Hard:
     10:
     0,0,0,0,0:
0000
0000
0000
0000
,
0001
0000
0000
0100
0000
0000
0010
0000
0100
0000
1200
0000
0000
0000
0301
0000
,
0100
0000
0000
2000
0000
3000
0020
0000
0031
0000
2000
0000
3000
0000
0100
0000
,
0001
0000
0000
0010
0000
0000
0100
0000
0010
0000
1020
0000
0000
0000
0031
0000
,
0010
0000
0000
2000
0000
3000
0200
0000
0301
0000
2000
0000
3000
0000
0010
0000
,
0001
0000
0010
0100
1000
0000
0010
0000
0100
0010
1000
0100
1000
0000
0001
0000
,
0100
0001
0020
0000
0100
0030
0001
0000
1000
0000
0100
0010
0100
0000
1000
0000
,
0010
0000
0100
0020
0002
0030
0000
0003
0010
0100
0010
1000
0200
0000
0010
0300
,
1000
0001
0200
0000
1000
0000
0300
0000
0100
0010
1000
0100
0020
0000
0001
0030
,
0100
1000
0001
0200
0010
0300
0010
0100
0001
0000
1000
0000
0001
0000
1000
0000
,
0100
0010
0001
0100
0010
1000
0100
0000
0010
0000
0001
0000
0200
0000
1300
0000
,
0100
0000
0001
0010
0100
0010
0001
0000
1000
0000
0010
0100
0010
0000
1000
0000
,
0001
0100
0010
1000
0001
0100
0010
1000
0001
0100
0020
0000
0002
0033
0000
0000
,
1200
0300
0010
0000
0021
0030
0100
0000
1020
0000
0031
0000
1000
0000
0100
0000
,
0011
0000
1000
0000
0010
0200
0300
0001
0000
0100
0010
0200
1300
0000
0101
0000
,
1000
0000
0100
0000
0010
0002
0003
0100
0000
0010
0100
0020
0031
0000
0010
0000
,
0101
0000
1000
0000
0100
0010
0000
0001
0000
0010
0001
0200
1300
0000
0100
0000
,
0001
0000
0100
0000
1010
0000
1000
0000
0011
0000
0001
0000
1200
0300
0010
0000
,
0100
0000
1000
0000
0001
0100
0000
0010
0000
1000
0100
0020
0001
0000
1030
0000
,
0010
0000
0001
0000
0100
0001
0000
1000
0000
0010
1000
0020
0031
0000
1020
0030
,
0100
0000
0001
0000
1000
0000
0100
1000
0000
0001
0010
0200
2000
0000
3300
0000
,
0201
0300
0010
0000
1200
0300
0010
0000
0101
0000
1000
0000
1200
0000
0001
0000
,
2000
3300
0000
0000
0101
0000
0100
0000
1100
0000
0100
0000
0201
0300
0010
0000
,
1000
0000
0100
0000
0010
0001
0000
1000
0000
0100
0010
0100
1000
0000
0001
0000
,
1000
0010
0100
0001
1000
0010
0200
0301
0000
0001
0100
0010
1000
0000
0100
0000
,
0010
0000
0100
1000
0100
0000
0010
0000
0001
0000
0100
0010
0100
0000
0001
0000
,
0200
0300
1000
0100
0001
0000
0010
0200
1000
0300
1000
0100
0020
0000
0001
0030
,
0100
0000
1000
0010
0100
0000
0010
0000
0100
0000
0001
1000
0100
0000
0010
0000
,
0001
0000
0100
0010
1000
0000
0200
0000
0010
0000
1000
0300
0010
0000
0001
0000
,
1100
0000
0001
0200
0300
0010
2000
3000
0100
1000
0100
0010
0001
0000
0100
0000
,
0010
1000
0010
0100
0001
0010
0001
0100
0010
1000
0100
1000
0001
0000
0100
0010
,
1000
0000
0011
0000
1020
0030
0100
0001
0020
0030
0100
0010
0001
0010
0001
1000
,
0001
0100
0010
1000
0010
0100
0001
1000
0100
0010
0001
0020
0200
0000
0330
0000
,
0021
0030
0100
0000
1200
0300
0010
0000
0201
0000
1300
0000
0001
0000
0010
0000
,
1100
0000
0001
0000
0100
0020
0030
1000
0000
0010
0100
0020
0031
0000
1010
0000
,
0001
0000
0010
0000
0100
2000
3000
0010
0000
0100
0010
0200
1300
0000
0100
0000
,
1010
0000
0001
0000
0010
0100
0000
1000
0000
0100
1000
0020
0031
0000
0010
0000
,
1000
0000
0010
0000
0101
0000
0001
0000
1100
0000
1000
0000
0021
0030
0100
0000
,
0010
0000
0001
0000
1000
0010
0000
0100
0000
0001
0010
0200
1000
0000
0301
0000
,
0100
0000
1000
0000
0010
1000
0000
0001
0000
0100
0001
0200
1300
0000
0101
0000
,
1000
0010
0100
0001
0100
0010
1000
0001
0010
0100
1000
0200
0020
0000
0330
0000
,
0001
0000
0100
0000
0010
0000
0100
0000
0001
0000
1000
0000
0200
0000
0000
0301
0000
0000
0100
0000
1000
0000
0010
0000
,
0100
0000
0001
0000
0010
0000
0001
0000
1000
0000
0020
0000
0032
0000
0003
0000
1000
0000
0100
0000
0000
0010
1000
0000
,
0200
0000
0000
0300
0001
0000
0100
0000
1000
0000
0010
0000
0200
0000
0000
0000
0300
0000
0200
0000
1300
0000
0100
0000
,
0010
0000
0000
0000
0100
0000
0000
0000
0001
0000
0000
0000
0010
0000
0000
0000
0001
0000
0000
0000
0200
0000
0000
0000
0020
0000
0000
0000
0330
0000
0000
0000
0000
0000
0000
0000
2200
0000
0000
0000
0000
0000
0300
0000
0000
3000
0000
0000
,
0001
0000
0100
0000
0010
0000
0100
0000
0001
0000
1000
0000
0200
0000
0000
0010
0300
0000
1000
0000
0000
0001
0000
0000
,
0010
0000
0100
0000
1000
0000
0010
0000
0100
0000
0001
0000
0020
0000
0000
0100
0000
0030
0001
0000
0000
1000
0000
0000
,
0010
0000
0100
0002
0010
0003
0010
0100
1000
0000
0200
0300
0001
0000
0100
0000
,
1000
0100
0010
0001
0010
0100
1000
0100
0010
0001
0100
0010
1000
0100
0010
0001
,
1000
0000
0010
0100
0001
0000
0100
0000
0010
0000
1000
0000
0100
0000
0010
0000
,
0001
0100
0000
0000
2100
0000
3000
0000
0010
0100
0000
0000
0021
0000
0030
0000
,
0100
0000
1000
0010
0100
0000
0010
0000
1000
0000
0200
0000
0301
0000
1000
0000
,
0010
0001
0000
0000
1020
0030
0000
0000
0100
0001
0000
0000
0220
0000
0330
0000
,
0001
0000
1000
0100
0020
0030
1000
0000
0001
0000
0100
0000
1000
0000
0010
0000
,
0100
0001
0000
0000
2200
0000
3300
0000
0010
0001
0000
0000
0102
0000
0003
0000
,
0010
0000
0100
1000
0001
0000
0010
0000
0001
0000
0100
0000
0010
0000
1000
0000
,
0100
0010
0001
0010
0100
1000
0001
0010
0200
1000
0000
0000
0320
0000
0130
0000
,
1020
0030
0100
0000
0201
0300
0010
0000
1200
0000
0301
0000
1000
0000
0010
0000
,
0101
0000
1000
0000
0100
0020
0030
0001
0000
0100
0010
0200
1300
0000
0101
0000
,
1000
0000
0010
0000
0100
0002
0003
1000
0000
0100
0010
0200
0301
0000
0100
0000
,
0011
0000
1000
0000
0010
0100
0000
0001
0000
0100
0001
0020
1030
0000
0010
0000
,
0001
0000
0010
0000
1100
0000
1000
0000
0101
0000
0001
0000
1020
0030
0100
0000
,
0010
0000
1000
0000
0001
0010
0000
0100
0000
1000
0010
0200
0001
0000
1300
0000
,
0100
0000
0001
0000
0010
0001
0000
1000
0000
0100
0010
0100
1000
0000
0001
0000
,
1000
0010
0100
0001
1000
0010
0100
0001
1000
0001
0100
0020
2000
0000
3030
0000
,
0021
0030
0100
0000
1020
0030
0100
0000
0011
0000
1000
0000
1020
0000
0001
0000
,
2000
0000
0000
3030
0000
0000
0000
0000
0000
0000
0000
0000
0011
0000
0000
0000
0000
0000
0010
0000
0000
0000
0000
0000
1010
0000
0000
0000
0000
0000
0010
0000
0000
0000
0000
0000
0021
0000
0030
0000
0000
0000
0100
0000
0000
0000
0000
0000
,
1000
0000
0010
0000
0100
0001
0000
1000
0000
0010
0100
0010
2000
0000
0001
3000
,
0001
0000
0010
0000
0100
1000
0000
0001
0000
0010
0100
0010
0001
0000
0010
0000
,
1200
0300
0010
0000
0201
0300
0010
0000
1100
0000
0001
0000
0201
0000
1000
0000
,
0002
0000
0000
0303
0000
0000
0000
0000
0000
0000
0000
0000
1100
0000
0000
0000
0000
0000
0100
0000
0000
0000
0000
0000
0101
0000
0000
0000
0000
0000
0100
0000
0000
0000
0000
0000
1200
0000
0300
0000
0000
0000
0010
0000
0000
0000
0000
0000
,
0001
0000
0100
0000
0010
1000
0000
0001
0000
0100
0010
0100
0001
0000
0010
0000
,
0001
0010
0100
1000
0001
0010
0100
1000
0010
0100
0001
0010
0200
0000
0000
0000
,
1000
0000
0300
0020
0000
0000
0002
0000
0033
0000
0000
0000
0000
0000
0000
0000
;
