#TITLE:Die in the Disco;
#SUBTITLE:;
#ARTIST:Night Club;
#TITLETRANSLIT:;
#SUBTITLETRANSLIT:;
#ARTISTTRANSLIT:;
#GENRE:;
#CREDIT:RxSteps;
#MUSIC:Die in the Disco.ogg;
#BANNER:Die in the Disco.png;
#BACKGROUND:Die in the Disco-bg.png;
#CDTITLE:cdtitle.png;
#SAMPLESTART:65.447;
#SAMPLELENGTH:15.385;
#SELECTABLE:YES;
#OFFSET:1.220;
#BPMS:0.000=117.000;
#STOPS:;
#BGCHANGES:;
#FGCHANGES:;

//--------------- dance-single - RxSteps ----------------
#NOTES:
     dance-single:
     RxSteps:
     Beginner:
     2:
     0,0,0,0,0:
0000
0000
0000
0000
,
0001
0000
0000
0000
,
0001
0000
0000
0000
,
1000
0000
0000
0000
,
1000
0000
0000
0000
,
0100
0000
0000
0000
,
0100
0000
0000
0000
,
0010
0000
0000
0000
,
0010
0000
0000
0000
,
1000
0000
0000
0000
,
0001
0000
0000
0000
,
0100
0000
0000
0000
,
0010
0000
0000
0000
,
1000
0000
0000
0000
,
0001
0000
0000
0000
,
0010
0000
0000
0000
,
0010
0000
0000
0000
,
1001
0000
0000
0000
,
0001
0000
0000
0000
,
0100
0000
0100
0000
,
0100
0000
0000
0000
,
0010
0000
0000
0000
,
1000
0000
0000
0000
,
0100
0000
0100
0000
,
0100
0000
0000
0000
,
0001
0000
0000
0000
,
0001
0000
0000
0000
,
0010
0000
0010
0000
,
0010
0000
0000
0000
,
0100
0000
0000
0000
,
1000
0000
0000
0000
,
0001
0000
0001
0000
,
0001
0000
0000
0000
,
1001
0000
0000
0000
,
1000
0000
0000
0000
,
0010
0000
0000
0000
,
0010
0000
0010
0000
,
0010
0000
0000
0000
,
1000
0000
0000
0000
,
1000
0000
0000
0000
,
0001
0000
0000
0000
,
0100
0000
0000
0000
,
0100
0000
0000
0000
,
0010
0000
0000
0000
,
0001
0000
0000
0000
,
0001
0000
0000
0000
,
1000
0000
0000
0000
,
0001
0000
0000
0000
,
0001
0000
0000
0000
,
0110
0000
0000
0000
,
1000
0000
0000
0000
,
0010
0000
0000
0000
,
0010
0000
0000
0000
,
0100
0000
0000
0000
,
0001
0000
0000
0000
,
0001
0000
0001
0000
,
0001
0000
0000
0000
,
1000
0000
0000
0000
,
0010
0000
0000
0000
,
1000
0000
1000
0000
,
1000
0000
0000
0000
,
0100
0000
0000
0000
,
0001
0000
0000
0000
,
0010
0000
0010
0000
,
0010
0000
0000
0000
,
1000
0000
0000
0000
,
0001
0000
0000
0000
,
0100
0000
0100
0000
,
0100
0000
0000
0000
,
1001
0000
0000
0000
,
0010
0000
0000
0000
,
1000
0000
0000
0000
,
0001
0000
0000
0000
,
0100
0000
0000
0000
,
0010
0000
0000
0000
,
0010
0000
0000
0000
,
1000
0000
0000
0000
,
0001
0000
0000
0000
,
0010
0000
0000
0000
,
0100
0000
0000
0000
,
1000
0000
0000
0000
,
1000
0000
0000
0000
,
0001
0000
0000
0000
,
0010
0000
0000
0000
,
0001
0000
0000
0000
,
0110
0000
0000
0000
,
0001
0000
0000
0000
,
0001
0000
0000
0000
,
0100
0000
0000
0000
,
1000
0000
0000
0000
,
0010
0000
0000
0000
,
0010
0000
0000
0000
,
1000
0000
0000
0000
,
0100
0000
0000
0000
,
0100
0000
0000
0000
,
1000
0000
0000
0000
,
1000
0000
1000
0000
,
1000
0000
0000
0000
,
0010
0000
0000
0000
,
0001
0000
0000
0000
,
0100
0000
0000
0000
,
0010
0000
0000
0000
,
1000
0000
0000
0000
,
0001
0000
0000
0000
,
0001
0000
0001
0000
,
0001
0000
0000
0000
,
0100
0000
0000
0000
,
0010
0000
0000
0000
,
1000
0000
0000
0000
,
0001
0000
0000
0000
,
0100
0000
0000
0000
,
0010
0000
0000
0000
,
1000
0000
0000
0000
,
0001
0000
0000
0000
,
0100
0000
0000
0000
,
0001
0000
0000
0000
,
0010
0000
0000
0000
,
0010
0000
0000
0000
;

//--------------- dance-single - RxSteps ----------------
#NOTES:
     dance-single:
     RxSteps:
     Easy:
     4:
     0,0,0,0,0:
0000
0000
0000
0000
,
1000
0000
0001
0000
0000
0100
0001
0100
,
0001
0000
1000
0000
0000
0010
0100
0010
,
0100
0000
0001
0000
0000
0010
0001
0010
,
0001
0000
0100
0000
0000
0010
1000
0010
,
1000
0000
0001
0000
0000
1000
0001
1000
,
0001
0000
1000
0000
0000
0100
1000
0100
,
1000
0000
0001
0000
0000
0100
0010
0100
,
0010
0000
1000
0000
0000
0010
0100
0010
,
0100
0001
0010
0100
,
1000
0100
0010
0001
,
0100
0010
0100
0001
,
0010
0000
0001
0000
0000
0100
0001
0100
,
0001
1000
1000
0010
,
0010
0100
0100
0001
,
0001
1000
0010
1000
,
0001
0000
0200
0000
0020
0330
0000
0000
,
1001
0000
1000
0001
,
0100
0000
0001
0000
1000
0010
0100
0010
,
0000
1000
0010
1000
0000
0001
0000
0100
,
0000
0001
0000
1000
0000
0001
1000
0001
,
1000
0010
0100
0001
,
1000
0000
0100
0000
0010
0001
0010
0001
,
0000
1000
0001
1000
0000
0010
1000
0010
,
0000
0100
0000
0001
0000
1000
0010
1000
,
0010
1000
0001
0010
,
0001
0000
0010
0000
0100
1000
0100
1000
,
0000
0001
1000
0001
0000
1000
0010
1000
,
0000
0100
0000
1000
0000
0001
0100
0001
,
0100
0001
1000
0010
,
0100
0000
0001
0000
1000
0010
1000
0010
,
0000
0100
0001
0100
0000
0001
1000
0001
,
0000
0100
0000
0010
0000
0010
0000
0000
,
1001
0001
0100
0001
,
1000
1000
0100
0010
,
0001
0001
0010
0100
,
1000
0000
0001
0000
0100
0001
0100
0001
,
0100
0001
1000
0100
,
0010
0010
0100
0100
,
1000
0001
0100
0010
,
1000
0000
0001
0000
0001
0000
0000
0200
,
0000
0000
0000
0300
0000
0000
0000
0020
,
0000
0000
0000
0030
0000
0000
0000
2000
,
0000
0000
0000
3000
0000
0001
0000
0002
,
0000
0000
0000
0003
0000
0000
0000
0200
,
0000
0000
0000
0300
0000
0000
0000
0002
,
0000
0000
0000
0003
0000
0000
0000
1000
,
0000
0000
0000
0010
0000
0100
0000
0100
,
0000
0000
0002
0000
0000
1003
0000
0000
,
0110
0000
0001
0010
,
0100
0100
1000
0001
,
0100
0100
0010
1000
,
0001
0001
0100
0010
,
1000
0001
0100
0010
,
1000
0000
0001
0000
0100
0001
0100
0001
,
0000
1000
0001
1000
0000
0010
1000
0010
,
0000
1000
0000
0001
0000
0100
0001
0100
,
0001
1000
0010
0100
,
0001
0000
1000
0000
0010
1000
0010
1000
,
0000
0001
1000
0001
0000
0100
0001
0100
,
0000
0001
0000
0010
0000
0100
1000
0100
,
1000
0100
0010
0001
,
0010
0000
0100
0000
1000
0100
1000
0100
,
0000
1000
0001
1000
0000
0010
1000
0010
,
0000
0100
0010
0100
0000
0100
0001
0100
,
0001
1000
0001
0100
,
0010
0000
1000
0000
0001
0100
0001
0100
,
0000
0001
1000
0001
0000
1000
0010
1000
,
0000
0001
0100
0001
0000
0001
0000
0000
,
1001
1000
0010
1000
,
0001
0001
0010
0100
,
1000
1000
0100
0010
,
0001
0000
1000
0000
0010
1000
0010
1000
,
0010
1000
0001
0010
,
0100
0100
0010
0010
,
0001
1000
0010
0100
,
0001
0000
1000
0000
1000
0000
0000
0020
,
0000
0000
0000
0030
0000
0000
0000
0200
,
0000
0000
0000
0300
0000
0000
0000
0002
,
0000
0000
0000
0003
0000
1000
0000
2000
,
0000
0000
0000
3000
0000
0000
0000
0020
,
0000
0000
0000
0030
0000
0000
0000
2000
,
0000
0000
0000
3000
0000
0000
0000
0001
,
0000
0000
0000
0100
0000
0010
0000
0010
,
0000
0000
2000
0000
0000
3001
0000
0000
,
0110
0000
1000
0100
,
0010
0010
0001
1000
,
0010
0010
0100
0001
,
1000
1000
0010
0100
,
0001
0000
0001
0000
0000
2000
0000
0000
,
3010
1000
0001
0100
,
0100
0001
1000
0010
,
0010
1000
0001
1000
,
0010
0000
0010
0000
0000
0200
0000
0000
,
0310
1000
0001
0010
,
0100
0010
0100
1000
,
1000
0001
0001
0100
,
0100
0000
0010
0000
0000
2000
0000
0000
,
3001
0100
0100
0010
,
1000
1000
0001
0010
,
0010
0001
1000
0010
,
0100
0000
0100
0000
0000
0002
0000
0000
,
1003
0100
0010
0001
,
1000
0100
0010
0001
,
0010
0001
0100
0001
,
0101
0001
1000
0010
,
1000
0010
0010
0100
,
0001
1000
0010
0010
,
0100
0001
1000
0100
,
0010
0100
1000
1000
,
0100
0010
0001
0001
,
0010
0100
0010
0001
,
0001
2000
0000
3000
,
0020
0000
0030
0000
0000
1000
0000
0000
,
0020
0000
0030
0000
0000
0100
0000
0000
,
0002
0000
0003
0000
0000
1000
0000
0000
,
0200
0000
0300
0000
0000
2000
0000
0000
,
3000
0000
0000
0000
;

//--------------- dance-single - RxSteps ----------------
#NOTES:
     dance-single:
     RxSteps:
     Medium:
     7:
     0,0,0,0,0:
0000
0000
0000
0000
,
0001
0100
0001
0100
0001
1000
0100
0010
,
0100
1000
0100
1000
0100
1000
0001
0100
,
0010
1000
0010
0100
0010
0100
0001
0010
,
0100
1000
0001
1000
0002
0100
1003
0001
,
1000
0100
1000
0010
2000
0010
3001
0100
,
0010
1000
0001
0100
0002
0100
1003
0010
,
0100
0010
1000
0010
0200
0010
0301
0100
,
0001
0010
0001
0010
0001
0010
0100
0100
,
0010
0000
0001
0000
1000
0001
0100
0010
,
1000
0000
0010
0000
0100
0001
1000
0100
,
1000
0000
0010
0000
0100
0010
1000
0001
,
0100
0000
0001
0000
1000
0001
0010
0100
,
1000
0010
0100
0010
1000
0001
0100
0010
,
1000
0001
1000
0010
1000
0001
1000
0100
,
0010
0100
1000
0001
0100
0010
1000
0001
,
0010
0001
1000
0001
0010
0001
1100
0000
,
0101
0000
1000
0000
0010
1000
0001
0100
,
0001
0000
0100
0000
0010
0100
0001
0100
,
0000
0001
0100
0010
0000
0200
0000
0010
,
0000
0301
0000
1000
0000
0001
0100
0010
,
1000
0000
0001
0000
0100
0010
1000
0001
,
1000
0000
0100
0000
1000
0010
1000
0001
,
0000
1000
0010
0100
0000
0010
0100
0001
,
0000
1000
0000
0010
0000
0100
0001
1000
,
0010
0000
0100
0000
0001
0100
0010
0100
,
0001
0000
1000
0000
0100
1000
0010
0100
,
0000
0001
0100
0010
0000
2000
0100
3010
,
0000
1000
0000
0001
0000
0100
0010
0100
,
0001
0000
1000
0000
0100
1000
0010
0100
,
0001
0000
1000
0000
0001
1000
0001
0100
,
0000
0010
1000
0010
0000
0100
0001
1000
,
0000
0001
0010
0002
0000
0200
0303
0000
,
1100
0000
0001
0100
0001
1000
0010
1000
,
0001
1000
0100
0010
0100
1000
0001
0100
,
0010
0100
0001
0100
0010
1000
0001
0100
,
0010
0100
0001
0100
0001
0010
0100
0010
,
0100
1000
0001
1000
0010
0100
0010
1000
,
0010
0100
0010
1000
0001
0010
0001
1000
,
0001
0100
0010
0100
0001
1000
0100
1000
,
0020
0000
0230
0000
0301
1000
0100
0020
,
0000
0000
0000
0000
0030
0100
0010
0002
,
0000
0000
0000
0003
1000
0010
1000
0020
,
0000
0030
0100
0001
0000
0020
0000
0002
,
0000
0000
0000
0030
0003
0200
0010
0302
,
0000
0000
0000
0003
1000
0001
2000
0020
,
0000
3000
0030
0000
0100
0001
0010
0100
,
0000
0000
1000
0001
0000
2000
0000
0020
,
3000
0200
0000
0330
,
1100
0000
0011
0000
1000
0010
0100
0000
,
0101
0000
1100
0000
0001
0100
0010
0000
,
1010
0000
0011
0000
1000
0010
0100
0000
,
1100
0000
0101
0000
1000
0010
0100
0010
,
1000
0000
0001
0000
0100
0001
1000
0010
,
1000
0000
0010
0000
0100
0010
1000
0010
,
0000
1000
0010
0100
0000
0010
1000
0100
,
0000
1000
0000
0001
0000
1000
0010
0100
,
0001
0000
1000
0000
0010
0100
0001
1000
,
0001
0000
0010
0000
0001
0100
0001
1000
,
0000
0001
0100
0010
0000
0100
0010
1000
,
0000
0001
0000
0100
0000
0010
1000
0001
,
0100
0000
0010
0000
1000
0010
0100
0010
,
1000
0000
0001
0000
0010
0001
1000
0010
,
0000
1000
0010
0100
0000
0001
0010
0100
,
0000
1000
0010
1000
0000
0010
0100
0001
,
1000
0000
0001
0000
0010
0001
0100
0010
,
1000
0000
0001
0000
1000
0001
1000
0010
,
0000
0100
0001
0100
0000
0010
1000
0001
,
0000
1000
0100
2000
0000
0020
3030
0000
,
0011
0000
1000
0010
1000
0001
0100
0001
,
1000
0001
0010
0100
0010
0001
1000
0010
,
0100
0010
1000
0010
0100
0001
1000
0010
,
0100
0010
1000
0010
1000
0100
0010
0100
,
0010
0001
1000
0001
0100
0010
0100
0001
,
0100
0010
0100
0001
1000
0100
1000
0001
,
1000
0010
0100
0010
1000
0001
0010
0001
,
0200
0000
0320
0000
1030
0001
0010
0200
,
0000
0000
0000
0000
0300
0010
0100
2000
,
0000
0000
0000
3000
0001
0100
0001
0200
,
0000
0300
0010
1000
0000
0200
0000
2000
,
0000
0000
0000
0300
3000
0020
0100
2030
,
0000
0000
0000
3000
0001
1000
0002
0200
,
0000
0003
0300
0000
0010
1000
0100
0010
,
0000
0000
0001
1000
0000
0002
0000
0200
,
0003
0020
0000
0330
,
1001
0000
0110
0000
0001
0100
0010
0000
,
1010
0000
0011
0000
1000
0001
0100
0000
,
0110
0000
1001
0000
1000
0001
0100
0000
,
1100
0000
0011
0000
0001
0100
0010
0100
,
0001
0100
0010
1000
0001
1000
0100
1000
,
0010
0100
0001
0010
0100
0010
0001
1000
,
0001
0100
0010
0100
0001
1000
0010
1000
,
0010
0100
0001
1000
0100
0010
0001
0010
,
0100
1000
0010
1000
0100
1000
0100
0010
,
0001
0100
0010
1000
0010
0100
0010
1000
,
0010
1000
0001
0100
0010
1000
0100
1000
,
0010
0100
0010
0100
0001
0100
0010
0100
,
0001
1100
0101
0110
,
0011
1010
0101
0110
,
2001
0010
3001
0110
,
1002
0100
1003
0110
,
2001
0100
3001
0110
,
1002
0010
1003
0011
,
1100
0000
1000
0000
0001
0010
0100
1000
,
0001
0010
0100
1000
0001
0100
0010
1000
,
0001
0100
0010
0100
0001
0100
0010
1000
,
0100
1000
0010
0100
0001
1000
0001
1000
,
0010
0100
0001
1000
0001
0100
0001
0010
,
0001
1000
0001
1000
0001
0100
0010
0100
,
0001
1000
0010
1000
0001
0100
0010
1000
,
0001
0100
0001
0100
0001
1000
0100
0010
,
0001
1000
0010
0100
0010
1000
0001
0100
,
0000
0000
0001
0010
0100
1000
0000
0001
,
2000
0000
0000
0000
3000
0010
0100
0001
,
2000
0000
0000
0000
3000
0010
0010
0100
,
0002
0000
0000
0000
0003
2000
0001
3010
,
2000
0000
0000
0000
3000
0001
0100
0010
;

//--------------- dance-single - RxSteps ----------------
#NOTES:
     dance-single:
     RxSteps:
     Hard:
     9:
     0,0,0,0,0:
0000
0000
0000
0000
,
0001
0100
0010
1000
0100
0001
0100
1000
,
0001
0100
0010
1000
0010
0001
0010
1000
,
0001
0010
0100
1000
0100
0001
0100
1000
,
0100
0010
0001
0100
0010
1000
0100
0001
,
1000
0010
0001
0100
0010
0001
1000
0100
,
0010
1000
0001
1000
0010
1000
0100
0001
,
1000
0010
0100
1000
0001
1000
0100
0010
,
0001
0100
1000
0100
0001
0100
0010
1000
,
0200
0000
2300
0000
3001
0010
0100
1000
,
0200
0000
0001
0000
1300
0100
0010
0001
,
0020
0000
0100
0000
0031
1000
0010
0001
,
2000
0000
3002
0000
2003
0000
3100
0010
,
1000
0100
0010
0001
0010
1000
0010
0001
,
0100
0010
0100
0001
0100
1000
0100
0001
,
1000
0100
0010
0001
0010
1000
0010
0001
,
0100
0010
0100
0001
0100
1000
0100
0002
,
2003
3020
0100
2030
,
3200
0000
0001
0300
0100
1000
0010
0002
,
0000
1003
0100
0020
0000
1030
0001
0010
,
0000
0200
0000
1000
0300
0010
0001
0100
,
0020
1000
0230
0001
,
1000
0300
0200
0000
0310
1000
0100
1000
,
0000
0100
0020
2030
3000
0001
0100
0020
,
0000
0032
0000
0203
0000
1300
0100
0001
,
0200
0000
1000
0000
0001
0000
1000
0300
,
0100
0010
1000
0000
0001
1000
0100
0020
,
0000
0031
0200
2300
0000
3001
0010
0200
,
0000
0302
0000
0023
0000
0130
1000
0100
,
0020
0001
1000
0032
,
0103
0000
0010
0000
1000
0001
0010
0100
,
0000
0100
0010
0002
0000
1003
0010
0200
,
0300
0002
0013
2000
0000
0002
3000
0000
,
0103
1000
0100
0001
0100
1000
0010
0100
,
1000
0100
0001
0100
1000
0100
0001
0010
,
1000
0010
0001
0200
0000
2300
0000
3002
,
0000
0003
0010
0000
1000
0100
0010
0001
,
1000
0010
0100
0001
1000
0010
0100
1000
,
0100
0001
0100
1000
0100
0001
0000
1100
,
0000
0101
0000
0110
0000
0011
0000
2200
,
0000
0300
3001
0000
0100
0001
1000
0200
,
0000
0000
1000
0000
1300
0100
0010
0002
,
0010
0000
0010
0003
0001
1000
0001
0200
,
0000
0300
0020
2030
0000
3200
0000
0302
,
1000
0000
1000
0000
2003
3010
0001
0100
,
1000
0100
0001
0100
1000
0100
0010
1000
,
0100
0010
0100
1000
0100
0010
0001
2000
,
0000
3000
0010
0200
0000
1000
0000
0001
,
0300
0000
1000
0001
0010
0100
0000
1000
,
0101
0000
1100
0000
0001
0100
1000
0100
,
0001
0000
1100
0000
1000
0100
0001
0100
,
1000
0000
0110
0000
1002
0000
0103
0010
,
1000
0000
0011
0000
1000
0020
0031
1000
,
0200
0320
2030
3002
,
0023
0000
1000
0030
0010
0001
0100
2000
,
3000
0001
0010
0200
0300
0001
1000
0100
,
0000
0020
0000
0001
0030
0100
1000
0010
,
0200
0001
0320
1000
,
0001
0030
0020
0000
0130
0001
0010
0001
,
0000
0010
0200
0302
0003
1000
0010
0200
,
0000
2300
0000
3020
0000
0031
0010
1000
,
0020
0000
0001
0000
1000
0000
0001
0030
,
0010
0100
0001
0000
1000
0001
0010
0200
,
0000
2300
3020
0032
0000
1003
0100
0020
,
0000
1030
0001
0010
0000
0001
1000
0001
,
0200
1000
0001
1000
,
0302
0000
0013
0000
0001
1000
0100
0010
,
0000
0010
0100
2000
0000
3001
0100
0020
,
0000
2030
3100
0002
0000
2000
0003
0000
,
3010
0001
0010
1000
0010
0001
0100
0010
,
0001
0010
1000
0010
0001
0010
1000
0100
,
0001
0100
1000
0020
0000
0032
0000
2003
,
0000
3000
0100
0000
0001
0010
0100
1000
,
0001
0100
0010
1000
0001
0100
0010
0001
,
0010
1000
0010
0001
0010
1000
0000
0011
,
0000
1010
0000
0110
0000
1100
0000
0022
,
0000
0033
1000
0000
0010
1000
0001
0020
,
0000
0000
0001
0000
0031
0010
0100
2000
,
0100
0000
0100
3000
1000
0001
1000
0020
,
0000
0030
0200
0302
0000
0023
0000
2030
,
0001
0000
0001
0000
3002
0103
1000
0010
,
0001
0010
1000
0010
0001
0010
0100
0001
,
0010
0100
0010
0001
0010
0100
1000
0002
,
0000
0003
0100
0020
0000
0001
0000
2000
,
0030
0000
3001
1000
0100
0010
0000
0001
,
1010
0000
0011
0000
1000
0010
0001
0010
,
1000
0000
0011
0000
0001
0010
1000
0010
,
0001
0000
0110
0000
2001
0000
3200
0301
,
1000
0000
1100
0000
0002
0203
1300
0001
,
0020
0000
0230
0000
0300
0001
0010
0100
,
0000
0000
1000
0000
0100
0000
0000
0010
0000
0000
0100
0000
1000
0000
0001
0000
,
0000
0000
0100
0000
0001
0000
0000
0100
0000
0000
1000
0000
0100
0000
0001
0000
,
0000
0000
1000
0000
0100
0000
0000
0001
0000
0000
1000
0000
0010
0000
0002
0000
,
0100
0000
0200
0000
0303
0100
1000
0100
,
0001
0000
0010
0000
0001
0000
0000
0100
0000
0000
0001
0000
1000
0000
0100
0000
,
0000
0000
1000
0000
0010
0000
0000
0100
0000
0000
0001
0000
0010
0000
0100
0010
,
0000
0000
0001
0000
0100
0000
0001
0100
0000
0000
0010
0000
0100
0000
0001
0000
,
1100
0000
0102
0000
0203
1300
0100
0001
,
0100
1000
0100
0001
0010
1000
0010
0001
,
0010
1000
0010
0001
0100
0010
1000
0100
,
1000
0001
0100
1000
0001
0010
0100
0001
,
0010
0000
2010
0000
3020
0031
0010
1000
,
0010
0001
0010
1000
0100
0001
0100
1000
,
0100
0001
0100
1000
0010
0100
0001
0010
,
0001
1000
0010
0001
1000
0100
0010
1000
,
0100
0010
0001
0010
0100
1000
0100
0010
,
0001
0100
1000
0100
0001
0100
1000
0200
,
0000
0000
0310
2000
0000
3100
0000
0001
,
0100
1000
0100
0001
0100
1000
0100
0010
,
0001
0010
1000
0010
0001
0010
0100
1000
,
0001
0100
0010
1000
0100
1000
0001
0020
,
0000
0000
2030
3002
0003
0200
0000
0320
,
0030
0000
0001
0010
0100
1000
0000
0002
,
0000
0000
0000
0000
0003
1000
0010
0100
,
0002
0000
0000
0000
0003
0001
1000
0010
,
0200
0000
0000
0000
0300
0010
1000
0001
,
0020
0000
0000
0000
0030
0010
0001
1000
;
