#TITLE:Detour;
#SUBTITLE:;
#ARTIST:Boom Kitty;
#TITLETRANSLIT:;
#SUBTITLETRANSLIT:;
#ARTISTTRANSLIT:;
#GENRE:;
#CREDIT:RxSteps;
#MUSIC:Detour.ogg;
#BANNER:Detour.png;
#BACKGROUND:Detour-bg.png;
#CDTITLE:cdtitle.png;
#SAMPLESTART:39.401;
#SAMPLELENGTH:16.875;
#SELECTABLE:YES;
#OFFSET:1.380;
#BPMS:0.000=128.000;
#STOPS:;
#BGCHANGES:;
#FGCHANGES:;

//--------------- dance-single - RxSteps ----------------
#NOTES:
     dance-single:
     RxSteps:
     Beginner:
     1:
     0,0,0,0,0:
0000
0000
0000
0000
,
1000
0000
0000
0000
,
0001
0000
0000
0000
,
0001
0000
0000
0000
,
0100
0000
0000
0000
,
0001
0000
0000
0000
,
1000
0000
0000
0000
,
0100
0000
0000
0000
,
0100
0000
0100
0000
,
0001
0000
0000
0000
,
0010
0000
0000
0000
,
0100
0000
0000
0000
,
0100
0000
0100
0000
,
0001
0000
0000
0000
,
0010
0000
0000
0000
,
1000
0000
0000
0000
,
0001
0000
0001
0000
,
1000
0000
0000
0000
,
0100
0000
0000
0000
,
1000
0000
0000
0000
,
0010
0000
0010
0000
,
1000
0000
0000
0000
,
0001
0000
0000
0000
,
0100
0000
0100
0000
,
0001
0000
0000
0000
,
1000
0000
0000
0000
,
0100
0000
0000
0000
,
0010
0000
0000
0000
,
0001
0000
0001
0000
,
0100
0000
0000
0000
,
0010
0000
0000
0000
,
0001
0000
0000
0000
,
1000
0000
1000
0000
,
0010
0000
0000
0000
,
1000
0000
0000
0000
,
0001
0000
0000
0000
,
0010
0000
0010
0000
,
1000
0000
0000
0000
,
0100
0000
0000
0000
,
0001
0000
0000
0000
,
0010
0000
0010
0000
,
1000
0000
0000
0000
,
0001
0000
0000
0000
,
0100
0000
0000
0000
,
0001
0000
0000
0000
,
0010
0000
0000
0000
,
0010
0000
0000
0000
,
0010
0000
0000
0000
,
1000
0000
1000
0000
,
0001
0000
0000
0000
,
1000
0000
0000
0000
,
0010
0000
0000
0000
,
0100
0000
0000
0000
,
0100
0000
0000
0000
,
0001
0000
0000
0000
,
0001
0000
0000
0000
,
0100
0000
0100
0000
,
0010
0000
0000
0000
,
1000
0000
0000
0000
,
1000
0000
0000
0000
,
0001
0000
0001
0000
,
1000
0000
0000
0000
,
0010
0000
0000
0000
,
0010
0000
0000
0000
,
0100
0000
0100
0000
,
1000
0000
0000
0000
,
0001
0000
0000
0000
,
0010
0000
0000
0000
,
0100
0000
0100
0000
,
0001
0000
0000
0000
,
1000
0000
0000
0000
,
1000
0000
0000
0000
,
0100
0000
0100
0000
,
0001
0000
0000
0000
,
0010
0000
0000
0000
,
1000
0000
0000
0000
,
0001
0000
0001
0000
,
1000
0000
0000
0000
,
0010
0000
0000
0000
,
0100
0000
0000
0000
,
1000
0000
1000
0000
,
0001
0000
0000
0000
,
1000
0000
0000
0000
,
0001
0000
0000
0000
,
1000
0000
0000
0000
,
0001
0000
0000
0000
,
0010
0000
0000
0000
,
0100
0000
0000
0000
,
0010
0000
0000
0000
,
1000
0000
0000
0000
,
0010
0000
0000
0000
,
0010
0000
0000
0000
,
1000
0000
0000
0000
,
1000
0000
0000
0000
,
0001
0000
0000
0000
,
0001
0000
0000
0000
,
0010
0000
0000
0000
,
0100
0000
0000
0000
;

//--------------- dance-single - RxSteps ----------------
#NOTES:
     dance-single:
     RxSteps:
     Easy:
     4:
     0,0,0,0,0:
0000
0000
0000
0000
,
1000
0000
0001
0000
,
0100
0000
0010
0000
,
1000
0000
0001
0000
,
0100
0000
0000
0000
0001
1000
0001
0000
,
1000
0000
0100
0000
,
0010
0000
0001
0000
,
1000
0000
0001
0000
,
1000
1000
0010
1000
,
0001
0100
0001
0001
,
0100
0010
1000
1000
,
0010
0100
0001
0001
,
1000
0000
0000
0000
0001
0000
0000
0000
0000
0000
0000
0100
0000
0000
0000
0000
,
0001
0100
0001
0001
,
1000
0010
0100
0100
,
0001
1000
0010
0010
,
1000
0000
0000
0000
0001
0000
0000
0000
0000
0000
0000
1000
0000
0000
0000
0000
,
0001
0100
0010
0010
,
1000
0001
0100
0100
,
0001
0010
0001
0001
,
0100
0000
0000
0000
0010
0000
0000
0000
0000
0000
0000
1000
0000
0000
0000
0000
,
0001
1000
0100
0100
,
1000
0010
0100
0100
,
0001
0010
0001
0010
,
0001
0010
0100
1000
,
0001
1000
0001
0000
,
0110
0000
1000
0000
,
0110
0000
0001
0000
,
0110
0000
1000
0000
,
0001
1000
0001
0010
,
0100
0010
0100
1000
,
0001
1000
0100
0010
,
0001
1000
0001
0100
,
0002
0003
2000
3000
,
0020
0030
0200
0300
,
0002
0003
2000
3000
,
0200
0300
2000
3100
,
1000
0001
0200
0300
,
0001
1000
0020
0030
,
1000
0001
0200
0300
,
0001
1000
0001
1000
,
0010
0000
0100
0000
,
0001
0000
0010
0000
,
0001
0000
1000
0000
,
0100
0000
1000
0000
,
0001
0000
0100
0000
,
0010
0000
1000
0000
,
0001
0000
0010
0000
,
0001
1000
0001
1000
,
1001
0000
0001
0100
,
0101
0000
0001
1000
,
1001
0000
1000
0010
,
1010
0000
0000
0000
0000
0000
0000
0000
0000
0000
0000
1000
0000
0000
0000
0000
,
1001
0000
0001
0010
,
0011
0000
0001
0100
,
0101
0000
0001
1000
,
0001
0000
0000
0000
0100
0000
0000
0000
0000
0000
0000
0001
0000
0000
0000
0000
,
1000
0000
0001
0100
,
0100
0000
0001
1000
,
1000
0000
0001
0100
,
0100
0000
0000
0000
0000
0000
0000
0000
0000
0000
0000
0001
0000
0000
0000
0000
,
0000
0000
1000
0100
,
0010
0000
0010
0001
,
0001
0000
1000
0001
,
0100
0001
0010
0100
,
1000
0001
0100
0010
,
1000
0001
0100
0010
,
1000
0001
0010
0100
,
1000
0001
1000
0010
,
1000
0001
0100
0010
,
1000
0001
1000
0010
,
0100
0001
1000
0100
,
0010
0001
1000
0001
,
0100
0100
0001
1000
,
0100
0100
1000
0001
,
0010
0010
0001
1000
,
0100
0100
1000
1000
,
0001
1000
0001
0001
,
0100
0010
1000
1000
,
0001
0010
0100
0100
,
1000
0001
1000
1000
,
0001
1000
0010
0100
,
0001
1000
0010
0100
,
0010
1000
0100
0010
,
0001
0010
0100
1000
,
0001
0010
0100
1000
,
0100
0010
0001
1000
,
0001
0100
0010
1000
,
0001
0100
0010
0010
,
1000
0001
1000
0100
,
0010
0000
0010
0100
,
1000
0000
1000
0001
,
0010
0000
0010
0001
,
1000
0000
0001
0010
,
0100
0000
0100
0010
,
0001
0000
1000
0001
,
0100
0000
0010
1000
,
0100
0000
0000
0000
;

//--------------- dance-single - RxSteps ----------------
#NOTES:
     dance-single:
     RxSteps:
     Medium:
     6:
     0,0,0,0,0:
0000
0000
0000
0000
,
1000
0000
0010
1000
,
0001
0010
0001
1000
,
0110
0000
1001
0000
,
0001
0000
0100
0000
0010
1000
0010
0000
,
1000
0010
0100
0001
,
0010
0100
1000
0001
,
1000
0010
0100
0001
,
0110
1001
0110
1001
,
0001
0100
0001
0001
,
1100
0101
0001
0001
,
1010
0011
1000
1000
,
0001
0000
0010
0000
0100
0000
1000
0000
0000
0000
0000
0001
0000
0000
0000
0000
,
1100
0101
0001
0001
,
1010
0011
1000
1000
,
0110
1001
0001
0001
,
1000
0000
0100
0000
0010
0000
0001
0000
0000
0000
0000
1000
0000
0000
0000
0000
,
0110
1001
1000
1000
,
0101
1100
0001
0001
,
0110
1001
1000
1000
,
0001
0000
0010
0000
0100
0000
1000
0000
0000
0000
0000
0001
0000
0000
0000
0000
,
0110
1001
0001
0100
,
0011
1010
1000
0100
,
1000
0000
0001
1000
0001
0000
0100
0010
,
0100
0100
0002
0003
,
1100
0000
0001
0000
1000
0001
1000
0000
,
0011
0000
1000
0000
0001
0100
0001
0000
,
1010
0000
0001
0000
0100
0001
0100
0000
,
0110
0000
0000
0000
1000
0001
1000
0000
,
0011
1010
0001
0001
,
1100
1001
1000
1000
,
0101
1001
0001
0100
,
0001
0000
1000
0000
0010
1000
0010
0000
,
1000
0001
0010
0010
,
0001
1000
0100
0100
,
1000
0010
0100
0100
,
0001
0000
1000
0000
0010
1000
0010
0000
,
1000
0001
0100
0010
,
0010
1000
0001
1000
,
1000
0010
0100
0010
,
0100
0000
0001
0000
0010
0001
0010
0000
,
0001
0100
0001
1000
,
0001
0010
0100
1000
,
1000
0100
0010
0001
,
1000
0010
0100
0001
,
1000
0001
0010
0100
,
1000
0010
0100
0010
,
0100
0001
1000
0100
,
0010
0010
0001
0001
,
0011
1010
1000
0010
,
0110
0101
0001
0100
,
0110
1001
1000
0001
,
1000
0000
0100
0000
0010
0000
0001
0000
0000
0000
0000
1000
0000
0000
0000
0000
,
0101
0110
1000
1000
,
1001
0110
0001
0001
,
1010
0110
1000
1000
,
0001
0000
0010
0000
0100
0000
1000
0000
0000
0000
0000
0001
0000
0000
0000
0000
,
0100
0000
0000
0000
0001
0100
0001
0000
,
1000
0000
0000
0000
0001
0010
0001
0000
,
0100
0000
0000
0000
0010
1000
0010
0000
,
1000
0000
0010
0000
0100
0000
0001
0000
0000
0000
0000
1000
0000
0000
0000
0000
,
0001
0000
0000
0000
1000
0100
1000
0000
,
0010
0000
0000
0000
0100
0001
0100
0000
,
0010
0000
0000
0000
1000
0010
1000
0000
,
0001
0100
0010
1000
0001
0000
0000
0000
,
1000
0010
0000
0000
1000
0001
0100
0000
,
0001
0100
0010
0000
1000
0010
1000
0000
,
0001
1000
0010
0000
0010
1000
0100
0000
,
1000
0001
0010
0000
0001
0000
1000
0000
,
0001
0100
0010
0000
1000
0010
0100
0000
,
0001
1000
0010
0000
0100
0001
0100
0000
,
0001
1000
0100
0000
1000
0010
0100
0000
,
0001
0010
0100
0000
1000
0000
0001
0000
,
1000
0001
0100
0000
0001
1000
0100
0000
,
1000
0010
0100
0000
0001
0010
0001
0000
,
1000
0100
0010
0000
0001
0010
0100
0000
,
1000
0001
1000
0000
0001
0000
0100
0000
,
0001
1000
0100
0000
1000
0001
0010
0000
,
0001
0010
0100
0000
0010
0100
0010
0000
,
0001
0100
0010
0000
1000
0001
0100
0000
,
0010
1000
0010
0000
0100
0000
0001
0000
,
1000
0001
0010
0100
,
1000
0010
0100
0001
,
1000
0010
0100
0001
,
0010
0100
1000
0001
,
1000
0100
0010
0001
,
1000
0010
0100
0001
,
1000
0001
0100
0010
,
1000
0100
0010
0010
,
0001
0000
0100
0000
0001
0100
0001
0000
,
1000
0000
1000
0000
0010
1000
0010
0000
,
0100
0000
0100
0000
0001
1000
0001
0000
,
0010
0000
0010
0000
0001
0010
0001
0100
,
0001
0000
0001
0000
1000
0010
1000
0000
,
0010
0000
0010
0000
1000
0001
1000
0000
,
0010
0000
1000
0000
0001
0010
0001
0000
,
0100
0000
0100
0000
0001
0100
0010
1000
,
0001
0000
0000
0000
;

//--------------- dance-single - RxSteps ----------------
#NOTES:
     dance-single:
     RxSteps:
     Hard:
     7:
     0,0,0,0,0:
0000
0000
0000
0000
,
1000
0010
0100
0000
0001
0100
0010
0100
,
0001
1000
0010
0000
1000
0100
1000
0001
,
0100
0010
1000
0001
0000
0100
0001
0010
,
0001
1000
0100
1000
0010
0100
0010
0000
,
1000
0001
0000
0010
0000
0100
0010
0100
,
1000
0001
1000
0010
1000
0001
1000
0100
,
0010
0001
1000
0001
0100
0001
1000
0001
,
0110
0011
1100
0110
,
0001
0000
0100
0000
0010
0000
0100
0000
0001
1000
0000
0001
1000
0000
0010
0000
,
1000
0000
0100
0000
0010
0000
0100
0000
0010
0001
0000
1000
0001
0000
0100
0000
,
0010
0000
0100
0000
0001
0000
0010
0000
0001
0100
0000
0010
0100
0000
0010
0000
,
2000
0000
0000
0000
3001
0000
0000
0000
0100
0010
0000
1000
0001
0000
0000
0000
,
1000
0000
0001
0000
0100
0000
0001
0000
1000
0010
0000
0100
0010
0000
1000
0000
,
0001
0000
1000
0000
0100
0000
0010
0000
0001
0100
0000
0001
0100
0000
0001
0000
,
0010
0000
0100
0000
0010
0000
0100
0000
1000
0001
0000
1000
0001
0000
0100
0000
,
0001
0010
0100
0010
0001
0100
1000
0001
,
1000
0000
0001
0000
0100
0000
0001
0000
0010
0001
0000
1000
0010
0000
1000
0000
,
0001
0000
0100
0000
0001
0000
1000
0000
0010
0100
0000
0001
0010
0000
0001
0000
,
0100
0000
0001
0000
1000
0000
0010
0000
0100
0001
0000
1000
0010
0000
0100
0000
,
0001
1000
0001
0010
0001
0100
0010
1000
,
0010
0000
0100
0000
0010
0000
1000
0000
0001
0100
0000
0001
1000
0000
0010
0000
,
1000
0000
0010
0000
0100
0000
0001
0000
1000
0001
0000
1000
0001
0000
0000
0000
,
0200
0000
0300
0000
0001
0100
0000
0000
1000
0000
0000
0000
0010
1000
0000
0000
,
1000
0001
0100
0001
1000
0010
0100
0001
,
1000
0100
0020
0030
0001
0200
0300
0001
,
1000
0010
0200
0300
0001
2000
0000
0000
,
3010
0100
0002
0003
1000
0200
0300
1000
,
0001
0000
0010
0000
0002
0000
0003
0000
1000
0000
0010
2000
0000
0000
3000
0000
,
0001
0100
0020
0030
0100
0002
0003
1000
,
0001
1000
0020
0030
1000
0200
0000
0300
,
1000
0010
0200
0300
0001
0200
0000
0300
,
0010
0000
1000
0000
0200
0000
0300
0000
1000
0000
0010
2000
0000
3000
0000
0000
,
0201
0010
0302
1003
,
0120
0000
1000
0030
0200
0002
0303
0000
,
2100
0000
0001
3000
0020
0200
0330
0000
,
0001
0000
1000
0000
0010
0000
1000
0000
0001
1000
0000
0001
1000
0000
0000
0000
,
1020
0000
0100
0000
2030
0002
3003
0000
,
0210
0000
0001
0300
0020
2000
3030
0000
,
0012
0000
1000
0003
0100
0001
0010
0100
,
0010
0000
0001
0000
0100
0000
0001
0000
1000
0001
0000
1000
0002
0000
0003
0000
,
0200
0000
0301
0000
0100
0020
0000
0030
,
2000
0000
3001
0000
0010
0002
0003
0000
,
1010
0000
0002
0003
0100
0020
0000
0030
,
1000
0000
0000
0000
0100
0000
0000
0000
1000
0000
0010
1000
0000
0000
1000
0010
,
0000
0000
1000
0000
0001
0000
0100
0000
0010
0000
2000
0000
0000
3000
0000
0000
,
0001
0010
0001
1000
0020
0000
0030
0100
,
0001
0100
0010
0100
0002
0000
0003
0000
,
1000
0000
0010
0000
1000
0000
0100
0000
1000
0000
0010
0000
0100
0001
0000
0000
,
0101
0000
0000
0000
1010
0000
0000
0000
0001
0100
0000
0001
0100
0000
0000
0000
,
0110
0000
0000
0000
1001
0000
0000
0000
0010
1000
0000
0010
1000
0000
0000
0000
,
0101
0000
0000
0000
1100
0000
0000
0000
0010
1000
0000
0010
1000
0000
0000
0000
,
0001
0010
0100
0010
0001
0010
1000
0100
,
1001
0000
0000
0000
1100
0000
0000
0000
0001
0100
0000
0001
1000
0000
0000
0000
,
0011
0000
0000
0000
1100
0000
0000
0000
1000
0010
0000
0100
0001
0000
0000
0000
,
1100
0000
0000
0000
0011
0000
0000
0000
1000
0100
0000
1000
0010
0000
0000
0000
,
1000
0100
0010
0100
1000
0100
0001
0100
,
0020
0000
0000
0000
0000
0030
0000
0000
1000
0001
0000
0100
0001
0000
0000
0000
,
2000
0000
0000
0000
0000
3000
0000
0000
0010
1000
0000
0001
0100
0000
0000
0000
,
0002
0000
0000
0000
0000
0000
0003
0000
1000
0100
0000
0010
0100
0000
0000
0000
,
1000
0000
0001
0000
0100
0000
0010
0000
1000
0010
0000
0100
0002
0000
0000
0000
,
2003
0000
0000
0000
3000
0000
0000
0000
0001
1000
0000
0010
1000
0000
0000
0000
,
0002
0000
0000
0000
0000
0003
0000
0000
0100
0001
0000
1000
0010
0000
0000
0000
,
2000
0000
0000
0000
0000
0000
3000
0000
0001
0010
0000
0100
0010
0000
0000
0000
,
0001
0100
0010
0100
0001
0100
0010
1000
,
0001
0010
0200
0300
1000
0020
0030
1000
,
0001
0100
0020
0030
1000
0002
0000
0000
,
0103
0010
2000
3000
0001
0020
0030
0001
,
1000
0000
0100
0000
2000
0000
3000
0000
0001
0000
0100
0002
0000
0000
0003
0000
,
1000
0010
0200
0300
0010
2000
3000
0001
,
1000
0001
0200
0300
0001
0020
0000
0030
,
0001
0100
0020
0030
1000
0020
0000
0030
,
0100
0000
0001
0000
0020
0000
0030
0000
0001
0000
0100
0002
0000
0003
0000
0000
,
1000
0010
0200
0300
0001
0020
0030
0001
,
1000
0100
0020
0030
0001
2000
0000
3000
,
0100
0010
0002
0003
1000
0020
0030
1000
,
0001
0000
0100
0000
0002
0000
0003
0000
1000
0000
0100
2000
0000
0000
3000
0000
,
0001
0010
0200
0300
0010
0002
0003
1000
,
0001
1000
0200
0300
1000
0020
0000
0030
,
1000
0100
0020
0030
0001
0020
0000
0030
,
0100
0000
1000
0000
0020
0000
0030
0000
1000
0000
0100
2000
0000
3000
0000
0000
,
0010
1000
0010
0100
0010
1000
0001
0010
,
0100
0010
0001
0010
0100
0001
1000
0100
,
1000
0001
1000
0010
0100
0001
1000
0001
,
0010
0001
0010
0100
1000
0010
0100
0001
,
0100
1000
0100
0010
0100
1000
0001
0100
,
0010
0100
0001
0100
0010
0001
1000
0010
,
1000
0001
1000
0100
0010
0001
1000
0001
,
0100
0010
0100
0001
1000
0010
1000
0010
,
1000
0010
0100
0000
1000
0001
0100
0010
,
0001
0010
0100
0000
0100
0001
1000
0010
,
0100
0010
1000
0000
1000
0001
0100
0010
,
0001
0100
0001
0000
1000
0010
0100
0001
,
0100
1000
0010
0000
0001
0100
0010
1000
,
0010
0001
0010
0000
1000
0001
0010
0001
,
0100
0010
0100
0000
0001
0010
0001
1000
,
0010
0100
0010
0000
1000
0010
0001
1000
,
0001
0100
0000
0000
0000
0000
0000
0000
;
