#TITLE:Debut;
#SUBTITLE:;
#ARTIST:KATSEYE;
#TITLETRANSLIT:;
#SUBTITLETRANSLIT:;
#ARTISTTRANSLIT:;
#GENRE:;
#CREDIT:RxSteps;
#MUSIC:Debut.ogg;
#BANNER:Debut.png;
#BACKGROUND:Debut-bg.png;
#CDTITLE:cdtitle.png;
#SAMPLESTART:39.135;
#SAMPLELENGTH:20.164;
#SELECTABLE:YES;
#OFFSET:1.685;
#BPMS:0.000=122.000;
#STOPS:;
#BGCHANGES:;
#FGCHANGES:;

//--------------- dance-single - RxSteps ----------------
#NOTES:
     dance-single:
     RxSteps:
     Beginner:
     3:
     0,0,0,0,0:
0000
0000
0000
0000
,
0001
0000
0100
0000
,
0010
0000
0000
1000
0000
0001
0000
0000
,
0100
0000
0001
0000
,
0010
0000
0000
0001
0000
1000
0000
0000
,
0010
1000
0001
0100
,
0001
1000
0100
0000
,
0100
1000
0001
0100
,
0010
1000
0001
0000
,
0100
0000
0000
0001
0100
0001
0000
0000
,
1000
0000
0000
0010
0000
0000
0000
0000
,
1000
0000
0000
0100
1000
0100
0000
0000
,
0010
0000
0000
0000
,
0001
0010
0100
1000
,
0001
1000
0010
0000
,
0010
1000
0010
0100
,
0001
1000
0010
0000
,
0010
0000
0000
1000
0001
1000
0000
0000
,
0001
0000
0000
0100
0000
0000
0000
0000
,
0010
0000
0000
1000
0010
1000
0000
0000
,
0001
0000
0000
0000
,
1000
0100
0010
0001
,
0010
0001
0010
0000
0001
0000
0000
0000
,
0001
0010
0100
1000
,
0100
1000
0100
0000
1000
0000
0000
0000
,
0001
1000
0001
1000
0001
1000
0001
0000
,
0100
0001
0100
0000
,
0010
0000
0000
1000
0000
0000
0001
0000
,
0100
0000
0000
0010
0000
0000
1000
0000
,
0001
0000
0000
1000
0010
0000
0000
0010
,
1000
0000
0000
0001
0000
0100
0000
0000
,
0001
0100
0010
1000
,
0001
0000
0100
0010
,
0100
0001
1000
0010
,
1000
0000
0010
1000
0010
0000
0000
0000
,
0100
0000
0000
0001
1000
0001
0000
0000
,
1000
0000
0000
0010
0000
0000
0000
0000
,
0100
0000
0000
0001
0100
0001
0000
0000
,
1000
0000
0000
0000
,
0001
0010
0100
1000
,
0100
1000
0100
0000
1000
0000
0000
0000
,
1000
0100
0010
0001
,
0010
0001
0010
0000
0001
0000
0000
0000
,
1000
0001
1000
0001
1000
0001
1000
0000
,
0010
1000
0010
0000
,
0100
0000
0000
0001
0000
0000
1000
0000
,
0010
0000
0000
0100
0000
0000
0001
0000
,
1000
0010
0100
0001
,
0100
0001
0100
0000
0001
0000
0000
0000
,
0001
0100
0010
1000
,
0010
1000
0010
0000
1000
0000
0000
0000
,
0001
1000
0001
1000
0001
1000
0001
0000
,
0010
0001
0010
0000
,
0100
0000
0000
1000
0000
0000
0001
0000
,
0010
0000
0000
0100
0000
0000
1000
0000
,
0001
0000
0000
1000
0100
0000
0000
0100
,
1000
0000
0000
0001
0000
0010
0000
0000
,
0001
0000
0000
1000
0010
0000
0000
0010
,
1000
0000
0000
0001
0000
0000
0100
0000
,
0001
0000
0000
1000
0001
0000
0000
0001
,
1000
0000
0000
0010
0000
1000
0000
0000
,
0001
0000
0000
0010
0000
0000
0100
0000
,
0100
0000
0000
0010
0000
0000
0001
0000
;

//--------------- dance-single - RxSteps ----------------
#NOTES:
     dance-single:
     RxSteps:
     Easy:
     5:
     0,0,0,0,0:
0000
0000
0000
0000
,
0001
0000
0000
0100
0001
0000
0000
1000
,
0001
1000
0000
0010
0000
0100
0000
0000
,
0001
0000
0000
1000
0100
0000
0000
1000
,
0001
0100
0000
0010
0100
0000
0000
0000
,
0001
0000
1000
0000
0100
1000
0100
0000
,
0010
0000
0001
0010
0001
0000
1000
0000
,
0010
0000
0100
0000
0001
0100
0001
0000
,
1000
0000
0010
0000
0100
0001
0200
0000
,
0010
0300
0000
0010
1000
0010
0000
1000
,
0010
0100
0001
0100
0000
0001
1000
0010
,
1000
0000
0000
0001
0020
0100
0030
0100
,
0010
0001
0010
0001
0000
0000
1000
0000
,
0001
0010
0100
1000
0100
0000
0010
0000
,
0001
1000
0001
0000
0100
0000
0010
0000
,
1000
0001
0100
0010
1000
0000
0001
0000
,
0100
0000
0010
1000
0020
1000
0030
2000
,
0010
3000
0000
0010
0100
0010
0000
0100
,
0001
1000
0010
0200
0000
0000
0300
0001
,
0100
0000
0000
0010
1000
0010
0000
1000
,
0100
1000
0100
1000
0000
0000
0001
0000
,
1000
0100
0010
0001
0010
0000
0100
0000
,
1000
0001
1000
0000
0010
0000
0100
0000
,
0001
0010
0100
1000
0100
0000
0010
0000
,
0001
1000
0001
0000
0100
0000
0010
0000
,
1000
0001
1000
0001
1000
0001
1000
0000
,
0010
0100
0001
0010
,
0001
0000
0000
0010
0000
0000
0100
0000
0000
1000
0000
0000
0100
0000
0000
0000
,
1000
0000
0000
0001
0000
0000
0100
0000
0000
0010
0000
0000
0100
0000
0000
0000
,
0001
0000
0000
0020
0100
0030
0000
0100
,
0010
0000
0000
0001
0000
1000
0000
0000
,
0010
0000
0100
0000
0001
0100
0001
0000
,
1000
0000
0100
0000
0020
0000
0001
0030
,
0001
0010
0001
0000
1000
0000
0010
0000
,
0100
0000
0001
0100
0001
0100
0002
0000
,
1000
0003
0000
1000
0001
0100
0000
0010
,
1000
0001
0100
0020
0000
0000
0030
1000
,
0010
0000
0000
0100
0001
0100
0000
0001
,
0010
0001
0010
0001
0000
0000
1000
0000
,
0001
0010
0100
1000
0100
0000
0010
0000
,
0001
1000
0001
0000
0100
0000
0010
0000
,
1000
0100
0010
0001
0010
0000
0100
0000
,
1000
0001
1000
0000
0010
0000
0100
0000
,
0001
1000
0001
1000
0001
1000
0001
0000
,
0100
0010
1000
0100
,
1000
0000
0000
0010
0000
0000
0100
0000
0000
0002
0000
0000
1000
0000
0003
0000
,
1000
0000
0000
0001
0000
0000
0010
0000
0000
0100
0000
0000
1000
0000
0000
0000
,
0001
0100
0010
1000
0010
0000
0100
0000
,
0001
1000
0001
0000
0010
0000
0100
0000
,
1000
0010
0100
0001
0100
0000
0010
0000
,
1000
0001
1000
0000
0100
0000
0010
0000
,
0001
1000
0001
1000
0001
1000
0001
0000
,
0010
0100
1000
0010
,
1000
0000
0000
0001
0000
0000
0010
0000
0000
0001
0000
0000
0100
0000
0000
0000
,
0001
0000
0000
1000
0000
0000
0010
0000
0000
0100
0000
0000
0001
0000
0000
0000
,
1000
0000
0000
0200
0010
0000
0300
0010
,
0100
0000
0000
1000
0000
0001
0000
0000
,
0100
0000
0000
0002
0010
0000
0003
0010
,
0001
0000
0000
0100
0000
0000
0010
0000
0000
0100
0000
0000
0001
0000
0000
0000
,
1000
0000
0000
0002
0010
0000
0003
0010
,
0001
0000
0000
0000
0000
0000
2000
0000
0000
0000
0010
0000
0000
3000
0000
0000
,
0010
0000
0000
1000
0000
0000
0001
0000
0000
0200
0000
0000
0010
0000
0300
0000
,
0010
0000
0100
0000
0000
0001
0000
0000
0000
2000
0000
0000
0020
0000
0000
0000
,
3030
0000
0000
0000
;

//--------------- dance-single - RxSteps ----------------
#NOTES:
     dance-single:
     RxSteps:
     Medium:
     7:
     0,0,0,0,0:
0000
0000
0000
0000
,
0001
0000
0000
2000
0100
0000
3000
0100
,
1000
0020
0000
0100
0030
1000
0000
0002
,
0010
0000
0003
0020
0100
0000
0030
0100
,
0010
0001
0000
0100
0000
0010
1000
0100
,
0010
0100
1000
0010
0100
0001
1000
0010
,
1000
0001
0010
0100
0010
0002
0000
0003
,
1000
0010
0100
0001
0100
0010
1000
0001
,
0010
0001
1000
0010
0200
0002
0303
0000
,
2200
0300
3000
0001
0200
0010
0300
0010
,
1000
0100
0020
0001
0000
0100
0030
0000
,
0202
0300
0003
1000
0200
0010
0300
0010
,
0100
1000
0002
0200
0303
0000
1100
0000
,
0021
0030
0100
0000
1000
0000
0010
0000
0100
0000
0001
0000
0010
0000
0100
0000
,
0010
0001
1000
0010
0100
0001
0000
0000
,
1020
0030
0100
0000
0001
0000
1000
0000
0100
0000
0010
0000
0100
0000
1000
0000
,
0010
0100
0010
1000
0200
0020
0330
0000
,
0201
0300
0010
0100
0002
0010
0003
0010
,
0001
0100
0020
1000
0030
1000
0010
0100
,
0001
0010
0100
1000
0100
1000
0001
0010
,
0001
0100
0020
2000
3030
0000
0021
0030
,
0100
1000
0001
0100
0010
0100
0001
1000
,
0100
0010
0100
1000
0010
0000
0011
0000
,
2100
3000
0001
0000
0100
0000
0010
0000
1000
0000
0100
0000
0010
0000
0100
0000
,
1000
0001
0100
0001
1000
0000
0110
0000
,
0001
0100
0000
0000
1000
0100
0000
0000
0001
0100
0000
0000
1000
0000
0010
0000
,
0100
0001
0010
0000
1200
0000
0010
0300
,
1000
0000
0100
1000
0000
0001
1000
0000
0001
0100
0000
0002
0010
0000
0003
0000
,
0010
0000
0001
0010
0000
0001
1000
0000
0010
0100
0000
0001
0100
0000
0000
0000
,
1100
0000
1000
0020
0100
0030
0100
0010
,
1000
0002
0000
0010
0000
0200
0303
0000
,
0001
1000
0010
0100
0001
1000
0010
0100
,
0001
1000
0100
0010
0001
0000
0201
0300
,
0010
1000
0100
0010
0001
0010
0100
1000
,
0010
0100
0001
1000
0001
0010
0100
0000
,
1020
0000
0030
0100
0002
0010
0003
0010
,
0001
1000
0020
0100
0030
0100
0001
0000
,
1010
0000
0000
0001
0020
0100
0030
0100
,
1000
0001
2000
0010
0000
3000
0002
0003
,
0010
0001
1000
0010
0100
0010
1000
0001
,
0010
0100
0010
0001
0100
0000
1100
0000
,
0012
0003
1000
0000
0010
0000
0100
0000
0001
0000
0010
0000
0100
0000
0010
0000
,
0001
1000
0010
0100
0001
0000
0110
0000
,
1000
0010
0000
0000
0001
0010
0000
0000
1000
0010
0000
0000
0001
0000
0100
0000
,
0010
1000
0100
0000
0021
0000
0100
0030
,
0001
0000
0010
0001
0000
1000
0010
0000
0100
0010
0000
2000
0100
0000
3000
0000
,
0100
0000
1000
0100
0000
1000
0001
0000
0100
0001
0000
0200
0010
0000
0300
0000
,
0010
1000
0001
0010
0100
0010
0001
1000
,
0010
0100
0010
1000
0100
0000
0101
0000
,
1010
0001
0010
0100
1000
0010
0100
0010
,
1000
0001
0010
0001
1000
0000
0110
0000
,
0001
0010
0000
0000
1000
0010
0000
0000
0001
0010
0000
0000
1000
0000
0100
0000
,
0010
0001
0100
0000
1020
0000
0100
0030
,
1000
0000
0010
0100
0000
0010
1000
0000
0001
0100
0000
0002
0100
0000
0003
0000
,
0100
0000
0001
1000
0000
0001
0100
0000
0001
0100
0000
0010
0100
0000
0000
0000
,
1001
0000
1000
0010
0200
0001
0310
0100
,
0001
0010
0001
1000
0001
0100
0001
0000
,
1010
0000
0001
0010
0200
1000
0310
0001
,
0100
0000
0001
0100
0000
0001
1000
0000
0010
1000
0000
0001
0100
0000
0000
0000
,
0110
0000
0001
0100
0020
1000
0130
0010
,
1000
0100
1000
0001
1000
0010
1000
0100
,
0010
0000
0001
0010
0000
0100
1000
0000
0100
1000
0000
0200
0010
0000
0300
0000
,
0010
0000
0001
0010
0000
0100
1000
0000
0100
1000
0000
0002
0200
0000
0000
0000
,
0303
0000
0000
0000
;

//--------------- dance-single - RxSteps ----------------
#NOTES:
     dance-single:
     RxSteps:
     Hard:
     8:
     0,0,0,0,0:
0000
0000
0000
0000
,
0001
0000
0000
2000
0100
0000
3000
0100
,
1000
0020
0000
0100
0030
1000
0000
0002
,
0010
0000
0003
0020
0100
0000
0030
0100
,
0010
0001
0000
0100
0000
0010
1000
0100
,
0010
0000
0100
0000
1000
0000
0010
0000
0100
0000
0001
0000
0200
0300
1000
0000
,
0100
0001
0010
0100
0010
0002
0000
0003
,
1000
0000
0010
0000
0100
0000
0001
0000
0100
0000
0010
0000
1000
0000
0200
0300
,
0001
0100
1000
0010
0200
0002
0303
0000
,
2200
0300
3000
0001
0200
0010
0300
0010
,
1000
0100
0020
0001
0000
0100
0030
0000
,
0202
0300
0003
1000
0200
0010
0300
0010
,
0100
1000
0002
0200
0303
0000
1100
0000
,
0021
0030
0100
0000
1000
0000
0010
0000
0100
0000
0001
0000
0010
0000
0100
0000
,
0010
0000
0001
0000
0200
0300
1000
0000
0002
0000
0020
0000
0033
0000
0000
0000
,
1020
0030
0100
0000
0001
0000
1000
0000
0100
0000
0010
0000
0100
0000
1000
0000
,
0010
0100
0010
1000
0200
0020
0330
0000
,
0201
0300
0010
0100
0002
0010
0003
0010
,
0001
0100
0020
1000
0030
1000
0010
0100
,
0001
0000
0010
0000
0200
0300
0001
0000
1000
0000
0010
0000
0001
0000
1000
0000
,
0010
0100
0020
2000
3030
0000
0021
0030
,
0100
1000
0001
0100
0010
0100
0001
1000
,
0200
0300
0001
0000
0100
0000
1000
0000
0010
0000
0000
0000
0011
0000
0000
0000
,
2100
3000
0001
0000
0100
0000
0010
0000
1000
0000
0100
0000
0010
0000
0100
0000
,
1000
0000
0200
0300
0001
0000
0100
0000
1000
0000
0000
0000
0110
0000
0000
0000
,
0001
0100
0000
0000
1000
0100
0000
0000
0001
0100
0000
0000
1000
0000
0010
0000
,
0100
0001
0010
0000
1200
0000
0010
0300
,
1000
0000
0001
0100
0000
0010
1000
0000
0100
1000
0000
0002
0010
0000
0003
0000
,
0010
0000
0001
1000
0000
0010
0100
0000
0010
1000
0000
0001
0100
0000
0000
0000
,
1100
0000
1000
0020
0100
0030
0100
0010
,
1000
0002
0000
0010
0000
0200
0303
0000
,
0001
0000
1000
0000
0010
0000
0100
0000
0001
0000
0020
0030
1000
0000
0010
0000
,
0001
1000
0100
0010
0001
0000
0201
0300
,
0010
0000
1000
0000
0100
0000
0020
0030
1000
0000
0001
0000
0100
0000
1000
0000
,
0010
0100
0001
1000
0001
0010
0100
0000
,
1020
0000
0030
0100
0002
0010
0003
0010
,
0001
1000
0020
0100
0030
0100
0001
0000
,
1010
0000
0000
0001
0020
0100
0030
0100
,
1000
0001
2000
0010
0000
3000
0002
0003
,
0010
0001
1000
0010
0100
0010
1000
0001
,
0020
0030
1000
0000
0010
0000
0001
0000
0100
0000
0000
0000
1100
0000
0000
0000
,
0012
0003
1000
0000
0010
0000
0100
0000
0001
0000
0010
0000
0100
0000
0010
0000
,
0001
0000
0020
0030
1000
0000
0010
0000
0001
0000
0000
0000
0110
0000
0000
0000
,
1000
0010
0000
0000
0001
0010
0000
0000
1000
0010
0000
0000
0001
0000
0100
0000
,
0010
1000
0100
0000
0021
0000
0100
0030
,
0001
0000
1000
0010
0000
0100
0001
0000
0010
0001
0000
2000
0100
0000
3000
0000
,
0100
0000
1000
0001
0000
0100
0010
0000
0100
0001
0000
2000
0010
0000
3000
0000
,
0010
1000
0001
0010
0100
0010
0001
1000
,
0020
0030
0001
0000
0010
0000
1000
0000
0100
0000
0000
0000
0101
0000
0000
0000
,
1010
0001
0010
0100
1000
0010
0100
0010
,
1000
0000
0020
0030
0001
0000
0010
0000
1000
0000
0000
0000
0110
0000
0000
0000
,
0001
0010
0000
0000
1000
0010
0000
0000
0001
0010
0000
0000
1000
0000
0100
0000
,
0010
0001
0100
0000
1020
0000
0100
0030
,
1000
0000
0001
0010
0000
0100
1000
0000
0010
1000
0000
0002
0100
0000
0003
0000
,
0100
0000
0001
1000
0000
0100
0010
0000
0100
1000
0000
0010
0100
0000
0000
0000
,
1001
0000
1000
0010
0200
0001
0310
0100
,
0001
0010
0001
1000
0001
0100
0001
0000
,
1010
0000
0001
0010
0200
1000
0310
0001
,
0100
0000
0001
1000
0000
0010
0100
0000
0001
0010
0000
0001
1000
0000
0000
0000
,
0110
0000
0001
0100
0020
1000
0130
0010
,
1000
0100
1000
0001
1000
0010
1000
0100
,
0010
0000
0100
1000
0000
0001
0010
0000
0100
1000
0000
0002
0100
0000
0003
0000
,
0100
0000
0001
1000
0000
0010
0100
0000
0001
1000
0000
0020
0200
0000
0000
0000
,
0330
0000
0000
0000
;
