#TITLE:Crime Scene;
#SUBTITLE:;
#ARTIST:Night Club;
#TITLETRANSLIT:;
#SUBTITLETRANSLIT:;
#ARTISTTRANSLIT:;
#GENRE:;
#CREDIT:RxSteps;
#MUSIC:Crime Scene.ogg;
#BANNER:Crime Scene.png;
#BACKGROUND:Crime Scene-BG.png;
#CDTITLE:cdtitle.png;
#SAMPLESTART:64.708;
#SAMPLELENGTH:18.462;
#SELECTABLE:YES;
#OFFSET:2.215;
#BPMS:0.000=104.000;
#STOPS:;
#BGCHANGES:;
#FGCHANGES:;

//--------------- dance-single - RxSteps ----------------
#NOTES:
     dance-single:
     RxSteps:
     Beginner:
     2:
     0,0,0,0,0:
0000
0000
0000
0000
,
0000
0001
0000
0000
,
0001
0000
1000
0000
,
1000
0000
0000
0000
,
0010
0000
0010
0000
,
0100
0000
0000
0000
,
0010
0000
0100
0000
,
0100
0000
0000
0000
,
0001
0000
0000
0000
,
1000
0000
0000
0010
,
0000
1000
0000
1000
,
0000
0010
0000
0010
,
0000
0100
0000
0001
,
0000
0001
0000
1000
,
0000
0100
0000
0100
,
0000
0001
0000
0001
,
0000
0010
0000
0100
,
0000
1000
0000
0000
,
0001
0000
0000
0000
,
0001
0000
0000
0000
,
0100
0000
0000
0000
,
0010
0000
0000
0000
,
0010
0000
0000
0000
,
1000
0000
0000
0000
,
0001
0000
0100
0000
,
0001
0000
0000
0001
,
0000
0000
0000
1000
,
0000
0000
0000
0010
,
0000
0000
0000
0000
,
0100
0000
0000
0000
,
0100
0000
0000
0000
,
0100
0000
0000
0000
,
0010
0000
0000
0000
,
1001
0000
0000
0000
,
1000
0000
0000
0000
,
0001
0000
0001
0000
,
0100
0000
0000
0000
,
0010
0000
0010
0000
,
1000
0000
0000
0000
,
1000
0000
0000
0000
,
0001
0000
0000
0000
,
0010
0000
0000
0000
,
0010
0000
0000
0000
,
0100
0000
0000
0000
,
0001
0000
0000
0000
,
1000
0000
0000
0000
,
0100
0000
0000
0000
,
0010
0000
0000
0000
,
0100
0000
0100
0000
,
0001
0000
0000
0000
,
0010
0000
0000
0000
,
0010
0000
0000
0000
,
1000
0000
1000
0000
,
0010
0000
0000
0000
,
0100
0000
0000
0000
,
0100
0000
0000
0000
,
1000
0000
0000
0000
,
1001
0000
0000
0000
,
0010
0000
0000
0000
,
1000
0000
1000
0000
,
0100
0000
0000
0000
,
0001
0000
0001
0000
,
0010
0000
0000
0000
,
0001
0000
0000
0000
,
0100
0000
0000
0000
,
0010
0000
0000
0000
,
0010
0000
0000
0000
,
1000
0000
0000
0000
,
1000
0000
0000
0000
,
0100
0000
0000
0000
,
0100
0000
0000
0000
,
0001
0000
0000
0000
,
0000
0000
1000
0000
,
0001
0000
1000
0000
,
0010
0000
0000
0000
,
0001
0000
1000
0000
,
0100
0000
0000
0000
,
0100
0000
0001
0000
,
0010
0000
0000
0000
,
0001
0000
0000
0000
,
1000
0000
0000
0000
,
0100
0000
0000
0000
;

//--------------- dance-single - RxSteps ----------------
#NOTES:
     dance-single:
     RxSteps:
     Easy:
     4:
     0,0,0,0,0:
0000
0000
0000
0000
,
0000
0001
0000
0100
,
0100
0000
0001
0000
,
0010
0001
0000
1000
,
1000
0000
0000
0010
1000
0000
0000
0000
,
0000
0010
0000
0010
,
0100
0000
0000
0001
0100
0000
0001
0000
,
0100
0001
1000
0001
,
0100
0010
1000
0010
,
1000
0000
0001
0000
0000
0100
0001
0000
,
0001
0000
0100
0000
0000
0001
1000
0000
,
1000
0000
0010
0000
0000
0010
1000
0000
,
0001
0010
0100
1000
,
0001
0000
0100
0000
0000
0001
0010
0000
,
0010
0000
0001
0000
0000
1000
0010
0000
,
1000
0000
0010
0000
0000
0010
1000
0000
,
1000
0100
0010
0001
,
1000
0001
0100
0002
,
0003
1000
0001
0200
,
0300
0001
0010
0100
,
1000
0000
0100
0000
0010
0000
0001
0010
,
0000
0001
1000
0020
,
0030
1000
0001
0100
,
0000
0001
1000
0010
,
0100
0010
1000
0100
,
2000
0000
0000
0000
,
3002
0000
0000
0000
,
0203
0000
0300
0001
,
0100
0010
1000
0010
,
0200
0000
0000
0000
,
0320
0000
0000
0000
,
2030
0000
0000
3000
,
0001
1000
0010
1000
,
0001
1000
0000
0000
0010
1000
0000
0000
,
1010
0000
0000
1000
0001
1000
0000
0000
,
0010
1000
0000
0000
0001
0100
0000
0000
,
0101
0000
0000
0001
1000
0001
0000
0000
,
0100
0001
0000
0000
0010
0001
0000
0000
,
0011
0000
0000
0001
0100
0001
0000
0000
,
1000
0001
0010
0100
,
1000
0100
1000
0100
,
1000
0001
0100
0002
,
0003
1000
0010
2000
,
3000
0001
0010
0001
,
0010
0001
0010
0100
,
1000
0001
1000
0001
,
0000
0100
0010
0010
,
0000
1000
1000
0001
,
0100
0001
0100
0100
,
0002
0000
0000
0003
,
2000
0000
0000
3000
,
0020
0000
0000
0030
,
1000
0100
0010
0001
,
0002
0000
0000
0003
,
0200
0000
0000
0300
,
0020
0000
0000
0030
,
1000
0100
0010
0001
,
1000
0001
0000
0000
0100
0001
0000
0000
,
0101
0000
0000
0001
1000
0001
0000
0000
,
0100
0001
0000
0000
1000
0010
0000
0000
,
1010
0000
0000
1000
0001
1000
0000
0000
,
0010
1000
0000
0000
0100
1000
0000
0000
,
1100
0000
0000
1000
0010
1000
0000
0000
,
0001
1000
0100
0010
,
0001
0010
0001
0010
,
0001
1000
0000
1000
,
0001
0000
0100
0010
,
0100
0001
0000
0001
,
0100
0000
0001
1000
,
0100
1000
0000
1000
,
0100
0000
1000
0010
,
0100
0001
0010
0100
,
1000
1000
0001
0001
,
1000
0001
0000
0000
1000
0100
0000
0000
,
1100
0000
1000
0001
,
0001
1000
0000
0000
0010
1000
0000
0000
,
1010
0000
0001
0001
,
1000
0010
0000
0000
1000
0001
0000
0000
,
1001
0000
1000
1000
,
0001
0010
0100
1000
,
0100
0010
0001
1000
,
0002
0000
0000
0000
,
0000
0003
0000
0000
;

//--------------- dance-single - RxSteps ----------------
#NOTES:
     dance-single:
     RxSteps:
     Medium:
     6:
     0,0,0,0,0:
0000
0000
0000
0000
,
0000
1000
0000
0010
,
0100
0000
0000
0000
0000
0000
0001
0000
0100
0000
0001
0000
1000
0000
0010
1000
,
0000
0001
0000
0001
,
0100
0000
0000
0000
0000
0000
0001
0000
0010
0000
0100
0000
1000
0000
0100
1000
,
0000
0010
0000
0010
,
1000
0000
0000
0000
0000
0000
0001
0100
0001
0000
0100
0000
0010
0000
0100
0010
,
0000
1000
0100
0010
,
0001
0100
0010
1000
,
0001
0000
0110
0000
0000
0001
1000
0000
,
0110
0000
1000
0000
0000
0001
0100
0000
,
0011
0000
1000
0000
0000
0010
1000
0000
,
1001
0002
0100
0013
,
0001
0000
1000
0100
0000
0001
1000
0000
,
0010
0000
1001
0000
0000
0100
1000
0000
,
0010
0000
0100
0000
0000
0100
0001
0000
,
2000
0010
0001
3010
,
1000
0000
0001
1000
0001
0000
0200
0000
,
0300
0000
0001
0010
0200
0000
1300
0000
,
0000
0000
1000
0001
2000
3000
0020
0030
,
0200
0300
0020
0030
1000
0000
0100
1000
,
0000
0000
0001
0100
0010
0000
0020
0000
,
0030
0000
1000
0100
0020
0000
0031
0000
,
0000
0000
1000
0010
0200
0000
0302
0000
,
0203
0320
2030
3200
,
0320
0000
0030
0000
0000
0001
0100
0001
,
0020
0000
0000
0000
0030
0001
1000
0001
,
0200
0000
0000
0000
0000
0300
0010
0100
,
0020
2030
3200
0320
,
0032
0000
0003
0000
0000
1000
0001
0100
,
0020
0000
0030
0000
0000
1000
0100
0010
,
0200
0000
0000
0000
0300
1000
0001
0010
,
0001
0010
0100
1000
,
0101
0001
0011
0001
,
2000
0000
0000
0000
3000
0000
0001
0000
1000
0000
0001
0000
0100
0000
0001
1000
,
0000
1100
1000
1010
,
1000
0000
0000
0000
0000
0000
0001
0000
0100
0000
0010
0000
0100
0000
0010
1000
,
0000
0101
0001
1001
,
1000
0000
0000
0000
0000
0000
0010
0000
1000
0000
0010
0000
1000
0000
0010
0100
,
0000
0001
1000
0010
,
0100
0001
1000
0100
,
1000
0000
0001
0010
0002
0000
0023
0000
,
0000
0000
0130
1000
0200
0000
2300
0000
,
3000
0000
0001
1000
0020
0000
1030
0000
,
1000
0000
0001
0000
0010
0000
0001
0200
,
0000
0300
0001
0100
0010
0000
0020
0000
,
0030
0000
1000
0100
0010
0000
0002
0000
,
0003
0000
1000
0001
0100
0000
0001
0000
,
0010
0100
1000
1000
,
0200
0000
0000
0000
0300
1000
0100
0010
,
0200
0000
0000
0000
0300
0100
0010
0100
,
2000
0000
0000
0000
3000
0000
0001
0100
,
0002
2003
3020
0230
,
0302
0000
0003
0000
0000
1000
0001
1000
,
0020
0000
0000
0000
0030
1000
0001
0010
,
0200
0000
0300
0000
0000
1000
0001
0100
,
0001
1000
0010
0100
,
1010
1000
1100
1000
,
0002
0000
0000
0000
0003
0000
1000
0000
0001
0000
1000
0000
0010
0000
1000
0001
,
0000
0011
0001
0101
,
0001
0000
0000
0000
0000
0000
1000
0000
0010
0000
0100
0000
0010
0000
0100
0001
,
0000
1010
1000
1001
,
0001
0000
0000
0000
0000
0000
0100
0000
0001
0000
0100
0000
0001
0000
0100
0010
,
0000
1000
0001
0100
,
0010
1000
0001
0010
,
1001
0000
1000
0001
1000
0000
0110
0000
,
1001
0000
0000
0000
0000
0000
0001
0000
0100
0000
0001
0000
1000
0000
0001
0100
,
0000
0110
0010
1001
,
0110
0000
0000
0000
0000
0000
1000
0000
0001
0000
1000
0000
0001
0000
0100
0001
,
0000
1001
1000
0110
,
1001
0000
0000
0000
0001
0000
1000
0000
0001
0000
0100
0000
0001
0000
0100
0001
,
0000
1000
0100
0010
,
0001
0002
1000
0103
,
0001
0100
0001
0000
1000
0001
1000
0000
,
0020
1000
0100
0130
,
1000
0010
1000
0000
0001
0100
0001
0000
,
0200
0001
0010
0310
,
1000
0100
0010
0000
0010
0100
1000
0000
,
0002
1000
0010
0013
,
1000
0001
0010
0100
,
0010
0001
1000
0010
,
0200
0000
0000
0000
,
0000
0300
0000
0000
;

//--------------- dance-single - RxSteps ----------------
#NOTES:
     dance-single:
     RxSteps:
     Hard:
     8:
     0,0,0,0,0:
0000
0000
0000
0000
,
0010
1001
0100
1001
,
0110
0000
0000
0000
0001
0000
0100
0001
0100
0000
0010
0000
1000
0000
0100
0010
,
0000
1001
0100
1001
,
0110
0000
0000
0000
0001
0000
1000
0000
0010
0100
0000
0000
0010
0000
1000
0100
,
0000
0101
0010
1100
,
0110
0000
0000
0000
1000
0000
0001
0100
0001
0000
1000
0000
0010
0000
1000
0001
,
0000
0010
0001
2000
,
0010
0001
3010
0100
,
0001
0000
1100
0001
0000
0100
0110
1000
,
0001
0000
0110
1001
0000
1000
0011
1000
,
0001
0000
1010
0001
0000
1000
1100
0001
,
1000
0010
0000
0000
0010
0001
0000
0000
0010
0100
0000
0000
1000
0001
0000
0000
,
0110
0000
0011
1000
0000
0001
0101
1000
,
0010
0000
0011
1000
0000
0110
1001
0000
,
0010
0000
0101
1000
0000
0001
0011
0100
,
0001
1000
0000
0000
0010
0100
0000
0000
1000
0100
0000
0000
0001
0100
0000
0000
,
1000
0000
0001
0010
0001
0100
1001
0001
,
0010
0001
0110
1000
0001
0100
1010
0001
,
1000
0100
0101
1000
0010
1000
0110
0001
,
0200
0010
0001
0310
0002
1000
0010
0103
,
1000
0010
0001
1000
0010
0100
1000
0001
,
0010
0100
0001
0100
0001
0100
1000
0010
,
1000
0100
0001
0100
0001
0010
1000
0010
,
0100
0001
0000
0000
1000
0010
0000
0000
0100
0001
0000
0000
0010
1000
0000
0000
,
0002
0000
0010
0200
0303
0001
0100
0010
,
2000
0000
0010
3100
0000
1000
0001
0020
,
0032
0000
1000
0023
0030
0001
0100
0010
,
0200
0000
0000
0000
0002
0003
0000
0000
0320
0000
0000
0000
2030
0000
0000
0000
,
3200
0000
0310
2000
3000
0001
0100
0020
,
2030
0000
0001
0020
3030
1000
0001
0200
,
0320
0000
1000
0230
0300
0001
1000
0100
,
0020
0230
2300
3010
,
0101
1100
0001
0000
0110
0101
1000
0000
,
0010
0000
0000
0000
0100
0000
0001
0100
0001
0000
1000
0000
0010
0000
0100
0001
,
0000
0000
0110
0000
1000
0100
1001
0000
,
0011
0000
0000
0000
1000
0000
0010
0000
0100
0000
0010
0000
1000
0000
0001
0100
,
0000
0000
0011
0000
1000
0010
1100
0000
,
0011
0000
0000
0000
1000
0000
0100
1000
0100
0000
1000
0000
0001
0000
0010
0001
,
0000
2000
3002
0203
,
0010
0000
0302
0000
0023
0000
0100
0030
,
1000
0001
1010
0001
1000
0010
1001
1000
,
0100
1000
0110
0001
1000
0010
0101
1000
,
0001
0010
1010
0001
0100
0001
0110
1000
,
0020
0100
1000
0130
2000
0001
0100
3010
,
0001
0100
1000
0001
0100
0010
0001
1000
,
0100
0010
1000
0010
1000
0010
0001
0100
,
0001
0010
1000
0010
1000
0100
0001
0100
,
0010
1000
0000
0000
0001
0100
0000
0000
0010
1000
0000
0000
0100
0001
0000
0000
,
2000
0000
0100
0020
3030
1000
0010
0100
,
0002
0000
0100
0013
0000
0001
1000
0200
,
2300
0000
0001
3200
0300
1000
0010
0100
,
0020
0000
0000
0000
2000
3000
0000
0000
0230
0000
0000
0000
0302
0000
0000
0000
,
0023
0000
0130
0002
0003
1000
0010
0200
,
0302
0000
1000
0200
0303
0001
1000
0020
,
0230
0000
0001
0320
0030
1000
0001
0010
,
0200
0320
0032
0103
,
1010
0011
1000
0000
0110
1010
0001
0000
,
0100
0000
0000
0000
0010
0000
1000
0010
1000
0000
0001
0000
0100
0000
0010
1000
,
0000
0000
0110
0000
0001
0010
1001
0000
,
1100
0000
0000
0000
0001
0000
0100
0000
0010
0000
0100
0000
0001
0000
1000
0010
,
0000
0000
1100
0000
0001
0100
0011
0000
,
1100
0000
0000
0000
0001
0000
0010
0001
0010
0000
0001
0000
1000
0000
0100
1000
,
0000
0002
2003
3020
,
0100
0000
0000
0000
2030
0000
0000
0000
3200
0000
0000
0000
0310
0000
0000
0001
,
0100
0000
1010
1000
0100
0000
1001
0000
,
0110
0000
0000
0000
1000
0000
0100
1000
0100
0000
0010
0000
0001
0000
0100
0010
,
0000
0000
1001
0001
0100
0000
1001
0000
,
0110
0000
0000
0000
1000
0000
0001
0000
0010
0100
0000
0000
0010
0000
0001
0100
,
0000
0000
1100
1000
0010
0000
0101
0000
,
0110
0000
0000
0000
0001
0000
1000
0100
1000
0000
0001
0000
0010
0000
0001
1000
,
0000
0020
2030
3002
,
0010
1003
1100
0011
,
1100
0001
1100
0000
0110
0001
0120
0000
,
2030
0000
0000
0000
3001
0000
0000
0000
0010
0001
0000
0000
0100
1000
0000
0000
,
0010
1000
0101
0000
0001
0100
2010
0000
,
3002
0013
1100
0101
,
0001
0010
1100
0000
0001
0010
1010
0000
,
0002
0000
0000
0000
0103
0000
0000
0000
0001
1000
0000
0000
1000
0001
0000
0000
,
0200
0302
2003
3200
,
0010
2300
3020
0230
,
0002
0000
0000
0000
,
0000
0303
0000
0000
;
